<?xml version="1.0" standalone="no"?>
<!DOCTYPE svg PUBLIC "-//W3C//DTD SVG 1.1//EN" "http://www.w3.org/Graphics/SVG/1.1/DTD/svg11.dtd" >
<svg xmlns="http://www.w3.org/2000/svg" xmlns:xlink="http://www.w3.org/1999/xlink" version="1.1">
<metadata>
Created by FontForge 20201107 at Tue Sep 17 20:47:59 2024
 By 
(c) 2022, Copyright by Optimo SARL. All rights reserved.
</metadata>
<defs>
<font id="Artex-Italic" horiz-adv-x="0" >
  <font-face 
    font-family="Artex"
    font-weight="400"
    font-style="italic"
    font-stretch="normal"
    units-per-em="2048"
    panose-1="0 0 0 0 0 0 0 0 0 0"
    ascent="1638"
    descent="-410"
    x-height="1085"
    cap-height="1454"
    bbox="-401 -471 2726 2195"
    underline-thickness="102"
    underline-position="-85"
    slope="-9.99998"
    unicode-range="U+0020-FB02"
  />
<missing-glyph horiz-adv-x="1437" 
d="M242 1087l366 367h90l-82 -82q-98 -28 -171 -101t-101 -173l-102 -101v90zM242 82v90l385 385v-70h20zM242 264v92l649 648v-27q0 -29 -18.5 -58t-40.5 -48.5t-58.5 -49.5t-54.5 -47q-45 -42 -68 -100zM242 449v90l577 577q29 -18 49 -43zM242 631v90l276 278l74 -4
q0 55 37.5 97.5t101.5 42.5h14zM242 815v90l106 105l84 -6zM242 1180v92l184 182h90zM242 1364v90h92zM250 0l489 487h90l-172 -174h-43v-41l-270 -272h-94zM434 0l180 178v-90l-88 -88h-92zM616 0l64 61h90l-61 -61h-93zM723 1384l70 70h90l-70 -72q-32 4 -53 4t-37 -2z
M748 313l512 510v-90l-420 -420h-92zM801 0l59 61h4v5l396 391v-90l-367 -367h-92zM854 512v12q0 23 5 39.5t18.5 32t25 25t38.5 29.5t44 34q3 2 24 17t32 24t31.5 29t33 39t26 47.5t19.5 60.5l109 105v-91zM864 158v90l396 391v-90zM887 1366l88 88h90l-115 -117
q-48 25 -63 29zM983 0l277 274v-92l-185 -182h-92zM1006 1303l151 151h92l-194 -194q-22 25 -49 43zM1092 1208l168 164v-90l-134 -133q-15 38 -34 59zM1149 1081l111 109v-92l-101 -99q0 37 -10 82zM1165 0l95 90v-90h-95z" />
    <glyph glyph-name="f_f" unicode="ff" horiz-adv-x="1447" 
d="M367 1319q23 135 163 135h357l-31 -186h-276l-33 -183h432l41 234q23 135 166 135h354l-31 -186h-276l-33 -183h277l-33 -190h-277l-159 -895h-222l158 895h-430l-160 -895h-221l158 895h-160l35 190h160z" />
    <glyph glyph-name="f_f_i" unicode="ffi" horiz-adv-x="1890" 
d="M367 1319q23 135 163 135h357l-31 -186h-276l-33 -183h432l41 234q23 135 164 135h356l-31 -186h-276l-33 -183h277l-33 -190h-277l-159 -895h-222l158 895h-430l-160 -895h-221l158 895h-160l35 190h160zM1438 0l192 1085h221l-192 -1085h-221zM1655 1229l37 225h221
l-37 -225h-221z" />
    <glyph glyph-name="f_f_l" unicode="ffl" horiz-adv-x="1892" 
d="M367 1319q23 135 163 135h357l-31 -186h-276l-33 -183h432l41 234q23 135 164 135h356l-31 -186h-276l-33 -183h277l-33 -190h-277l-159 -895h-222l158 895h-430l-160 -895h-221l158 895h-160l35 190h160zM1440 0l256 1454h221l-256 -1454h-221z" />
    <glyph glyph-name="f_i" unicode="fi" horiz-adv-x="1236" 
d="M367 1319q23 135 163 135h357l-31 -186h-276l-33 -183h276l-32 -190h-277l-160 -895h-221l158 895h-160l35 190h160zM784 0l193 1085h221l-192 -1085h-222zM1001 1229l39 225h222l-39 -225h-222z" />
    <glyph glyph-name="f_l" unicode="fl" horiz-adv-x="1241" 
d="M367 1319q23 135 163 135h357l-31 -186h-276l-33 -183h276l-32 -190h-277l-160 -895h-221l158 895h-160l35 190h160zM788 0l256 1454h222l-256 -1454h-222z" />
    <glyph glyph-name=".notdef" horiz-adv-x="1437" 
d="M242 1087l366 367h90l-82 -82q-98 -28 -171 -101t-101 -173l-102 -101v90zM242 82v90l385 385v-70h20zM242 264v92l649 648v-27q0 -29 -18.5 -58t-40.5 -48.5t-58.5 -49.5t-54.5 -47q-45 -42 -68 -100zM242 449v90l577 577q29 -18 49 -43zM242 631v90l276 278l74 -4
q0 55 37.5 97.5t101.5 42.5h14zM242 815v90l106 105l84 -6zM242 1180v92l184 182h90zM242 1364v90h92zM250 0l489 487h90l-172 -174h-43v-41l-270 -272h-94zM434 0l180 178v-90l-88 -88h-92zM616 0l64 61h90l-61 -61h-93zM723 1384l70 70h90l-70 -72q-32 4 -53 4t-37 -2z
M748 313l512 510v-90l-420 -420h-92zM801 0l59 61h4v5l396 391v-90l-367 -367h-92zM854 512v12q0 23 5 39.5t18.5 32t25 25t38.5 29.5t44 34q3 2 24 17t32 24t31.5 29t33 39t26 47.5t19.5 60.5l109 105v-91zM864 158v90l396 391v-90zM887 1366l88 88h90l-115 -117
q-48 25 -63 29zM983 0l277 274v-92l-185 -182h-92zM1006 1303l151 151h92l-194 -194q-22 25 -49 43zM1092 1208l168 164v-90l-134 -133q-15 38 -34 59zM1149 1081l111 109v-92l-101 -99q0 37 -10 82zM1165 0l95 90v-90h-95z" />
    <glyph glyph-name=".null" 
 />
    <glyph glyph-name="nonmarkingreturn" horiz-adv-x="682" 
 />
    <glyph glyph-name="space" unicode=" " horiz-adv-x="446" 
 />
    <glyph glyph-name="exclam" unicode="!" horiz-adv-x="563" 
d="M76 0l39 223h221l-39 -223h-221zM141 377l191 1077h221l-191 -1077h-221z" />
    <glyph glyph-name="quotedbl" unicode="&#x22;" horiz-adv-x="839" 
d="M229 971l50 483h233l-121 -483h-162zM598 971l49 483h234l-121 -483h-162z" />
    <glyph glyph-name="numbersign" unicode="#" horiz-adv-x="1251" 
d="M246 1085h227l131 369h176l-131 -369h277l131 369h176l-131 -369h178l-29 -159h-207l-137 -387h193l-27 -160h-223l-135 -379h-176l135 379h-277l-135 -379h-174l135 379h-186l29 160h213l137 387h-199zM455 539h276l137 387h-276z" />
    <glyph glyph-name="dollar" unicode="$" horiz-adv-x="1236" 
d="M367 -211l39 215q-158 44 -252.5 166t-94.5 301h226q0 -138 88.5 -216.5t226.5 -78.5q116 0 201.5 46.5t103.5 139.5q11 62 -9 110t-62.5 78t-101 58t-123.5 48.5t-130 49.5t-121.5 62t-96.5 84.5t-56 118.5t0 164q27 150 151.5 238t307.5 100l28 161h228l-33 -184
q146 -44 233.5 -160t87.5 -284h-221q-7 135 -82.5 206.5t-199.5 71.5q-109 0 -188.5 -45t-92.5 -129q-9 -54 13 -96t66 -69t103 -52t124 -46t129.5 -51t120 -66.5t94.5 -92.5t53.5 -129.5t-3.5 -177.5q-12 -67 -45.5 -123.5t-81 -95.5t-108 -67.5t-125.5 -43t-135 -18.5
l-35 -193h-227z" />
    <glyph glyph-name="percent" unicode="%" horiz-adv-x="1961" 
d="M428 639q-142 0 -221.5 89t-79.5 224q0 107 26 199t75 163t127.5 111.5t176.5 40.5q139 0 220.5 -86t81.5 -225q0 -151 -46 -266.5t-139 -182.5t-221 -67zM305 958q0 -78 34.5 -128t102.5 -50q71 0 121 57t71 138.5t21 175.5q0 77 -34.5 125.5t-104.5 48.5q-54 0 -96 -33
t-66 -87.5t-36.5 -117t-12.5 -129.5zM492 0l884 1454h170l-884 -1454h-170zM1192 301q0 107 26 199t75 163t127.5 111.5t176.5 40.5q139 0 220 -86t81 -225q0 -151 -46 -266.5t-138.5 -182.5t-220.5 -67q-142 0 -221.5 89t-79.5 224zM1370 307q0 -78 34.5 -128t102.5 -50
q71 0 121 57t71 138.5t21 175.5q0 77 -34.5 125.5t-104.5 48.5q-54 0 -96 -33t-66 -87.5t-36.5 -117t-12.5 -129.5z" />
    <glyph glyph-name="ampersand" unicode="&#x26;" horiz-adv-x="1447" 
d="M571 0q-233 0 -360 116.5t-94 307.5q13 70 49.5 130t94.5 107.5t116 81.5t135 70q-70 102 -101 188.5t-12 180.5q27 138 142.5 215.5t279.5 77.5q121 0 213.5 -43.5t137.5 -125t26 -186.5q-19 -109 -118.5 -197.5t-266.5 -168.5l262 -334l55 321h191l-96 -553
q-17 -94 -70.5 -141t-136.5 -47h-447zM338 403q-20 -109 55.5 -163t206.5 -54h395l-372 480q-129 -64 -199 -123.5t-86 -139.5zM612 1145q-11 -62 6.5 -113.5t83.5 -136.5q82 37 136.5 69.5t96 77.5t50.5 95q12 71 -37.5 118.5t-128.5 47.5q-80 0 -137.5 -44t-69.5 -114z
" />
    <glyph glyph-name="quotesingle" unicode="'" horiz-adv-x="471" 
d="M229 971l50 483h233l-121 -483h-162z" />
    <glyph glyph-name="parenleft" unicode="(" horiz-adv-x="624" 
d="M199 -330q-96 210 -121 454.5t20 491.5q43 247 153.5 488.5t278.5 451.5h213q-349 -452 -434 -940q-87 -499 103 -946h-213z" />
    <glyph glyph-name="parenright" unicode=")" horiz-adv-x="624" 
d="M451 1556q96 -210 120.5 -455t-20.5 -491q-43 -247 -153.5 -488.5t-278.5 -451.5h-213q349 452 434 940q87 501 -102 946h213z" />
    <glyph glyph-name="asterisk" unicode="*" horiz-adv-x="993" 
d="M373 760l-115 106l195 195l-207 86l73 147l213 -84l43 244h164l-43 -244l246 84l27 -151l-246 -86l125 -199l-135 -98l-133 203h-5z" />
    <glyph glyph-name="plus" unicode="+" horiz-adv-x="1153" 
d="M422 225l72 408h-402l33 192h401l72 404h199l-72 -404h403l-32 -192h-404l-71 -408h-199z" />
    <glyph glyph-name="comma" unicode="," horiz-adv-x="505" 
d="M-82 -225l195 483h235l-250 -483h-180z" />
    <glyph glyph-name="hyphen" unicode="-" horiz-adv-x="868" 
d="M102 473l31 184h643l-33 -184h-641z" />
    <glyph glyph-name="period" unicode="." horiz-adv-x="491" 
d="M39 0l41 231h221l-41 -231h-221z" />
    <glyph glyph-name="slash" unicode="/" horiz-adv-x="802" 
d="M-37 0l715 1454h225l-715 -1454h-225z" />
    <glyph glyph-name="zero" unicode="0" horiz-adv-x="1347" 
d="M608 -20q-105 0 -189 32t-139 89t-91.5 133t-50.5 168.5t-11.5 190.5t20.5 202q26 146 79 267t133 214.5t194.5 146t251.5 52.5q110 0 196 -33t140.5 -92.5t89.5 -137t47.5 -171t9 -188.5t-21.5 -196q-27 -147 -80.5 -268t-133.5 -213.5t-193.5 -144t-250.5 -51.5z
M375 774q-13 -77 -17.5 -154.5t6 -161t37 -147t81.5 -104.5t134 -41q85 0 158 43.5t124.5 118.5t87 166.5t54.5 197.5q14 78 18 154.5t-6.5 158.5t-38.5 143t-84.5 100.5t-137.5 39.5q-84 0 -156 -42.5t-122.5 -116t-85 -163t-52.5 -192.5z" />
    <glyph glyph-name="one" unicode="1" horiz-adv-x="815" 
d="M346 0l219 1255h-358l35 199h446q61 0 93.5 -38.5t21.5 -98.5l-234 -1317h-223z" />
    <glyph glyph-name="two" unicode="2" horiz-adv-x="1230" 
d="M66 193q492 329 693.5 509t223.5 310q21 118 -53.5 196t-200.5 78q-138 0 -222 -73t-99 -201h-236q18 118 69 208t127 145t169.5 82.5t203.5 27.5t204.5 -34.5t159 -95.5t93.5 -151.5t10 -196.5q-30 -172 -218.5 -355t-612.5 -441l-2 -11l231 9h457l-35 -199h-995z" />
    <glyph glyph-name="three" unicode="3" horiz-adv-x="1267" 
d="M586 -20q-263 0 -393 106.5t-130 325.5h228q0 -130 71 -191t228 -61q131 0 217.5 67.5t107.5 178.5q22 129 -58.5 192.5t-227.5 63.5h-113l35 180h100q91 0 168 21.5t133.5 70.5t69.5 119q20 114 -55 176.5t-213 62.5q-139 0 -224 -59t-108 -172h-225q34 205 188.5 309.5
t380.5 104.5q150 0 266 -51t174.5 -148.5t36.5 -222.5q-14 -79 -59.5 -141.5t-103.5 -98.5t-126 -53l-2 -8q63 -23 106.5 -66t62.5 -93.5t25.5 -108t-5.5 -109.5q-34 -189 -190.5 -292t-364.5 -103z" />
    <glyph glyph-name="four" unicode="4" horiz-adv-x="1263" 
d="M797 0l59 336h-809l29 176l862 942h199q60 0 92 -38t22 -99l-231 -1317h-223zM344 528h545l80 443l55 286h-27l-649 -708z" />
    <glyph glyph-name="five" unicode="5" horiz-adv-x="1273" 
d="M580 -20q-248 0 -384 124.5t-130 327.5h213q9 -127 90.5 -199.5t218.5 -72.5q140 0 234 76.5t116 199.5q25 136 -46 227t-214 91q-122 0 -201 -35.5t-135 -114.5h-131q-29 0 -44.5 21.5t-6.5 54.5l155 637q15 62 59.5 99.5t102.5 37.5h787l-35 -199h-729l-109 -419
q123 96 332 96q150 0 259 -68t155 -184.5t22 -257.5q-34 -191 -186.5 -316.5t-392.5 -125.5z" />
    <glyph glyph-name="six" unicode="6" horiz-adv-x="1327" 
d="M647 -20q-113 0 -203 28t-150 79.5t-99.5 120.5t-56.5 154.5t-16 178t19 194.5q27 152 83 283t139.5 234.5t203 163t260.5 59.5q210 0 334.5 -113.5t126.5 -298.5h-229q-12 117 -71 172t-181 55q-88 0 -162.5 -41t-128 -114t-90.5 -160.5t-61 -192.5q137 127 372 127
q90 0 166 -21t129 -57.5t93.5 -87t59 -109t25 -123.5t-7.5 -130q-32 -181 -184.5 -291t-370.5 -110zM340 492q-27 -151 62 -241.5t251 -90.5q134 0 218 63.5t104 177.5q11 64 -1 122.5t-45.5 105t-94.5 74.5t-142 28q-144 0 -238 -62.5t-114 -176.5z" />
    <glyph glyph-name="seven" unicode="7" horiz-adv-x="1103" 
d="M127 0l776 1255h-696l35 199h938l-33 -174l-778 -1280h-242z" />
    <glyph glyph-name="eight" unicode="8" horiz-adv-x="1277" 
d="M578 -20q-160 0 -283.5 55.5t-184.5 158.5t-38 232q22 118 107.5 205.5t213.5 124.5l2 10q-200 107 -157 342q30 171 183 269t359 98q100 0 188 -30t151 -83.5t92.5 -134.5t13.5 -176q-19 -109 -92 -182t-179 -107l-2 -10q250 -119 203 -377q-32 -180 -190 -287.5
t-387 -107.5zM309 434q-22 -123 56.5 -197.5t224.5 -74.5q132 0 228.5 60t115.5 171q15 85 -20 147.5t-105.5 94t-165.5 31.5q-79 0 -148 -24.5t-121 -78.5t-65 -129zM457 1094q-14 -78 19.5 -136.5t95 -87t137.5 -28.5q115 0 196 55t99 154q20 115 -48 179t-202 64
q-115 0 -197.5 -51.5t-99.5 -148.5z" />
    <glyph glyph-name="nine" unicode="9" horiz-adv-x="1327" 
d="M563 -20q-210 0 -334.5 113t-124.5 298h228q12 -117 71.5 -172t182.5 -55q71 0 133 27.5t109 74t86 112t66 137.5t46 155q-135 -125 -371 -125q-133 0 -234 45.5t-155.5 120.5t-74.5 167t-3 191q34 185 185 295.5t372 110.5q112 0 201.5 -28t150 -79t101 -119.5
t57.5 -153t16.5 -176.5t-18.5 -192q-22 -121 -60.5 -229t-98.5 -203.5t-136.5 -165t-177.5 -109.5t-217 -40zM416 1053q-15 -86 10 -160t96 -122t178 -48q144 0 238.5 63t114.5 179q26 150 -63.5 239.5t-252.5 89.5q-134 0 -217.5 -63.5t-103.5 -177.5z" />
    <glyph glyph-name="colon" unicode=":" horiz-adv-x="493" 
d="M39 0l43 231h221l-43 -231h-221zM172 752l41 231h221l-41 -231h-221z" />
    <glyph glyph-name="semicolon" unicode=";" horiz-adv-x="548" 
d="M203 752l41 231h221l-41 -231h-221zM-84 -225l195 483h235l-250 -483h-180z" />
    <glyph glyph-name="less" unicode="&#x3c;" horiz-adv-x="1169" 
d="M1016 205l-928 395l45 250l1065 397l-37 -231l-803 -279l-6 -39l703 -276z" />
    <glyph glyph-name="equal" unicode="=" horiz-adv-x="1196" 
d="M150 838l32 190h1004l-33 -190h-1003zM76 428l35 190h1003l-35 -190h-1003z" />
    <glyph glyph-name="greater" unicode="&#x3e;" horiz-adv-x="1167" 
d="M217 1247l926 -397l-45 -250l-1063 -395l39 231l803 279l6 39l-703 276z" />
    <glyph glyph-name="question" unicode="?" horiz-adv-x="1103" 
d="M399 440q18 95 54 161t84.5 111.5t140.5 110.5q112 79 159.5 128t59.5 120q17 95 -44.5 152t-166.5 57q-125 0 -208.5 -78t-94.5 -203h-233q25 218 170 347t366 129q136 0 243.5 -52t161.5 -148.5t33 -217.5q-30 -180 -258 -336q-59 -40 -94.5 -68.5t-68.5 -63.5
t-51 -73.5t-27 -87.5l-11 -53h-227zM322 0l38 219h226l-39 -219h-225z" />
    <glyph glyph-name="at" unicode="@" horiz-adv-x="2148" 
d="M856 -369q-151 0 -269.5 31t-197.5 84t-132.5 130.5t-80 163.5t-34 191t0 204t27.5 212q34 193 111.5 344t199.5 260t298 166.5t397 57.5q160 0 293.5 -32.5t230.5 -93.5t167 -147.5t104.5 -195t42.5 -236t-19 -270.5q-41 -236 -167 -349.5t-339 -113.5h-600
q-148 0 -223.5 96t-51.5 234q19 115 111 176.5t236 74.5l325 29l10 53q15 85 -24.5 131t-134.5 46q-175 0 -201 -146h-215q25 148 134 229.5t292 81.5q191 0 283 -99.5t61 -276.5l-82 -461h66q139 0 214.5 78.5t104.5 238.5q22 112 17.5 212.5t-28.5 186.5t-76 155.5
t-126 118t-179.5 75t-234.5 26.5q-175 0 -313 -47t-232.5 -136.5t-154 -211t-86.5 -276.5q-11 -64 -18 -117t-11 -120t-0.5 -122t16.5 -115.5t36.5 -107t63 -90.5t93 -72.5t129 -45.5t168.5 -17h461l-31 -187h-432zM819 354q-12 -69 24.5 -108t119.5 -39h241l56 293
l-271 -27q-68 -6 -114 -35.5t-56 -83.5z" />
    <glyph glyph-name="A" unicode="A" horiz-adv-x="1470" 
d="M-37 0l768 1454h340l258 -1454h-225l-74 461h-594l-239 -461h-234zM537 653h460l-53 332l-45 268h-57l-133 -268z" />
    <glyph glyph-name="B" unicode="B" horiz-adv-x="1273" 
d="M276 1325q10 60 52 94.5t104 34.5h361q224 0 346.5 -115.5t89.5 -304.5q-16 -97 -79 -179t-167 -120q111 -41 158.5 -143.5t27.5 -214.5q-28 -159 -166 -268t-346 -109h-614zM301 195h348q118 0 197.5 62t95.5 151q19 101 -50 166t-190 65h-323zM412 825h307
q117 0 191.5 57.5t90.5 145.5q19 106 -46 171t-201 65h-265z" />
    <glyph glyph-name="C" unicode="C" horiz-adv-x="1576" 
d="M764 -20q-173 0 -309 65.5t-216.5 177.5t-110.5 262t-1 318q25 143 94.5 266.5t171.5 213.5t238.5 141t288.5 51q270 0 433 -136t201 -364h-241q-31 140 -139.5 221.5t-276.5 81.5q-106 0 -200 -39t-162.5 -106.5t-115.5 -157t-65 -191.5q-14 -94 -8.5 -182t40 -165.5
t87 -135t133 -90.5t178.5 -33q159 0 283 81.5t193 215.5h241q-93 -227 -283.5 -361t-453.5 -134z" />
    <glyph glyph-name="D" unicode="D" horiz-adv-x="1456" 
d="M276 1325q10 60 52 94.5t104 34.5h318q175 0 313 -58.5t219.5 -162.5t114.5 -248.5t0 -316.5q-53 -296 -276 -482t-535 -186h-543zM305 195h299q221 0 372 136t189 351q28 161 -12.5 291t-151 208.5t-274.5 78.5h-235z" />
    <glyph glyph-name="E" unicode="E" horiz-adv-x="1116" 
d="M276 1325q10 60 52 94.5t104 34.5h758l-33 -197h-665l-76 -432h592l-35 -194h-592l-76 -434h674l-35 -197h-901z" />
    <glyph glyph-name="F" unicode="F" horiz-adv-x="1134" 
d="M276 1325q10 60 52 94.5t104 34.5h758l-35 -199h-663l-76 -434h590l-35 -194h-590l-111 -627h-227z" />
    <glyph glyph-name="G" unicode="G" horiz-adv-x="1595" 
d="M760 -20q-114 0 -214 30.5t-174.5 85.5t-132 131t-86.5 167.5t-38.5 194.5t12.5 212q25 143 95.5 267.5t173.5 214t239 141t287 51.5q268 0 432 -136t200 -364h-241q-31 142 -139 222.5t-275 80.5q-106 0 -200.5 -39t-163 -106.5t-115 -157t-64.5 -191.5
q-14 -94 -8.5 -182t40 -165.5t87 -135.5t133 -91.5t178.5 -33.5q194 0 320 93.5t160 262.5l10 48h-510l33 188h739l-37 -205q-35 -195 -142.5 -328t-259 -194t-339.5 -61z" />
    <glyph glyph-name="H" unicode="H" horiz-adv-x="1415" 
d="M954 0l111 629h-684l-111 -629h-227l256 1454h227l-110 -625h684l110 625h226l-256 -1454h-226z" />
    <glyph glyph-name="I" unicode="I" horiz-adv-x="503" 
d="M299 1454h227l-256 -1454h-227z" />
    <glyph glyph-name="J" unicode="J" horiz-adv-x="702" 
d="M-31 0l35 199h275l217 1255h227l-231 -1317q-12 -68 -55.5 -102.5t-110.5 -34.5h-357z" />
    <glyph glyph-name="K" unicode="K" horiz-adv-x="1286" 
d="M795 739l331 -725v-14h-237l-283 653h-221l-115 -653h-227l256 1454h227l-106 -602h190l508 602h264v-16l-575 -654z" />
    <glyph glyph-name="L" unicode="L" horiz-adv-x="1097" 
d="M43 0l256 1454h227l-221 -1255h670l-35 -199h-897z" />
    <glyph glyph-name="M" unicode="M" horiz-adv-x="1837" 
d="M256 0h-213l233 1325q11 60 52 94.5t104 34.5h277l96 -950l29 -295h47l129 295l434 950h414l-256 -1454h-213l163 924l56 319h-47l-138 -319l-430 -924h-338l-102 924l-29 319h-51l-55 -319z" />
    <glyph glyph-name="N" unicode="N" horiz-adv-x="1460" 
d="M274 1319q25 135 166 135h246l229 -919l76 -314h58l53 305l164 928h215l-256 -1454h-387l-232 920l-74 313h-59l-215 -1233h-215z" />
    <glyph glyph-name="O" unicode="O" horiz-adv-x="1613" 
d="M764 -20q-171 0 -306.5 65t-217 176t-112.5 261.5t-1 318.5q25 143 94.5 267t171.5 214t238.5 141.5t288.5 51.5q115 0 214.5 -30t174.5 -84.5t132.5 -130t86.5 -167t38.5 -195.5t-12.5 -215q-25 -144 -94.5 -267.5t-171.5 -213.5t-237.5 -141t-286.5 -51zM354 784
q-16 -76 -10.5 -150t23 -141.5t56 -125t88.5 -99.5t120.5 -66t152.5 -24q211 0 358 141.5t185 356.5q15 76 10 150.5t-23 141.5t-56 123.5t-88.5 98t-120.5 65t-152 23.5q-206 0 -355 -139t-188 -355z" />
    <glyph glyph-name="P" unicode="P" horiz-adv-x="1218" 
d="M276 1325q10 60 52 94.5t104 34.5h352q231 0 354.5 -124t86.5 -339q-32 -178 -176 -282.5t-349 -104.5h-323l-109 -604h-225zM410 797h317q107 0 181 60.5t93 162.5q20 114 -45.5 177t-197.5 63h-266z" />
    <glyph glyph-name="Q" unicode="Q" horiz-adv-x="1613" 
d="M784 178q211 0 358 141.5t185 356.5q15 76 10 150.5t-23 141.5t-56 123.5t-88.5 98t-120.5 65t-152 23.5q-206 0 -355 -139t-188 -355q-16 -76 -10.5 -150t23 -141.5t56 -125t88.5 -99.5t120.5 -66t152.5 -24zM127 801q25 143 94.5 267t171.5 214t238.5 141.5t288.5 51.5
q115 0 214.5 -30t174.5 -84.5t132.5 -130t86.5 -167t38.5 -195.5t-12.5 -215q-46 -263 -230.5 -446.5t-446.5 -218.5l-13 -64h449l-31 -186h-516q-68 0 -103.5 41.5t-23.5 107.5l18 99q-195 26 -329 141.5t-186 291.5t-15 382z" />
    <glyph glyph-name="R" unicode="R" horiz-adv-x="1314" 
d="M276 1325q10 60 52 94.5t104 34.5h395q224 0 349 -127.5t90 -333.5q-24 -143 -125.5 -239t-251.5 -131l270 -623h-260l-244 606h-280l-107 -606h-225zM410 797h354q105 0 181 61.5t93 157.5q22 116 -43.5 180t-199.5 64h-306z" />
    <glyph glyph-name="S" unicode="S" horiz-adv-x="1271" 
d="M596 -20q-237 0 -387 132t-150 359h226q0 -140 90.5 -217.5t240.5 -77.5q81 0 148 18.5t115 61t59 104.5q12 67 -8.5 117.5t-65 83t-105.5 57.5t-129 46.5t-136 45t-127.5 58t-101.5 79.5t-59 116.5t-1 162.5q30 166 172.5 257.5t355.5 91.5q223 0 367.5 -126t144.5 -343
h-221q-9 136 -87.5 207t-215.5 71q-119 0 -202 -45t-97 -129q-10 -58 12 -103t67.5 -75t106.5 -55t129.5 -48t136.5 -49.5t127 -64.5t101 -86.5t58.5 -123t0.5 -167.5t-69.5 -163.5t-132 -112t-170 -62t-193.5 -20.5z" />
    <glyph glyph-name="T" unicode="T" horiz-adv-x="1228" 
d="M406 0l221 1255h-437l35 199h1098l-33 -199h-436l-223 -1255h-225z" />
    <glyph glyph-name="U" unicode="U" horiz-adv-x="1404" 
d="M627 -20q-92 0 -168.5 19.5t-129.5 53t-93 79.5t-62.5 97.5t-33.5 108t-10.5 110t9.5 105.5l160 901h227l-159 -903q-15 -99 -1.5 -168.5t54.5 -114t96.5 -64.5t126.5 -20q147 0 256 88.5t141 270.5l160 911h227l-163 -934q-13 -72 -40 -142.5t-79 -143.5t-121 -128.5
t-172 -90.5t-225 -35z" />
    <glyph glyph-name="V" unicode="V" horiz-adv-x="1439" 
d="M219 1454h232l143 -973l37 -268h49l133 268l490 973h237l-745 -1454h-342z" />
    <glyph glyph-name="W" unicode="W" horiz-adv-x="2119" 
d="M1200 1249h-35l-123 -319l-368 -930h-340l-113 1454h225l56 -944l12 -305h37l115 305l378 944h342l44 -944l12 -305h35l116 305l392 944h233l-625 -1454h-340l-41 930z" />
    <glyph glyph-name="X" unicode="X" horiz-adv-x="1384" 
d="M-39 0l543 750l-262 704h237l207 -612h107l419 612h256l-512 -717l271 -737h-240l-225 633h-100l-447 -633h-254z" />
    <glyph glyph-name="Y" unicode="Y" horiz-adv-x="1273" 
d="M535 592l-316 854l-2 8h242l137 -416l80 -237h8l158 237l288 416h246v-8l-616 -852l-107 -594h-227z" />
    <glyph glyph-name="Z" unicode="Z" horiz-adv-x="1204" 
d="M-16 0l32 199l945 1054v2h-736l33 199h1010l-31 -197l-956 -1056v-2h786l-35 -199h-1048z" />
    <glyph glyph-name="bracketleft" unicode="[" horiz-adv-x="600" 
d="M125 -330q-65 0 -98.5 40t-22.5 104l285 1616q22 126 157 126h261l-35 -190h-180l-263 -1505h181l-35 -191h-250z" />
    <glyph glyph-name="backslash" unicode="\" horiz-adv-x="765" 
d="M389 0l-170 1454h219l170 -1454h-219z" />
    <glyph glyph-name="bracketright" unicode="]" horiz-adv-x="600" 
d="M500 1556q65 0 98.5 -39.5t22.5 -103.5l-285 -1616q-22 -127 -158 -127h-260l35 191h180l262 1505h-180l35 190h250z" />
    <glyph glyph-name="asciicircum" unicode="^" horiz-adv-x="980" 
d="M201 915l309 457h254l145 -457h-180l-106 330l-224 -330h-198z" />
    <glyph glyph-name="underscore" unicode="_" horiz-adv-x="1261" 
d="M-8 -94h1050l-28 -170h-1053z" />
    <glyph glyph-name="grave" unicode="`" horiz-adv-x="698" 
d="M516 1200l-254 254h277l174 -254h-197z" />
    <glyph glyph-name="a" unicode="a" horiz-adv-x="1150" 
d="M383 0q-181 0 -273 96.5t-63 261.5q43 249 436 277l357 29l12 67q19 98 -36.5 149.5t-174.5 51.5q-106 0 -164.5 -42.5t-81.5 -135.5h-231q20 117 90.5 198t170 117.5t222.5 36.5q212 0 331.5 -107.5t86.5 -287.5l-104 -576q-12 -65 -54 -100t-110 -35h-414zM272 336
q-13 -78 30 -117t138 -39h312l59 322l-281 -27q-44 -3 -74.5 -7.5t-65.5 -14t-57 -23.5t-39 -38t-22 -56z" />
    <glyph glyph-name="b" unicode="b" horiz-adv-x="1236" 
d="M186 0q-65 0 -101 40t-24 107l230 1307h221l-66 -369h220q173 0 293 -77.5t167.5 -211t18.5 -300.5q-19 -103 -63.5 -190.5t-114.5 -157t-174 -109t-230 -39.5h-377zM289 190h280q144 0 235 94t118 238q8 55 7.5 108.5t-19.5 101.5t-51 84t-87.5 57.5t-128.5 21.5h-229z
" />
    <glyph glyph-name="c" unicode="c" horiz-adv-x="1228" 
d="M592 -20q-171 0 -295 78.5t-177.5 221.5t-21.5 324q38 218 194.5 360t379.5 142q191 0 323 -100.5t168 -264.5h-229q-30 85 -99 135t-167 50q-94 0 -170 -49t-121 -127t-62 -175q-10 -45 -7.5 -93t11 -94.5t31.5 -87.5t55 -72.5t81.5 -49.5t109.5 -18q98 0 173.5 49
t121.5 135h235q-64 -167 -205 -265.5t-329 -98.5z" />
    <glyph glyph-name="d" unicode="d" horiz-adv-x="1241" 
d="M571 0q-173 0 -292 76.5t-166 211.5t-17 306q17 100 61.5 186t114 155.5t173.5 109.5t229 40h307l66 369h221l-232 -1317q-12 -68 -55.5 -102.5t-110.5 -34.5h-299zM315 565q-7 -55 -7 -108t19.5 -101.5t51.5 -85.5t88.5 -58.5t130.5 -21.5h225l125 705h-278
q-146 0 -238 -93.5t-117 -236.5z" />
    <glyph glyph-name="e" unicode="e" horiz-adv-x="1253" 
d="M592 -20q-125 0 -228.5 46t-170 126.5t-93.5 197t-4 250.5q39 221 196 363.5t380 142.5q115 0 216 -41.5t174 -121t100.5 -196.5t-3.5 -268h-852q2 -63 18.5 -118.5t49.5 -102.5t89.5 -74.5t129.5 -27.5q96 0 172.5 48.5t118.5 133.5h237q-73 -174 -211 -266t-319 -92z
M332 649h624q-9 126 -86.5 204.5t-201.5 78.5q-123 0 -210.5 -78t-125.5 -205z" />
    <glyph glyph-name="f" unicode="f" horiz-adv-x="794" 
d="M367 1319q23 135 163 135h357l-31 -186h-276l-33 -183h276l-32 -190h-277l-160 -895h-221l158 895h-160l35 190h160z" />
    <glyph glyph-name="g" unicode="g" horiz-adv-x="1239" 
d="M74 -369l32 187h652l33 188h-222q-172 0 -291 77t-166 210.5t-18 300.5q18 101 62 187.5t113 155.5t172 108.5t229 39.5h395q61 0 93 -38t22 -99l-207 -1175q-12 -68 -57.5 -105t-112.5 -37h-729zM317 569q-8 -56 -8 -109.5t19.5 -101.5t51 -84.5t87.5 -57.5t129 -21h229
l123 700h-282q-144 0 -234 -92.5t-115 -233.5z" />
    <glyph glyph-name="h" unicode="h" horiz-adv-x="1189" 
d="M872 662q21 121 -31.5 178t-178.5 57h-244l-158 -897h-221l256 1454h221l-65 -369h274q193 0 299 -112t72 -305l-119 -668h-221z" />
    <glyph glyph-name="i" unicode="i" horiz-adv-x="491" 
d="M39 0l192 1085h222l-193 -1085h-221zM256 1229l39 225h221l-39 -225h-221z" />
    <glyph glyph-name="j" unicode="j" horiz-adv-x="493" 
d="M-270 -369l32 187h246l223 1267h222l-230 -1310q-12 -65 -58 -104.5t-116 -39.5h-319zM254 1229l39 225h221l-39 -225h-221z" />
    <glyph glyph-name="k" unicode="k" horiz-adv-x="1142" 
d="M745 578l240 -566l-2 -12h-240l-194 489h-203l-86 -489h-221l256 1454h221l-135 -770h184l355 401h254l-5 -14l-415 -469z" />
    <glyph glyph-name="l" unicode="l" horiz-adv-x="491" 
d="M260 0h-221l256 1454h221z" />
    <glyph glyph-name="m" unicode="m" horiz-adv-x="1763" 
d="M207 961q10 60 49.5 92t99.5 32h940q191 0 298 -112.5t73 -304.5l-117 -668h-221l115 662q42 235 -211 235h-170l-158 -897h-221l158 897h-424l-156 -897h-221z" />
    <glyph glyph-name="n" unicode="n" horiz-adv-x="1187" 
d="M205 956q11 59 51.5 94t103.5 35h363q192 0 298.5 -112t72.5 -305l-119 -668h-221l116 662q21 121 -32 178t-179 57h-243l-158 -897h-221z" />
    <glyph glyph-name="o" unicode="o" horiz-adv-x="1261" 
d="M592 -20q-170 0 -294.5 79t-178.5 221t-23 320q26 145 103 258.5t201.5 180.5t277.5 67q169 0 292 -81.5t175 -223t22 -314.5q-40 -225 -196 -366t-379 -141zM315 573q-20 -112 6 -205.5t98 -150.5t177 -57q139 0 231.5 99t118.5 251q8 60 7.5 119t-21 112.5t-52.5 94.5
t-86.5 65.5t-123.5 24.5q-143 0 -235.5 -101t-119.5 -252z" />
    <glyph glyph-name="p" unicode="p" horiz-adv-x="1236" 
d="M205 956q11 59 51.5 94t103.5 35h308q259 0 391 -166t86 -427q-18 -100 -62.5 -187t-114.5 -156t-174 -109t-229 -40h-305l-65 -369h-222zM293 188h278q145 0 236.5 94.5t118.5 239.5q8 55 7.5 108.5t-20 102t-52 85t-88 58t-128.5 21.5h-229z" />
    <glyph glyph-name="q" unicode="q" horiz-adv-x="1241" 
d="M725 -369l66 369h-218q-173 0 -292.5 77t-167 211.5t-17.5 303.5q18 101 62 187.5t114 156t173.5 109.5t228.5 40h393q60 0 92.5 -38.5t22.5 -98.5l-236 -1317h-221zM319 565q-8 -56 -8 -110t19 -102.5t51 -85t88.5 -58t130.5 -21.5h225l125 709h-280q-74 0 -136.5 -26.5
t-105 -73t-70 -105t-39.5 -127.5z" />
    <glyph glyph-name="r" unicode="r" horiz-adv-x="729" 
d="M205 950q23 135 166 135h385l-35 -190h-303l-158 -895h-221z" />
    <glyph glyph-name="s" unicode="s" horiz-adv-x="1062" 
d="M471 -20q-194 0 -310 93t-120 265h215q3 -98 67.5 -142t157.5 -44q53 0 101.5 11.5t89.5 43t49 78.5q7 43 -10 74t-52 48.5t-82 33t-99.5 27t-104.5 30.5t-96.5 43t-76.5 65t-44.5 96.5t0.5 137.5q21 121 138.5 193.5t283.5 72.5q192 0 305.5 -98t113.5 -254h-215
q-4 88 -61.5 134t-159.5 46q-78 0 -131 -28.5t-63 -86.5q-8 -44 9.5 -76t52.5 -50t82.5 -33t100.5 -26t105.5 -29t97.5 -41.5t77.5 -64.5t44.5 -96.5t-1 -138.5q-23 -129 -153.5 -206.5t-311.5 -77.5z" />
    <glyph glyph-name="t" unicode="t" horiz-adv-x="780" 
d="M788 1085l-30 -190h-242l-125 -709h240l-33 -186h-317q-58 0 -93.5 41.5t-23.5 103.5l131 750h-162l33 190h162l49 277h221l-49 -277h239z" />
    <glyph glyph-name="u" unicode="u" horiz-adv-x="1165" 
d="M465 0q-192 0 -298.5 112.5t-72.5 305.5l119 667h221l-117 -661q-21 -121 32 -178.5t179 -57.5h220l159 897h221l-170 -950q-23 -135 -163 -135h-330z" />
    <glyph glyph-name="v" unicode="v" horiz-adv-x="1185" 
d="M336 0l-178 1067l2 18h227l88 -643l33 -245h43l119 245l317 643h230l-3 -18l-552 -1067h-326z" />
    <glyph glyph-name="w" unicode="w" horiz-adv-x="1769" 
d="M1184 197h28l95 245l264 643h227l-2 -16l-471 -1069h-319l-35 643l-10 246h-33l-90 -246l-265 -643h-319l-94 1069l2 16h223l35 -643l14 -245h29l90 245l264 643h322l35 -643z" />
    <glyph glyph-name="x" unicode="x" horiz-adv-x="1200" 
d="M817 535l219 -521v-14h-227l-182 451h-74l-344 -451h-238v14l404 521l12 40l-225 496v14h229l187 -438h75l338 438h236v-14l-400 -496z" />
    <glyph glyph-name="y" unicode="y" horiz-adv-x="1187" 
d="M43 -369l37 197h297l82 176h-125l-176 1065l2 16h227l90 -643l31 -245h43l119 245l317 643h230l-3 -16l-675 -1319q-35 -69 -83 -94t-112 -25h-301z" />
    <glyph glyph-name="z" unicode="z" horiz-adv-x="1054" 
d="M-16 0l28 162l721 733h-567l33 190h860l-29 -161l-723 -734h602l-35 -190h-890z" />
    <glyph glyph-name="braceleft" unicode="{" horiz-adv-x="661" 
d="M188 -330q-67 0 -100 41t-22 103l112 618l-108 139l10 86l158 140l112 633q22 126 158 126h260l-33 -190h-180l-102 -575q-7 -36 -17 -54.5t-41 -42.5l-100 -78l-2 -6l59 -86q28 -40 34.5 -59t2.5 -45l-98 -559h180l-35 -191h-248z" />
    <glyph glyph-name="bar" unicode="|" horiz-adv-x="628" 
d="M293 -205h-221l293 1659h221z" />
    <glyph glyph-name="braceright" unicode="}" horiz-adv-x="659" 
d="M498 1556q67 0 100.5 -40.5t22.5 -102.5l-113 -618l108 -140l-10 -86l-157 -139l-113 -633q-22 -127 -158 -127h-260l33 191h180l102 575q7 36 16.5 53.5t41.5 42.5l100 78l2 6l-59 86q-27 42 -34 60t-3 45l98 559h-180l35 190h248z" />
    <glyph glyph-name="asciitilde" unicode="~" horiz-adv-x="1210" 
d="M860 565q-76 0 -157.5 29.5t-152 58.5t-120.5 29q-118 0 -143 -117h-213q27 134 116.5 225t223.5 91q60 0 125 -18.5t111.5 -40t99.5 -40t92 -18.5q125 0 147 115h211q-27 -134 -116 -224t-224 -90z" />
    <glyph glyph-name="uni00A0" unicode="&#xa0;" horiz-adv-x="446" 
 />
    <glyph glyph-name="exclamdown" unicode="&#xa1;" horiz-adv-x="509" 
d="M-16 -369l190 1078h221l-190 -1078h-221zM203 862l37 223h221l-37 -223h-221z" />
    <glyph glyph-name="cent" unicode="&#xa2;" horiz-adv-x="1216" 
d="M121 788q35 200 169.5 337.5t332.5 160.5l28 168h221l-30 -182q135 -34 225.5 -125.5t118.5 -220.5h-230q-30 85 -99 134.5t-167 49.5q-94 0 -170 -49t-120.5 -126.5t-61.5 -174.5q-10 -45 -7.5 -93.5t10.5 -94.5t31.5 -87.5t55 -72.5t81 -49.5t109.5 -18.5
q98 0 173.5 49t121.5 135h236q-61 -160 -193.5 -257.5t-310.5 -106.5l-29 -164h-221l33 193q-176 58 -261 217t-46 378z" />
    <glyph glyph-name="sterling" unicode="&#xa3;" horiz-adv-x="1185" 
d="M-16 0l34 195h170l80 458h-170l35 193h170l29 162q19 108 54 190t93 146t145.5 97.5t202.5 33.5q179 0 283.5 -110t97.5 -290h-221q3 98 -41 156.5t-141 58.5q-195 0 -236 -231l-37 -213h345l-35 -193h-344l-82 -458h618l-35 -195h-1015z" />
    <glyph glyph-name="currency" unicode="&#xa4;" horiz-adv-x="1245" 
d="M653 248q-136 0 -243 69l-109 -110l-151 151l108 109q-68 114 -68 246q0 130 68 241l-108 109l151 151l107 -110q112 70 245 70q134 0 246 -70l107 108l149 -149l-108 -107q69 -110 69 -243q0 -138 -69 -248l108 -107l-149 -149l-107 108q-110 -69 -246 -69zM377 713
q0 -114 81 -195.5t195 -81.5t193.5 81.5t79.5 195.5q0 111 -79.5 191.5t-193.5 80.5q-115 0 -195.5 -80.5t-80.5 -191.5z" />
    <glyph glyph-name="yen" unicode="&#xa5;" horiz-adv-x="1323" 
d="M256 801h219l-256 645l-2 8h240l151 -416l90 -237h11l168 237l303 416h245v-8l-485 -645h225l-30 -176h-328l-23 -31l-16 -90h344l-31 -174h-346l-59 -330h-227l61 330h-338l31 174h338l16 88l-12 33h-322z" />
    <glyph glyph-name="brokenbar" unicode="&#xa6;" horiz-adv-x="593" 
d="M383 410l-109 -615h-221l109 615h221zM238 840l108 614h221l-108 -614h-221z" />
    <glyph glyph-name="section" unicode="&#xa7;" horiz-adv-x="1304" 
d="M571 -207q-99 0 -185 25t-152 72.5t-104 123.5t-38 172h221q0 -108 71 -167.5t198 -59.5q57 0 109 14t95 50.5t52 89.5q8 45 -13 79t-62 55.5t-96 39t-116.5 34t-122 35.5t-113.5 48.5t-90.5 67.5t-53 97.5t-1.5 135.5q25 137 244 231q-139 99 -107 272q22 117 148 192
t299 75q203 0 333 -101.5t130 -271.5h-222q0 74 -40.5 125t-95.5 71.5t-118 20.5q-88 0 -146.5 -39.5t-70.5 -105.5q-7 -40 12.5 -73t59 -56.5t92 -44t111 -40.5t116.5 -42t109 -52t88 -67t53.5 -90.5t5.5 -118.5q-14 -87 -74 -142.5t-171 -93.5q164 -96 131 -270
q-13 -74 -61.5 -131.5t-118 -91.5t-147.5 -51t-159 -17zM385 686q-4 -27 2 -50t16.5 -41t35 -35.5t43.5 -29t57.5 -26.5t62 -23.5t70.5 -23.5q252 14 276 149q8 45 -6 78t-67 61.5t-82 40t-116 39.5q-21 7 -32 11q-107 -6 -178.5 -44.5t-81.5 -105.5z" />
    <glyph glyph-name="dieresis" unicode="&#xa8;" horiz-adv-x="815" 
d="M625 1223l37 209h206l-37 -209h-206zM223 1223l37 209h207l-37 -209h-207z" />
    <glyph glyph-name="copyright" unicode="&#xa9;" horiz-adv-x="1812" 
d="M936 -20q-203 0 -374.5 99.5t-271.5 272t-100 377.5q0 153 58.5 291t158.5 237.5t239 158.5t294 59q153 0 292 -59t238.5 -158.5t158.5 -237.5t59 -291q0 -155 -59 -294t-159.5 -238.5t-240 -158t-293.5 -58.5zM293 729q0 -135 50.5 -256t136.5 -208.5t205.5 -139
t252.5 -51.5q175 0 324 86.5t237 237.5t88 331q0 178 -87.5 327t-236 234.5t-323.5 85.5q-135 0 -255 -50.5t-206 -137t-136 -206t-50 -253.5zM489 727q0 110 36.5 200.5t99 149t143.5 90t172 31.5q170 0 279 -89t141 -216h-195q-22 60 -78 108t-147 48q-110 0 -187 -83.5
t-77 -238.5t77 -238t187 -83q91 0 147 47.5t78 107.5h195q-32 -127 -141 -216t-279 -89q-91 0 -172 31.5t-143.5 89.5t-99 148.5t-36.5 201.5z" />
    <glyph glyph-name="ordfeminine" unicode="&#xaa;" horiz-adv-x="688" 
d="M324 854q-89 0 -144 40t-55 116q0 179 260 196l195 15l6 30q9 46 -19.5 71.5t-85.5 25.5q-102 0 -121 -84h-165q13 102 93.5 152t198.5 50q133 0 204.5 -62t51.5 -173l-53 -293q-16 -84 -104 -84h-262zM295 1022q0 -57 88 -57h152l26 151l-141 -12q-25 -2 -37.5 -4
t-32.5 -7.5t-29.5 -13.5t-17.5 -22.5t-8 -34.5z" />
    <glyph glyph-name="guillemotleft" unicode="&#xab;" horiz-adv-x="1112" 
d="M272 143l-168 402l308 399h239l-313 -399l166 -402h-232zM526 545l308 399h239l-313 -399l166 -402h-232z" />
    <glyph glyph-name="logicalnot" unicode="&#xac;" horiz-adv-x="1359" 
d="M936 426l72 405h-805l33 193h1003l-104 -598h-199z" />
    <glyph glyph-name="uni00AD" unicode="&#xad;" horiz-adv-x="868" 
d="M102 473l31 184h643l-33 -184h-641z" />
    <glyph glyph-name="registered" unicode="&#xae;" horiz-adv-x="1812" 
d="M936 -20q-203 0 -374.5 99.5t-271.5 272t-100 377.5q0 153 58.5 291t158.5 237.5t239 158.5t294 59q153 0 292 -59t238.5 -158.5t158.5 -237.5t59 -291q0 -155 -59 -294t-159.5 -238.5t-240 -158t-293.5 -58.5zM293 729q0 -135 50.5 -256t136.5 -208.5t205.5 -139
t252.5 -51.5q175 0 324 86.5t237 237.5t88 331q0 178 -87.5 327t-236 234.5t-323.5 85.5q-135 0 -255 -50.5t-206 -137t-136 -206t-50 -253.5zM608 266v830q0 40 25 65t65 25h326q132 0 213.5 -75.5t81.5 -205.5q0 -105 -52 -176t-145 -94l219 -369h-194l-201 357h-168v-357
h-170zM778 764h244q121 0 121 141q0 64 -36 100.5t-101 36.5h-228v-278z" />
    <glyph glyph-name="macron" unicode="&#xaf;" horiz-adv-x="841" 
d="M254 1407h637l-29 -160h-635z" />
    <glyph glyph-name="degree" unicode="&#xb0;" horiz-adv-x="976" 
d="M920 1151q0 -135 -95 -230.5t-231 -95.5q-135 0 -229.5 95.5t-94.5 230.5t95 229.5t231 94.5q135 0 229.5 -94.5t94.5 -229.5zM430 1151q0 -69 48.5 -118.5t117.5 -49.5q68 0 117 49t49 119q0 68 -49 116t-117 48q-69 0 -117.5 -47.5t-48.5 -116.5z" />
    <glyph glyph-name="plusminus" unicode="&#xb1;" horiz-adv-x="1171" 
d="M455 395l71 367h-403l35 172h403l72 364h194l-71 -364h405l-35 -172h-405l-72 -367h-194zM0 123l35 170h997l-35 -170h-997z" />
    <glyph glyph-name="uni00B2" unicode="&#xb2;" horiz-adv-x="696" 
d="M121 989q287 184 394.5 273t117.5 153q8 51 -25.5 86t-93.5 35q-63 0 -102 -34.5t-47 -94.5h-179q20 131 110.5 196.5t231.5 65.5q85 0 153.5 -30.5t105 -91.5t22.5 -140q-18 -95 -119.5 -189t-327.5 -217v-6l144 6h225l-26 -147h-607z" />
    <glyph glyph-name="uni00B3" unicode="&#xb3;" horiz-adv-x="700" 
d="M430 842q-151 0 -227 65t-78 185h174q3 -117 137 -117q57 0 95 30t47 76q10 58 -30.5 88.5t-109.5 30.5h-63l24 133h60q43 0 79.5 10t63.5 33.5t33 57.5q9 48 -26 75t-91 27q-58 0 -97.5 -28t-51.5 -78h-170q21 117 110 178t219 61q85 0 152 -28t101.5 -83t21.5 -126
q-10 -61 -56 -103t-102 -53v-6q68 -27 92.5 -83.5t14.5 -121.5q-18 -103 -108.5 -163t-213.5 -60z" />
    <glyph glyph-name="acute" unicode="&#xb4;" horiz-adv-x="712" 
d="M219 1200l256 254h295l-346 -254h-205z" />
    <glyph glyph-name="uni00B5" unicode="&#xb5;" horiz-adv-x="1169" 
d="M553 -20q-179 0 -279 94l-77 -443h-222l258 1454h222l-117 -659q-22 -122 25.5 -194t162.5 -72q251 0 301 276l115 649h221l-112 -641q-41 -225 -173 -344.5t-325 -119.5z" />
    <glyph glyph-name="paragraph" unicode="&#xb6;" horiz-adv-x="1427" 
d="M1217 1456h204l-321 -1825h-205zM139 836q0 128 40 239t116 196.5t196.5 134t272.5 48.5h315l-321 -1823h-205l135 758h-35q-125 0 -224 34t-162 94.5t-95.5 141.5t-32.5 177z" />
    <glyph glyph-name="periodcentered" unicode="&#xb7;" horiz-adv-x="491" 
d="M115 432l43 232h221l-43 -232h-221z" />
    <glyph glyph-name="cedilla" unicode="&#xb8;" horiz-adv-x="622" 
d="M-20 -217l90 221l163 -4l-71 -111l-6 -16h24q85 0 138 -46t53 -118q0 -89 -67.5 -134.5t-158.5 -45.5h-221l19 104h166q104 0 104 74q0 62 -88 62h-133z" />
    <glyph glyph-name="uni00B9" unicode="&#xb9;" horiz-adv-x="475" 
d="M274 854l117 657h-201l27 146h283q38 0 59.5 -25.5t15.5 -62.5l-126 -715h-175z" />
    <glyph glyph-name="ordmasculine" unicode="&#xba;" horiz-adv-x="741" 
d="M457 842q-155 0 -242 97t-61 245q22 122 116.5 202t231.5 80q151 0 240.5 -94t62.5 -248q-22 -125 -118 -203.5t-230 -78.5zM322 1167q-14 -86 22.5 -143t118.5 -57q69 0 113 47.5t57 120.5q9 36 4.5 72.5t-17.5 65.5t-45 47.5t-79 18.5q-68 0 -114.5 -50t-59.5 -122z
" />
    <glyph glyph-name="guillemotright" unicode="&#xbb;" horiz-adv-x="1112" 
d="M418 944l168 -401l-307 -400h-240l313 400l-166 401h232zM461 143l313 400l-166 401h232l168 -401l-308 -400h-239z" />
    <glyph glyph-name="onequarter" unicode="&#xbc;" horiz-adv-x="1556" 
d="M238 651l116 658h-200l26 145h283q38 0 60 -25.5t16 -62.5l-127 -715h-174zM207 0l885 1454h170l-885 -1454h-170zM799 174l20 127l447 502h166q38 0 59.5 -25.5t15.5 -62.5l-127 -715h-170l31 174h-442zM1014 317h254l32 183l31 151h-24l-293 -325v-9z" />
    <glyph glyph-name="onehalf" unicode="&#xbd;" horiz-adv-x="1597" 
d="M238 651l116 658h-200l26 145h283q38 0 60 -25.5t16 -62.5l-127 -715h-174zM207 0l885 1454h170l-885 -1454h-170zM850 0l22 135q287 184 394.5 273t117.5 153q8 51 -25 86t-93 35q-63 0 -102.5 -34.5t-47.5 -94.5h-178q20 131 110.5 196.5t231.5 65.5q85 0 153.5 -30.5
t105 -91.5t22.5 -140q-18 -95 -119.5 -189t-327.5 -217v-6l143 6h226l-27 -147h-606z" />
    <glyph glyph-name="threequarters" unicode="&#xbe;" horiz-adv-x="1779" 
d="M393 639q-151 0 -227 65t-78 185h174q3 -117 137 -117q56 0 94.5 30.5t47.5 76.5q10 58 -30.5 88t-109.5 30h-63l24 133h60q43 0 79.5 10t63.5 33.5t33 57.5q9 48 -26 75t-91 27q-58 0 -97.5 -28t-51.5 -78h-170q21 117 110.5 178t219.5 61q85 0 151.5 -28t101 -83
t21.5 -126q-10 -61 -56 -103t-102 -53v-6q68 -27 92.5 -83.5t14.5 -121.5q-18 -103 -108.5 -163t-213.5 -60zM428 0l885 1454h170l-885 -1454h-170zM1020 174l20 127l447 502h166q38 0 60 -25.5t16 -62.5l-127 -715h-170l30 174h-442zM1235 317h254l33 183l30 151h-24
l-293 -325v-9z" />
    <glyph glyph-name="questiondown" unicode="&#xbf;" horiz-adv-x="1103" 
d="M707 645q-18 -95 -54 -161t-84.5 -111.5t-140.5 -110.5q-112 -79 -159.5 -128t-59.5 -120q-17 -95 44.5 -152t166.5 -57q125 0 208.5 78t94.5 203h233q-25 -218 -170 -346.5t-366 -128.5q-136 0 -243.5 52t-161.5 148.5t-33 217.5q30 180 258 336q118 80 171 139.5
t70 152.5l11 54h227zM520 866l39 219h225l-39 -219h-225z" />
    <glyph glyph-name="Agrave" unicode="&#xc0;" horiz-adv-x="1470" 
d="M-37 0l768 1454h340l258 -1454h-225l-74 461h-594l-239 -461h-234zM537 653h460l-53 332l-45 268h-57l-133 -268zM588 1804h264l182 -243h-186z" />
    <glyph glyph-name="Aacute" unicode="&#xc1;" horiz-adv-x="1470" 
d="M-37 0l768 1454h340l258 -1454h-225l-74 461h-594l-239 -461h-234zM537 653h460l-53 332l-45 268h-57l-133 -268zM805 1561l264 243h285l-348 -243h-201z" />
    <glyph glyph-name="Acircumflex" unicode="&#xc2;" horiz-adv-x="1470" 
d="M-37 0l768 1454h340l258 -1454h-225l-74 461h-594l-239 -461h-234zM537 653h460l-53 332l-45 268h-57l-133 -268zM578 1561l245 243h267l153 -243h-196l-91 118h-30l-138 -118h-210z" />
    <glyph glyph-name="Atilde" unicode="&#xc3;" horiz-adv-x="1470" 
d="M-37 0l768 1454h340l258 -1454h-225l-74 461h-594l-239 -461h-234zM537 653h460l-53 332l-45 268h-57l-133 -268zM541 1561q24 112 93.5 186t160.5 74q46 0 89.5 -18t70.5 -39.5t58 -39.5t54 -18q78 0 100 109h170q-24 -112 -93.5 -187.5t-160.5 -75.5q-46 0 -89 18.5
t-70.5 40t-57.5 40t-53 18.5q-43 0 -67 -27t-35 -81h-170z" />
    <glyph glyph-name="Adieresis" unicode="&#xc4;" horiz-adv-x="1470" 
d="M-37 0l768 1454h340l258 -1454h-225l-74 461h-594l-239 -461h-234zM537 653h460l-53 332l-45 268h-57l-133 -268zM621 1577l36 211h209l-39 -211h-206zM1022 1577l39 211h207l-39 -211h-207z" />
    <glyph glyph-name="Aring" unicode="&#xc5;" horiz-adv-x="1470" 
d="M-37 0l768 1454h340l258 -1454h-225l-74 461h-594l-239 -461h-234zM537 653h460l-53 332l-45 268h-57l-133 -268zM743 1755q0 85 58.5 142t148.5 57q89 0 148 -57t59 -142q0 -89 -59 -145t-148 -56q-90 0 -148.5 55.5t-58.5 145.5zM856 1755q0 -44 27 -70t67 -26t67 26
t27 70q0 37 -27 62.5t-67 25.5t-67 -24.5t-27 -63.5z" />
    <glyph glyph-name="AE" unicode="&#xc6;" horiz-adv-x="1978" 
d="M-33 0l770 1454h1317l-35 -197h-665l-76 -432h592l-35 -194h-592l-76 -434h674l-35 -197h-901l82 461h-553l-237 -461h-230zM532 653h488l106 604h-282l-139 -272z" />
    <glyph glyph-name="Ccedilla" unicode="&#xc7;" horiz-adv-x="1576" 
d="M543 -471l18 104h166q104 0 104 74q0 62 -88 62h-133l-12 14l82 201q-204 20 -344 135.5t-193 294t-16 389.5q25 143 94.5 266.5t171.5 213.5t238.5 141t288.5 51q270 0 433 -136t201 -364h-241q-31 140 -139.5 221.5t-276.5 81.5q-106 0 -200 -39t-162.5 -106.5
t-115.5 -157t-65 -191.5q-14 -94 -8.5 -182t40 -165.5t87 -135t133 -90.5t178.5 -33q159 0 283 81.5t193 215.5h241q-86 -209 -255 -340t-404 -151l-62 -95l-6 -16h25q84 0 137 -46t53 -118q0 -89 -67 -134.5t-158 -45.5h-221z" />
    <glyph glyph-name="Egrave" unicode="&#xc8;" horiz-adv-x="1116" 
d="M276 1325q10 60 52 94.5t104 34.5h758l-33 -197h-665l-76 -432h592l-35 -194h-592l-76 -434h674l-35 -197h-901zM438 1804h264l183 -243h-187z" />
    <glyph glyph-name="Eacute" unicode="&#xc9;" horiz-adv-x="1116" 
d="M276 1325q10 60 52 94.5t104 34.5h758l-33 -197h-665l-76 -432h592l-35 -194h-592l-76 -434h674l-35 -197h-901zM653 1561l265 243h284l-348 -243h-201z" />
    <glyph glyph-name="Ecircumflex" unicode="&#xca;" horiz-adv-x="1116" 
d="M276 1325q10 60 52 94.5t104 34.5h758l-33 -197h-665l-76 -432h592l-35 -194h-592l-76 -434h674l-35 -197h-901zM426 1561l246 243h266l154 -243h-197l-90 118h-31l-137 -118h-211z" />
    <glyph glyph-name="Edieresis" unicode="&#xcb;" horiz-adv-x="1116" 
d="M276 1325q10 60 52 94.5t104 34.5h758l-33 -197h-665l-76 -432h592l-35 -194h-592l-76 -434h674l-35 -197h-901zM469 1577l37 211h209l-39 -211h-207zM870 1577l39 211h207l-39 -211h-207z" />
    <glyph glyph-name="Igrave" unicode="&#xcc;" horiz-adv-x="503" 
d="M299 1454h227l-256 -1454h-227zM98 1804h264l183 -243h-187z" />
    <glyph glyph-name="Iacute" unicode="&#xcd;" horiz-adv-x="503" 
d="M299 1454h227l-256 -1454h-227zM315 1561l265 243h284l-348 -243h-201z" />
    <glyph glyph-name="Icircumflex" unicode="&#xce;" horiz-adv-x="503" 
d="M299 1454h227l-256 -1454h-227zM88 1561l246 243h266l154 -243h-197l-90 118h-31l-137 -118h-211z" />
    <glyph glyph-name="Idieresis" unicode="&#xcf;" horiz-adv-x="503" 
d="M299 1454h227l-256 -1454h-227zM131 1577l37 211h209l-39 -211h-207zM532 1577l39 211h207l-39 -211h-207z" />
    <glyph glyph-name="Eth" unicode="&#xd0;" horiz-adv-x="1550" 
d="M373 1325q10 60 51.5 94.5t103.5 34.5h318q175 0 313 -58.5t219.5 -162.5t114.5 -248.5t0 -316.5q-53 -296 -276 -482t-535 -186h-543l111 627h-162l37 200h160zM401 195h299q221 0 372.5 136.5t189.5 350.5q28 161 -13 291t-151.5 208.5t-274.5 78.5h-235l-76 -433h338
l-37 -200h-336z" />
    <glyph glyph-name="Ntilde" unicode="&#xd1;" horiz-adv-x="1460" 
d="M274 1319q25 135 166 135h246l229 -919l76 -314h58l53 305l164 928h215l-256 -1454h-387l-232 920l-74 313h-59l-215 -1233h-215zM508 1561q24 112 93.5 186t160.5 74q46 0 89.5 -18t70.5 -39.5t58 -39.5t54 -18q79 0 101 109h170q-24 -112 -93.5 -187.5t-160.5 -75.5
q-46 0 -89.5 18.5t-70.5 40t-57.5 40t-53.5 18.5q-43 0 -67 -27t-35 -81h-170z" />
    <glyph glyph-name="Ograve" unicode="&#xd2;" horiz-adv-x="1613" 
d="M764 -20q-171 0 -306.5 65t-217 176t-112.5 261.5t-1 318.5q25 143 94.5 267t171.5 214t238.5 141.5t288.5 51.5q115 0 214.5 -30t174.5 -84.5t132.5 -130t86.5 -167t38.5 -195.5t-12.5 -215q-25 -144 -94.5 -267.5t-171.5 -213.5t-237.5 -141t-286.5 -51zM354 784
q-16 -76 -10.5 -150t23 -141.5t56 -125t88.5 -99.5t120.5 -66t152.5 -24q211 0 358 141.5t185 356.5q15 76 10 150.5t-23 141.5t-56 123.5t-88.5 98t-120.5 65t-152 23.5q-206 0 -355 -139t-188 -355zM598 1804h264l182 -243h-186z" />
    <glyph glyph-name="Oacute" unicode="&#xd3;" horiz-adv-x="1613" 
d="M764 -20q-171 0 -306.5 65t-217 176t-112.5 261.5t-1 318.5q25 143 94.5 267t171.5 214t238.5 141.5t288.5 51.5q115 0 214.5 -30t174.5 -84.5t132.5 -130t86.5 -167t38.5 -195.5t-12.5 -215q-25 -144 -94.5 -267.5t-171.5 -213.5t-237.5 -141t-286.5 -51zM354 784
q-16 -76 -10.5 -150t23 -141.5t56 -125t88.5 -99.5t120.5 -66t152.5 -24q211 0 358 141.5t185 356.5q15 76 10 150.5t-23 141.5t-56 123.5t-88.5 98t-120.5 65t-152 23.5q-206 0 -355 -139t-188 -355zM813 1561l264 243h285l-348 -243h-201z" />
    <glyph glyph-name="Ocircumflex" unicode="&#xd4;" horiz-adv-x="1613" 
d="M764 -20q-171 0 -306.5 65t-217 176t-112.5 261.5t-1 318.5q25 143 94.5 267t171.5 214t238.5 141.5t288.5 51.5q115 0 214.5 -30t174.5 -84.5t132.5 -130t86.5 -167t38.5 -195.5t-12.5 -215q-25 -144 -94.5 -267.5t-171.5 -213.5t-237.5 -141t-286.5 -51zM354 784
q-16 -76 -10.5 -150t23 -141.5t56 -125t88.5 -99.5t120.5 -66t152.5 -24q211 0 358 141.5t185 356.5q15 76 10 150.5t-23 141.5t-56 123.5t-88.5 98t-120.5 65t-152 23.5q-206 0 -355 -139t-188 -355zM588 1561l246 243h266l153 -243h-196l-90 118h-31l-137 -118h-211z" />
    <glyph glyph-name="Otilde" unicode="&#xd5;" horiz-adv-x="1613" 
d="M764 -20q-171 0 -306.5 65t-217 176t-112.5 261.5t-1 318.5q25 143 94.5 267t171.5 214t238.5 141.5t288.5 51.5q115 0 214.5 -30t174.5 -84.5t132.5 -130t86.5 -167t38.5 -195.5t-12.5 -215q-25 -144 -94.5 -267.5t-171.5 -213.5t-237.5 -141t-286.5 -51zM354 784
q-16 -76 -10.5 -150t23 -141.5t56 -125t88.5 -99.5t120.5 -66t152.5 -24q211 0 358 141.5t185 356.5q15 76 10 150.5t-23 141.5t-56 123.5t-88.5 98t-120.5 65t-152 23.5q-206 0 -355 -139t-188 -355zM551 1561q24 112 93.5 186t160.5 74q46 0 89.5 -18t70.5 -39.5t58 -39.5
t54 -18q79 0 101 109h170q-24 -112 -93.5 -187.5t-160.5 -75.5q-46 0 -89.5 18.5t-70.5 40t-57.5 40t-53.5 18.5q-43 0 -67 -27t-35 -81h-170z" />
    <glyph glyph-name="Odieresis" unicode="&#xd6;" horiz-adv-x="1613" 
d="M764 -20q-171 0 -306.5 65t-217 176t-112.5 261.5t-1 318.5q25 143 94.5 267t171.5 214t238.5 141.5t288.5 51.5q115 0 214.5 -30t174.5 -84.5t132.5 -130t86.5 -167t38.5 -195.5t-12.5 -215q-25 -144 -94.5 -267.5t-171.5 -213.5t-237.5 -141t-286.5 -51zM354 784
q-16 -76 -10.5 -150t23 -141.5t56 -125t88.5 -99.5t120.5 -66t152.5 -24q211 0 358 141.5t185 356.5q15 76 10 150.5t-23 141.5t-56 123.5t-88.5 98t-120.5 65t-152 23.5q-206 0 -355 -139t-188 -355zM629 1577l37 211h208l-38 -211h-207zM1030 1577l39 211h207l-39 -211
h-207z" />
    <glyph glyph-name="multiply" unicode="&#xd7;" horiz-adv-x="1095" 
d="M160 252l-123 137l416 352l-279 338l152 127l278 -338l400 340l116 -139l-401 -340l280 -340l-147 -131l-283 342z" />
    <glyph glyph-name="Oslash" unicode="&#xd8;" horiz-adv-x="1613" 
d="M764 -20q-217 0 -375 102l-145 -164h-232l248 281q-95 114 -130 269t-3 333q25 143 94.5 267t171.5 214t238.5 141.5t288.5 51.5q215 0 374 -105l148 166h231l-250 -283q93 -115 127.5 -270.5t3.5 -329.5q-25 -144 -94.5 -267.5t-171.5 -213.5t-237.5 -141t-286.5 -51z
M354 782q-21 -109 -4.5 -216t68.5 -191l731 829q-104 74 -252 74q-106 0 -200 -39t-163 -107t-115.5 -158t-64.5 -192zM537 250q106 -72 247 -72q211 0 358 141.5t185 356.5q19 107 3.5 212.5t-62.5 188.5z" />
    <glyph glyph-name="Ugrave" unicode="&#xd9;" horiz-adv-x="1404" 
d="M627 -20q-92 0 -168.5 19.5t-129.5 53t-93 79.5t-62.5 97.5t-33.5 108t-10.5 110t9.5 105.5l160 901h227l-159 -903q-15 -99 -1.5 -168.5t54.5 -114t96.5 -64.5t126.5 -20q147 0 256 88.5t141 270.5l160 911h227l-163 -934q-13 -72 -40 -142.5t-79 -143.5t-121 -128.5
t-172 -90.5t-225 -35zM549 1804h264l182 -243h-186z" />
    <glyph glyph-name="Uacute" unicode="&#xda;" horiz-adv-x="1404" 
d="M627 -20q-92 0 -168.5 19.5t-129.5 53t-93 79.5t-62.5 97.5t-33.5 108t-10.5 110t9.5 105.5l160 901h227l-159 -903q-15 -99 -1.5 -168.5t54.5 -114t96.5 -64.5t126.5 -20q147 0 256 88.5t141 270.5l160 911h227l-163 -934q-13 -72 -40 -142.5t-79 -143.5t-121 -128.5
t-172 -90.5t-225 -35zM766 1561l264 243h285l-348 -243h-201z" />
    <glyph glyph-name="Ucircumflex" unicode="&#xdb;" horiz-adv-x="1404" 
d="M627 -20q-92 0 -168.5 19.5t-129.5 53t-93 79.5t-62.5 97.5t-33.5 108t-10.5 110t9.5 105.5l160 901h227l-159 -903q-15 -99 -1.5 -168.5t54.5 -114t96.5 -64.5t126.5 -20q147 0 256 88.5t141 270.5l160 911h227l-163 -934q-13 -72 -40 -142.5t-79 -143.5t-121 -128.5
t-172 -90.5t-225 -35zM539 1561l245 243h267l153 -243h-196l-90 118h-31l-137 -118h-211z" />
    <glyph glyph-name="Udieresis" unicode="&#xdc;" horiz-adv-x="1404" 
d="M627 -20q-92 0 -168.5 19.5t-129.5 53t-93 79.5t-62.5 97.5t-33.5 108t-10.5 110t9.5 105.5l160 901h227l-159 -903q-15 -99 -1.5 -168.5t54.5 -114t96.5 -64.5t126.5 -20q147 0 256 88.5t141 270.5l160 911h227l-163 -934q-13 -72 -40 -142.5t-79 -143.5t-121 -128.5
t-172 -90.5t-225 -35zM582 1577l36 211h209l-39 -211h-206zM983 1577l39 211h207l-39 -211h-207z" />
    <glyph glyph-name="Yacute" unicode="&#xdd;" horiz-adv-x="1273" 
d="M535 592l-316 854l-2 8h242l137 -416l80 -237h8l158 237l288 416h246v-8l-616 -852l-107 -594h-227zM702 1561l265 243h284l-348 -243h-201z" />
    <glyph glyph-name="Thorn" unicode="&#xde;" horiz-adv-x="1218" 
d="M43 0l258 1454h225l-53 -303h258q150 0 258 -55t157.5 -161.5t24.5 -248.5q-30 -176 -175.5 -280.5t-348.5 -104.5h-325l-54 -301h-225zM356 494h318q106 0 180.5 60t93.5 161q20 114 -47 177.5t-199 63.5h-264z" />
    <glyph glyph-name="germandbls" unicode="&#xdf;" horiz-adv-x="1228" 
d="M211 971q44 245 166 374.5t350 129.5q115 0 206 -35.5t144 -95t75 -136t7 -159.5q-16 -97 -81 -177.5t-165 -111.5q119 -39 175 -144t30 -249q-21 -117 -94.5 -201t-180.5 -125t-237 -41h-211l33 188h168q127 0 207 52.5t98 156.5q19 105 -32 176.5t-181 71.5h-178
l33 186h102q118 0 200.5 61.5t100.5 158.5q19 104 -39.5 172.5t-179.5 68.5q-131 0 -198 -81.5t-93 -225.5l-176 -985h-221z" />
    <glyph glyph-name="agrave" unicode="&#xe0;" horiz-adv-x="1150" 
d="M383 0q-181 0 -273 96.5t-63 261.5q43 249 436 277l357 29l12 67q19 98 -36.5 149.5t-174.5 51.5q-106 0 -164.5 -42.5t-81.5 -135.5h-231q20 117 90.5 198t170 117.5t222.5 36.5q212 0 331.5 -107.5t86.5 -287.5l-104 -576q-12 -65 -54 -100t-110 -35h-414zM272 336
q-13 -78 30 -117t138 -39h312l59 322l-281 -27q-44 -3 -74.5 -7.5t-65.5 -14t-57 -23.5t-39 -38t-22 -56zM379 1454h276l174 -254h-196z" />
    <glyph glyph-name="aacute" unicode="&#xe1;" horiz-adv-x="1150" 
d="M383 0q-181 0 -273 96.5t-63 261.5q43 249 436 277l357 29l12 67q19 98 -36.5 149.5t-174.5 51.5q-106 0 -164.5 -42.5t-81.5 -135.5h-231q20 117 90.5 198t170 117.5t222.5 36.5q212 0 331.5 -107.5t86.5 -287.5l-104 -576q-12 -65 -54 -100t-110 -35h-414zM272 336
q-13 -78 30 -117t138 -39h312l59 322l-281 -27q-44 -3 -74.5 -7.5t-65.5 -14t-57 -23.5t-39 -38t-22 -56zM514 1200l256 254h295l-346 -254h-205z" />
    <glyph glyph-name="acircumflex" unicode="&#xe2;" horiz-adv-x="1150" 
d="M383 0q-181 0 -273 96.5t-63 261.5q43 249 436 277l357 29l12 67q19 98 -36.5 149.5t-174.5 51.5q-106 0 -164.5 -42.5t-81.5 -135.5h-231q20 117 90.5 198t170 117.5t222.5 36.5q212 0 331.5 -107.5t86.5 -287.5l-104 -576q-12 -65 -54 -100t-110 -35h-414zM272 336
q-13 -78 30 -117t138 -39h312l59 322l-281 -27q-44 -3 -74.5 -7.5t-65.5 -14t-57 -23.5t-39 -38t-22 -56zM330 1200l245 254h267l153 -254h-196l-90 129h-31l-137 -129h-211z" />
    <glyph glyph-name="atilde" unicode="&#xe3;" horiz-adv-x="1150" 
d="M383 0q-181 0 -273 96.5t-63 261.5q43 249 436 277l357 29l12 67q19 98 -36.5 149.5t-174.5 51.5q-106 0 -164.5 -42.5t-81.5 -135.5h-231q20 117 90.5 198t170 117.5t222.5 36.5q212 0 331.5 -107.5t86.5 -287.5l-104 -576q-12 -65 -54 -100t-110 -35h-414zM272 336
q-13 -78 30 -117t138 -39h312l59 322l-281 -27q-44 -3 -74.5 -7.5t-65.5 -14t-57 -23.5t-39 -38t-22 -56zM299 1198q24 111 93.5 185.5t160.5 74.5q46 0 89.5 -18.5t70.5 -40t58 -40t54 -18.5q79 0 101 109h170q-24 -110 -93.5 -185t-160.5 -75q-46 0 -89.5 18.5t-70.5 40
t-57.5 40t-53.5 18.5q-43 0 -67 -27t-35 -82h-170z" />
    <glyph glyph-name="adieresis" unicode="&#xe4;" horiz-adv-x="1150" 
d="M383 0q-181 0 -273 96.5t-63 261.5q43 249 436 277l357 29l12 67q19 98 -36.5 149.5t-174.5 51.5q-106 0 -164.5 -42.5t-81.5 -135.5h-231q20 117 90.5 198t170 117.5t222.5 36.5q212 0 331.5 -107.5t86.5 -287.5l-104 -576q-12 -65 -54 -100t-110 -35h-414zM272 336
q-13 -78 30 -117t138 -39h312l59 322l-281 -27q-44 -3 -74.5 -7.5t-65.5 -14t-57 -23.5t-39 -38t-22 -56zM373 1223l37 209h206l-36 -209h-207zM774 1223l37 209h207l-37 -209h-207z" />
    <glyph glyph-name="aring" unicode="&#xe5;" horiz-adv-x="1150" 
d="M383 0q-181 0 -273 96.5t-63 261.5q43 249 436 277l357 29l12 67q19 98 -36.5 149.5t-174.5 51.5q-106 0 -164.5 -42.5t-81.5 -135.5h-231q20 117 90.5 198t170 117.5t222.5 36.5q212 0 331.5 -107.5t86.5 -287.5l-104 -576q-12 -65 -54 -100t-110 -35h-414zM272 336
q-13 -78 30 -117t138 -39h312l59 322l-281 -27q-44 -3 -74.5 -7.5t-65.5 -14t-57 -23.5t-39 -38t-22 -56zM498 1374q0 85 59 142t148 57q90 0 148 -57t58 -142q0 -89 -58 -144.5t-148 -55.5q-89 0 -148 56t-59 144zM610 1374q0 -43 27.5 -69.5t67.5 -26.5q39 0 66.5 26.5
t27.5 69.5q0 37 -27.5 63.5t-66.5 26.5q-40 0 -67.5 -25.5t-27.5 -64.5z" />
    <glyph glyph-name="ae" unicode="&#xe6;" horiz-adv-x="1982" 
d="M383 0q-181 0 -273 96.5t-63 261.5q43 249 436 277l357 29l12 67q19 98 -36.5 149.5t-174.5 51.5q-106 0 -164.5 -42.5t-81.5 -135.5h-231q20 117 90.5 198t170 117.5t222.5 36.5q124 0 219.5 -38.5t149.5 -109.5q161 148 385 148q115 0 216 -41.5t174 -121t100.5 -196.5
t-3.5 -268h-852q2 -63 18.5 -118.5t49.5 -102.5t89.5 -74.5t129.5 -27.5q96 0 172.5 48.5t118.5 133.5h237q-73 -174 -211 -266t-319 -92q-225 0 -365 137q-28 -117 -159 -117h-414zM272 336q-13 -78 30 -117t138 -39h312l59 322l-281 -27q-44 -3 -74.5 -7.5t-65.5 -14
t-57 -23.5t-39 -38t-22 -56zM1061 649h625q-9 125 -87 204t-202 79q-123 0 -210.5 -78t-125.5 -205z" />
    <glyph glyph-name="ccedilla" unicode="&#xe7;" horiz-adv-x="1228" 
d="M371 -471l18 104h166q104 0 104 74q0 62 -88 62h-133l-12 14l82 203q-224 28 -339 196.5t-71 419.5q38 220 193.5 362t380.5 142q191 0 323 -100.5t168 -264.5h-229q-30 85 -99 135t-167 50q-94 0 -170 -49t-121 -127t-62 -175q-10 -45 -7.5 -93t11 -94.5t31.5 -87.5
t55 -72.5t81.5 -49.5t109.5 -18q98 0 173.5 49t121.5 135h235q-58 -150 -176.5 -245t-279.5 -115l-62 -95l-6 -16h25q84 0 137 -46t53 -118q0 -89 -67 -134.5t-158 -45.5h-221z" />
    <glyph glyph-name="egrave" unicode="&#xe8;" horiz-adv-x="1253" 
d="M592 -20q-125 0 -228.5 46t-170 126.5t-93.5 197t-4 250.5q39 221 196 363.5t380 142.5q115 0 216 -41.5t174 -121t100.5 -196.5t-3.5 -268h-852q2 -63 18.5 -118.5t49.5 -102.5t89.5 -74.5t129.5 -27.5q96 0 172.5 48.5t118.5 133.5h237q-73 -174 -211 -266t-319 -92z
M332 649h624q-9 126 -86.5 204.5t-201.5 78.5q-123 0 -210.5 -78t-125.5 -205zM422 1454h276l174 -254h-196z" />
    <glyph glyph-name="eacute" unicode="&#xe9;" horiz-adv-x="1253" 
d="M592 -20q-125 0 -228.5 46t-170 126.5t-93.5 197t-4 250.5q39 221 196 363.5t380 142.5q115 0 216 -41.5t174 -121t100.5 -196.5t-3.5 -268h-852q2 -63 18.5 -118.5t49.5 -102.5t89.5 -74.5t129.5 -27.5q96 0 172.5 48.5t118.5 133.5h237q-73 -174 -211 -266t-319 -92z
M332 649h624q-9 126 -86.5 204.5t-201.5 78.5q-123 0 -210.5 -78t-125.5 -205zM557 1200l256 254h295l-346 -254h-205z" />
    <glyph glyph-name="ecircumflex" unicode="&#xea;" horiz-adv-x="1253" 
d="M592 -20q-125 0 -228.5 46t-170 126.5t-93.5 197t-4 250.5q39 221 196 363.5t380 142.5q115 0 216 -41.5t174 -121t100.5 -196.5t-3.5 -268h-852q2 -63 18.5 -118.5t49.5 -102.5t89.5 -74.5t129.5 -27.5q96 0 172.5 48.5t118.5 133.5h237q-73 -174 -211 -266t-319 -92z
M332 649h624q-9 126 -86.5 204.5t-201.5 78.5q-123 0 -210.5 -78t-125.5 -205zM373 1200l245 254h267l153 -254h-196l-90 129h-31l-137 -129h-211z" />
    <glyph glyph-name="edieresis" unicode="&#xeb;" horiz-adv-x="1253" 
d="M592 -20q-125 0 -228.5 46t-170 126.5t-93.5 197t-4 250.5q39 221 196 363.5t380 142.5q115 0 216 -41.5t174 -121t100.5 -196.5t-3.5 -268h-852q2 -63 18.5 -118.5t49.5 -102.5t89.5 -74.5t129.5 -27.5q96 0 172.5 48.5t118.5 133.5h237q-73 -174 -211 -266t-319 -92z
M332 649h624q-9 126 -86.5 204.5t-201.5 78.5q-123 0 -210.5 -78t-125.5 -205zM416 1223l37 209h206l-36 -209h-207zM817 1223l37 209h207l-37 -209h-207z" />
    <glyph glyph-name="igrave" unicode="&#xec;" horiz-adv-x="491" 
d="M39 0l192 1085h222l-193 -1085h-221zM70 1454h276l174 -254h-196z" />
    <glyph glyph-name="iacute" unicode="&#xed;" horiz-adv-x="491" 
d="M39 0l192 1085h222l-193 -1085h-221zM205 1200l256 254h295l-346 -254h-205z" />
    <glyph glyph-name="icircumflex" unicode="&#xee;" horiz-adv-x="491" 
d="M39 0l192 1085h222l-193 -1085h-221zM20 1200l246 254h266l154 -254h-197l-90 129h-30l-138 -129h-211z" />
    <glyph glyph-name="idieresis" unicode="&#xef;" horiz-adv-x="491" 
d="M39 0l192 1085h222l-193 -1085h-221zM63 1223l37 209h207l-37 -209h-207zM465 1223l37 209h207l-37 -209h-207z" />
    <glyph glyph-name="eth" unicode="&#xf0;" horiz-adv-x="1263" 
d="M594 -20q-171 0 -295.5 80t-177.5 224t-21 324q18 103 66 193.5t120 158.5t170.5 107t211.5 39q148 0 278 -92q-46 105 -110 186l-463 -61l22 135l334 45q-75 75 -166 131v4h268q64 -49 115 -106l225 30l-24 -137l-113 -14q97 -163 129 -355.5t4 -351.5
q-43 -245 -196 -392.5t-377 -147.5zM317 575q-10 -45 -8 -93.5t10.5 -95t32 -87.5t55.5 -72t81.5 -49t109.5 -18q139 0 230.5 98.5t119.5 253.5q9 63 8 122.5t-21.5 112.5t-53 93t-87 63t-124.5 23q-140 0 -233.5 -100t-119.5 -251z" />
    <glyph glyph-name="ntilde" unicode="&#xf1;" horiz-adv-x="1187" 
d="M205 956q11 59 51.5 94t103.5 35h363q192 0 298.5 -112t72.5 -305l-119 -668h-221l116 662q21 121 -32 178t-179 57h-243l-158 -897h-221zM301 1198q24 111 93.5 185.5t160.5 74.5q46 0 89.5 -18.5t70.5 -40t58 -40t54 -18.5q79 0 101 109h170q-24 -110 -93.5 -185
t-160.5 -75q-46 0 -89.5 18.5t-70.5 40t-57.5 40t-53.5 18.5q-43 0 -67 -27t-35 -82h-170z" />
    <glyph glyph-name="ograve" unicode="&#xf2;" horiz-adv-x="1261" 
d="M592 -20q-170 0 -294.5 79t-178.5 221t-23 320q26 145 103 258.5t201.5 180.5t277.5 67q169 0 292 -81.5t175 -223t22 -314.5q-40 -225 -196 -366t-379 -141zM315 573q-20 -112 6 -205.5t98 -150.5t177 -57q139 0 231.5 99t118.5 251q8 60 7.5 119t-21 112.5t-52.5 94.5
t-86.5 65.5t-123.5 24.5q-143 0 -235.5 -101t-119.5 -252zM455 1454h276l174 -254h-196z" />
    <glyph glyph-name="oacute" unicode="&#xf3;" horiz-adv-x="1261" 
d="M592 -20q-170 0 -294.5 79t-178.5 221t-23 320q26 145 103 258.5t201.5 180.5t277.5 67q169 0 292 -81.5t175 -223t22 -314.5q-40 -225 -196 -366t-379 -141zM315 573q-20 -112 6 -205.5t98 -150.5t177 -57q139 0 231.5 99t118.5 251q8 60 7.5 119t-21 112.5t-52.5 94.5
t-86.5 65.5t-123.5 24.5q-143 0 -235.5 -101t-119.5 -252zM590 1200l256 254h295l-346 -254h-205z" />
    <glyph glyph-name="ocircumflex" unicode="&#xf4;" horiz-adv-x="1261" 
d="M592 -20q-170 0 -294.5 79t-178.5 221t-23 320q26 145 103 258.5t201.5 180.5t277.5 67q169 0 292 -81.5t175 -223t22 -314.5q-40 -225 -196 -366t-379 -141zM315 573q-20 -112 6 -205.5t98 -150.5t177 -57q139 0 231.5 99t118.5 251q8 60 7.5 119t-21 112.5t-52.5 94.5
t-86.5 65.5t-123.5 24.5q-143 0 -235.5 -101t-119.5 -252zM406 1200l245 254h267l153 -254h-197l-90 129h-30l-138 -129h-210z" />
    <glyph glyph-name="otilde" unicode="&#xf5;" horiz-adv-x="1261" 
d="M592 -20q-170 0 -294.5 79t-178.5 221t-23 320q26 145 103 258.5t201.5 180.5t277.5 67q169 0 292 -81.5t175 -223t22 -314.5q-40 -225 -196 -366t-379 -141zM315 573q-20 -112 6 -205.5t98 -150.5t177 -57q139 0 231.5 99t118.5 251q8 60 7.5 119t-21 112.5t-52.5 94.5
t-86.5 65.5t-123.5 24.5q-143 0 -235.5 -101t-119.5 -252zM375 1198q24 111 93.5 185.5t160.5 74.5q46 0 89.5 -18.5t70.5 -40t58 -40t54 -18.5q78 0 100 109h170q-24 -110 -93 -185t-160 -75q-46 0 -89.5 18.5t-70.5 40t-57.5 40t-53.5 18.5q-43 0 -67 -27t-35 -82h-170z
" />
    <glyph glyph-name="odieresis" unicode="&#xf6;" horiz-adv-x="1261" 
d="M592 -20q-170 0 -294.5 79t-178.5 221t-23 320q26 145 103 258.5t201.5 180.5t277.5 67q169 0 292 -81.5t175 -223t22 -314.5q-40 -225 -196 -366t-379 -141zM315 573q-20 -112 6 -205.5t98 -150.5t177 -57q139 0 231.5 99t118.5 251q8 60 7.5 119t-21 112.5t-52.5 94.5
t-86.5 65.5t-123.5 24.5q-143 0 -235.5 -101t-119.5 -252zM449 1223l36 209h207l-37 -209h-206zM850 1223l37 209h207l-37 -209h-207z" />
    <glyph glyph-name="divide" unicode="&#xf7;" horiz-adv-x="1153" 
d="M92 633l33 190h1003l-32 -190h-1004zM434 301l31 186h203l-31 -186h-203zM551 969l33 186h202l-32 -186h-203z" />
    <glyph glyph-name="oslash" unicode="&#xf8;" horiz-adv-x="1261" 
d="M592 -20q-164 0 -285 73l-119 -135h-213l211 242q-65 83 -89 196.5t-1 243.5q26 145 103 258.5t201.5 180.5t277.5 67q158 0 278 -74l121 135h213l-213 -243q65 -84 89 -197t1 -242q-40 -224 -196.5 -364.5t-378.5 -140.5zM315 573q-24 -136 21 -245l491 555
q-65 43 -157 43q-143 0 -235.5 -101t-119.5 -252zM436 205q67 -45 160 -45q139 0 231.5 99t118.5 251q23 140 -18 246z" />
    <glyph glyph-name="ugrave" unicode="&#xf9;" horiz-adv-x="1165" 
d="M465 0q-192 0 -298.5 112.5t-72.5 305.5l119 667h221l-117 -661q-21 -121 32 -178.5t179 -57.5h220l159 897h221l-170 -950q-23 -135 -163 -135h-330zM397 1454h277l174 -254h-197z" />
    <glyph glyph-name="uacute" unicode="&#xfa;" horiz-adv-x="1165" 
d="M465 0q-192 0 -298.5 112.5t-72.5 305.5l119 667h221l-117 -661q-21 -121 32 -178.5t179 -57.5h220l159 897h221l-170 -950q-23 -135 -163 -135h-330zM532 1200l256 254h295l-346 -254h-205z" />
    <glyph glyph-name="ucircumflex" unicode="&#xfb;" horiz-adv-x="1165" 
d="M465 0q-192 0 -298.5 112.5t-72.5 305.5l119 667h221l-117 -661q-21 -121 32 -178.5t179 -57.5h220l159 897h221l-170 -950q-23 -135 -163 -135h-330zM348 1200l246 254h266l154 -254h-197l-90 129h-31l-137 -129h-211z" />
    <glyph glyph-name="udieresis" unicode="&#xfc;" horiz-adv-x="1165" 
d="M465 0q-192 0 -298.5 112.5t-72.5 305.5l119 667h221l-117 -661q-21 -121 32 -178.5t179 -57.5h220l159 897h221l-170 -950q-23 -135 -163 -135h-330zM391 1223l37 209h207l-37 -209h-207zM793 1223l36 209h207l-37 -209h-206z" />
    <glyph glyph-name="yacute" unicode="&#xfd;" horiz-adv-x="1187" 
d="M43 -369l37 197h297l82 176h-125l-176 1065l2 16h227l90 -643l31 -245h43l119 245l317 643h230l-3 -16l-675 -1319q-35 -69 -83 -94t-112 -25h-301zM551 1200l256 254h295l-346 -254h-205z" />
    <glyph glyph-name="thorn" unicode="&#xfe;" horiz-adv-x="1239" 
d="M-27 -369l322 1823h221l-65 -369h251q99 0 181.5 -31.5t137 -86.5t91 -129.5t43 -159.5t-7.5 -178q-17 -99 -60.5 -187t-110.5 -159t-164 -112.5t-212 -41.5h-340l-65 -369h-222zM293 188h278q144 0 236 95.5t117 238.5q8 55 7.5 108.5t-20 102t-51.5 85t-87.5 58
t-127.5 21.5h-227z" />
    <glyph glyph-name="ydieresis" unicode="&#xff;" horiz-adv-x="1187" 
d="M43 -369l37 197h297l82 176h-125l-176 1065l2 16h227l90 -643l31 -245h43l119 245l317 643h230l-3 -16l-675 -1319q-35 -69 -83 -94t-112 -25h-301zM410 1223l36 209h207l-37 -209h-206zM811 1223l37 209h207l-37 -209h-207z" />
    <glyph glyph-name="Amacron" unicode="&#x100;" horiz-adv-x="1470" 
d="M-37 0l768 1454h340l258 -1454h-225l-74 461h-594l-239 -461h-234zM537 653h460l-53 332l-45 268h-57l-133 -268zM610 1595l27 160h637l-29 -160h-635z" />
    <glyph glyph-name="amacron" unicode="&#x101;" horiz-adv-x="1150" 
d="M383 0q-181 0 -273 96.5t-63 261.5q43 249 436 277l357 29l12 67q19 98 -36.5 149.5t-174.5 51.5q-106 0 -164.5 -42.5t-81.5 -135.5h-231q20 117 90.5 198t170 117.5t222.5 36.5q212 0 331.5 -107.5t86.5 -287.5l-104 -576q-12 -65 -54 -100t-110 -35h-414zM272 336
q-13 -78 30 -117t138 -39h312l59 322l-281 -27q-44 -3 -74.5 -7.5t-65.5 -14t-57 -23.5t-39 -38t-22 -56zM362 1247l27 160h637l-29 -160h-635z" />
    <glyph glyph-name="Abreve" unicode="&#x102;" horiz-adv-x="1470" 
d="M-37 0l768 1454h340l258 -1454h-225l-74 461h-594l-239 -461h-234zM537 653h460l-53 332l-45 268h-57l-133 -268zM807 1804q3 -121 131 -121q142 0 178 121h176q-23 -128 -121.5 -194t-246.5 -66q-145 0 -223 74.5t-66 185.5h172z" />
    <glyph glyph-name="abreve" unicode="&#x103;" horiz-adv-x="1150" 
d="M383 0q-181 0 -273 96.5t-63 261.5q43 249 436 277l357 29l12 67q19 98 -36.5 149.5t-174.5 51.5q-106 0 -164.5 -42.5t-81.5 -135.5h-231q20 117 90.5 198t170 117.5t222.5 36.5q212 0 331.5 -107.5t86.5 -287.5l-104 -576q-12 -65 -54 -100t-110 -35h-414zM272 336
q-13 -78 30 -117t138 -39h312l59 322l-281 -27q-44 -3 -74.5 -7.5t-65.5 -14t-57 -23.5t-39 -38t-22 -56zM561 1454q3 -121 129 -121q147 0 178 121h179q-23 -129 -122 -195.5t-249 -66.5q-144 0 -221.5 75.5t-65.5 186.5h172z" />
    <glyph glyph-name="Aogonek" unicode="&#x104;" horiz-adv-x="1470" 
d="M-37 0l768 1454h340l258 -1454h-2q-188 -62 -188 -135q0 -25 19 -36t63 -11h69l-33 -187h-94q-110 0 -166.5 44.5t-56.5 113.5q0 74 43.5 131t118.5 94l-72 447h-594l-239 -461h-234zM537 653h460l-53 332l-45 268h-57l-133 -268z" />
    <glyph glyph-name="aogonek" unicode="&#x105;" horiz-adv-x="1153" 
d="M778 -369q-110 0 -166.5 44.5t-56.5 113.5q0 132 133 211h-305q-183 0 -274 95.5t-62 260.5q45 250 436 279l357 29l12 67q19 99 -36 150t-175 51q-106 0 -164.5 -42.5t-81.5 -135.5h-231q30 174 162 263t323 89q211 0 330 -107.5t86 -287.5l-104 -576q-8 -45 -32.5 -81
t-53.5 -58.5t-57.5 -42.5t-47 -41.5t-18.5 -46.5t20 -36t64 -11h69l-33 -187h-94zM274 338q-15 -83 27 -120.5t141 -37.5h310l59 322l-281 -27q-58 -5 -95 -12t-74 -21t-58.5 -40t-28.5 -64z" />
    <glyph glyph-name="Cacute" unicode="&#x106;" horiz-adv-x="1576" 
d="M764 -20q-173 0 -309 65.5t-216.5 177.5t-110.5 262t-1 318q25 143 94.5 266.5t171.5 213.5t238.5 141t288.5 51q270 0 433 -136t201 -364h-241q-31 140 -139.5 221.5t-276.5 81.5q-106 0 -200 -39t-162.5 -106.5t-115.5 -157t-65 -191.5q-14 -94 -8.5 -182t40 -165.5
t87 -135t133 -90.5t178.5 -33q159 0 283 81.5t193 215.5h241q-93 -227 -283.5 -361t-453.5 -134zM817 1561l264 243h285l-348 -243h-201z" />
    <glyph glyph-name="cacute" unicode="&#x107;" horiz-adv-x="1228" 
d="M592 -20q-171 0 -295 78.5t-177.5 221.5t-21.5 324q38 218 194.5 360t379.5 142q191 0 323 -100.5t168 -264.5h-229q-30 85 -99 135t-167 50q-94 0 -170 -49t-121 -127t-62 -175q-10 -45 -7.5 -93t11 -94.5t31.5 -87.5t55 -72.5t81.5 -49.5t109.5 -18q98 0 173.5 49
t121.5 135h235q-64 -167 -205 -265.5t-329 -98.5zM559 1200l256 254h295l-346 -254h-205z" />
    <glyph glyph-name="Ccircumflex" unicode="&#x108;" horiz-adv-x="1576" 
d="M764 -20q-173 0 -309 65.5t-216.5 177.5t-110.5 262t-1 318q25 143 94.5 266.5t171.5 213.5t238.5 141t288.5 51q270 0 433 -136t201 -364h-241q-31 140 -139.5 221.5t-276.5 81.5q-106 0 -200 -39t-162.5 -106.5t-115.5 -157t-65 -191.5q-14 -94 -8.5 -182t40 -165.5
t87 -135t133 -90.5t178.5 -33q159 0 283 81.5t193 215.5h241q-93 -227 -283.5 -361t-453.5 -134zM590 1561l246 243h266l153 -243h-196l-90 118h-31l-137 -118h-211z" />
    <glyph glyph-name="ccircumflex" unicode="&#x109;" horiz-adv-x="1228" 
d="M592 -20q-171 0 -295 78.5t-177.5 221.5t-21.5 324q38 218 194.5 360t379.5 142q191 0 323 -100.5t168 -264.5h-229q-30 85 -99 135t-167 50q-94 0 -170 -49t-121 -127t-62 -175q-10 -45 -7.5 -93t11 -94.5t31.5 -87.5t55 -72.5t81.5 -49.5t109.5 -18q98 0 173.5 49
t121.5 135h235q-64 -167 -205 -265.5t-329 -98.5zM375 1200l246 254h266l153 -254h-196l-90 129h-31l-137 -129h-211z" />
    <glyph glyph-name="Cdotaccent" unicode="&#x10a;" horiz-adv-x="1576" 
d="M764 -20q-173 0 -309 65.5t-216.5 177.5t-110.5 262t-1 318q25 143 94.5 266.5t171.5 213.5t238.5 141t288.5 51q270 0 433 -136t201 -364h-241q-31 140 -139.5 221.5t-276.5 81.5q-106 0 -200 -39t-162.5 -106.5t-115.5 -157t-65 -191.5q-14 -94 -8.5 -182t40 -165.5
t87 -135t133 -90.5t178.5 -33q159 0 283 81.5t193 215.5h241q-93 -227 -283.5 -361t-453.5 -134zM819 1569l39 229h238l-41 -229h-236z" />
    <glyph glyph-name="cdotaccent" unicode="&#x10b;" horiz-adv-x="1228" 
d="M592 -20q-171 0 -295 78.5t-177.5 221.5t-21.5 324q38 218 194.5 360t379.5 142q191 0 323 -100.5t168 -264.5h-229q-30 85 -99 135t-167 50q-94 0 -170 -49t-121 -127t-62 -175q-10 -45 -7.5 -93t11 -94.5t31.5 -87.5t55 -72.5t81.5 -49.5t109.5 -18q98 0 173.5 49
t121.5 135h235q-64 -167 -205 -265.5t-329 -98.5zM612 1229l39 225h221l-38 -225h-222z" />
    <glyph glyph-name="Ccaron" unicode="&#x10c;" horiz-adv-x="1576" 
d="M764 -20q-173 0 -309 65.5t-216.5 177.5t-110.5 262t-1 318q25 143 94.5 266.5t171.5 213.5t238.5 141t288.5 51q270 0 433 -136t201 -364h-241q-31 140 -139.5 221.5t-276.5 81.5q-106 0 -200 -39t-162.5 -106.5t-115.5 -157t-65 -191.5q-14 -94 -8.5 -182t40 -165.5
t87 -135t133 -90.5t178.5 -33q159 0 283 81.5t193 215.5h241q-93 -227 -283.5 -361t-453.5 -134zM647 1804h199l90 -118h33l135 118h211l-246 -243h-266z" />
    <glyph glyph-name="ccaron" unicode="&#x10d;" horiz-adv-x="1228" 
d="M592 -20q-171 0 -295 78.5t-177.5 221.5t-21.5 324q38 218 194.5 360t379.5 142q191 0 323 -100.5t168 -264.5h-229q-30 85 -99 135t-167 50q-94 0 -170 -49t-121 -127t-62 -175q-10 -45 -7.5 -93t11 -94.5t31.5 -87.5t55 -72.5t81.5 -49.5t109.5 -18q98 0 173.5 49
t121.5 135h235q-64 -167 -205 -265.5t-329 -98.5zM434 1454h197l90 -129h33l135 129h211l-244 -254h-266z" />
    <glyph glyph-name="Dcaron" unicode="&#x10e;" horiz-adv-x="1456" 
d="M276 1325q10 60 52 94.5t104 34.5h318q175 0 313 -58.5t219.5 -162.5t114.5 -248.5t0 -316.5q-53 -296 -276 -482t-535 -186h-543zM305 195h299q221 0 372 136t189 351q28 161 -12.5 291t-151 208.5t-274.5 78.5h-235zM477 1804h199l90 -118h33l135 118h211l-246 -243
h-266z" />
    <glyph glyph-name="dcaron" unicode="&#x10f;" horiz-adv-x="1241" 
d="M571 0q-173 0 -292 76.5t-166 211.5t-17 306q17 100 61.5 186t114 155.5t173.5 109.5t229 40h307l66 369h221l-232 -1317q-12 -68 -55.5 -102.5t-110.5 -34.5h-299zM315 565q-7 -55 -7 -108t19.5 -101.5t51.5 -85.5t88.5 -58.5t130.5 -21.5h225l125 705h-278
q-146 0 -238 -93.5t-117 -236.5zM1321 1139l94 315h232l-168 -315h-158z" />
    <glyph glyph-name="Dcroat" unicode="&#x110;" horiz-adv-x="1550" 
d="M373 1325q10 60 51.5 94.5t103.5 34.5h318q175 0 313 -58.5t219.5 -162.5t114.5 -248.5t0 -316.5q-53 -296 -276 -482t-535 -186h-543l111 627h-162l37 200h160zM401 195h299q221 0 372.5 136.5t189.5 350.5q28 161 -13 291t-151.5 208.5t-274.5 78.5h-235l-76 -433h338
l-37 -200h-336z" />
    <glyph glyph-name="dcroat" unicode="&#x111;" horiz-adv-x="1241" 
d="M571 0q-173 0 -292 76.5t-166 211.5t-17 306q17 100 61.5 186t114 155.5t173.5 109.5t229 40h307l16 86h-239l26 156h240l23 127h221l-23 -127h164l-29 -156h-161l-183 -1034q-12 -68 -55.5 -102.5t-110.5 -34.5h-299zM315 565q-7 -55 -7 -108t19.5 -101.5t51.5 -85.5
t88.5 -58.5t130.5 -21.5h225l125 705h-278q-146 0 -238 -93.5t-117 -236.5z" />
    <glyph glyph-name="Emacron" unicode="&#x112;" horiz-adv-x="1116" 
d="M276 1325q10 60 52 94.5t104 34.5h758l-33 -197h-665l-76 -432h592l-35 -194h-592l-76 -434h674l-35 -197h-901zM422 1614l29 172h718l-28 -172h-719z" />
    <glyph glyph-name="emacron" unicode="&#x113;" horiz-adv-x="1253" 
d="M592 -20q-125 0 -228.5 46t-170 126.5t-93.5 197t-4 250.5q39 221 196 363.5t380 142.5q115 0 216 -41.5t174 -121t100.5 -196.5t-3.5 -268h-852q2 -63 18.5 -118.5t49.5 -102.5t89.5 -74.5t129.5 -27.5q96 0 172.5 48.5t118.5 133.5h237q-73 -174 -211 -266t-319 -92z
M332 649h624q-9 126 -86.5 204.5t-201.5 78.5q-123 0 -210.5 -78t-125.5 -205zM406 1247l26 160h637l-29 -160h-634z" />
    <glyph glyph-name="Ebreve" unicode="&#x114;" horiz-adv-x="1116" 
d="M276 1325q10 60 52 94.5t104 34.5h758l-33 -197h-665l-76 -432h592l-35 -194h-592l-76 -434h674l-35 -197h-901zM655 1804q3 -121 131 -121q143 0 179 121h176q-23 -128 -122 -194t-247 -66q-145 0 -223 74.5t-66 185.5h172z" />
    <glyph glyph-name="ebreve" unicode="&#x115;" horiz-adv-x="1253" 
d="M592 -20q-125 0 -228.5 46t-170 126.5t-93.5 197t-4 250.5q39 221 196 363.5t380 142.5q115 0 216 -41.5t174 -121t100.5 -196.5t-3.5 -268h-852q2 -63 18.5 -118.5t49.5 -102.5t89.5 -74.5t129.5 -27.5q96 0 172.5 48.5t118.5 133.5h237q-73 -174 -211 -266t-319 -92z
M332 649h624q-9 126 -86.5 204.5t-201.5 78.5q-123 0 -210.5 -78t-125.5 -205zM604 1454q3 -121 129 -121q147 0 178 121h179q-23 -129 -122 -195.5t-249 -66.5q-144 0 -221.5 75.5t-65.5 186.5h172z" />
    <glyph glyph-name="Edotaccent" unicode="&#x116;" horiz-adv-x="1116" 
d="M276 1325q10 60 52 94.5t104 34.5h758l-33 -197h-665l-76 -432h592l-35 -194h-592l-76 -434h674l-35 -197h-901zM655 1569l39 229h238l-41 -229h-236z" />
    <glyph glyph-name="edotaccent" unicode="&#x117;" horiz-adv-x="1253" 
d="M592 -20q-125 0 -228.5 46t-170 126.5t-93.5 197t-4 250.5q39 221 196 363.5t380 142.5q115 0 216 -41.5t174 -121t100.5 -196.5t-3.5 -268h-852q2 -63 18.5 -118.5t49.5 -102.5t89.5 -74.5t129.5 -27.5q96 0 172.5 48.5t118.5 133.5h237q-73 -174 -211 -266t-319 -92z
M332 649h624q-9 126 -86.5 204.5t-201.5 78.5q-123 0 -210.5 -78t-125.5 -205zM608 1229l39 225h221l-39 -225h-221z" />
    <glyph glyph-name="Eogonek" unicode="&#x118;" horiz-adv-x="1116" 
d="M276 1325q10 60 52 94.5t104 34.5h758l-33 -197h-665l-76 -432h592l-35 -194h-592l-76 -434h674l-35 -197h2q-188 -62 -188 -135q0 -25 19 -36t63 -11h69l-32 -187h-95q-110 0 -166.5 44.5t-56.5 113.5q0 133 133 211h-649z" />
    <glyph glyph-name="eogonek" unicode="&#x119;" horiz-adv-x="1253" 
d="M793 -369q-110 0 -167 44.5t-57 113.5q0 126 121 203q-47 -12 -100 -12q-127 0 -230 47t-169 128.5t-92 197t-3 247.5q39 221 196 363.5t380 142.5q115 0 216 -41.5t174 -121t100.5 -196.5t-3.5 -268h-850q2 -65 18 -120.5t48.5 -102t88.5 -73.5t130 -27q96 0 172.5 48.5
t118.5 133.5h237q-39 -92 -89.5 -155.5t-133.5 -129.5q-70 -56 -101.5 -97.5t-31.5 -86.5q0 -51 84 -51h70l-33 -187h-94zM332 649h624q-9 126 -86.5 204.5t-201.5 78.5q-123 0 -210.5 -78t-125.5 -205z" />
    <glyph glyph-name="Ecaron" unicode="&#x11a;" horiz-adv-x="1116" 
d="M276 1325q10 60 52 94.5t104 34.5h758l-33 -197h-665l-76 -432h592l-35 -194h-592l-76 -434h674l-35 -197h-901zM483 1804h199l90 -118h33l135 118h211l-246 -243h-266z" />
    <glyph glyph-name="ecaron" unicode="&#x11b;" horiz-adv-x="1253" 
d="M592 -20q-125 0 -228.5 46t-170 126.5t-93.5 197t-4 250.5q39 221 196 363.5t380 142.5q115 0 216 -41.5t174 -121t100.5 -196.5t-3.5 -268h-852q2 -63 18.5 -118.5t49.5 -102.5t89.5 -74.5t129.5 -27.5q96 0 172.5 48.5t118.5 133.5h237q-73 -174 -211 -266t-319 -92z
M332 649h624q-9 126 -86.5 204.5t-201.5 78.5q-123 0 -210.5 -78t-125.5 -205zM430 1454h197l90 -129h33l135 129h211l-244 -254h-266z" />
    <glyph glyph-name="Gcircumflex" unicode="&#x11c;" horiz-adv-x="1595" 
d="M760 -20q-114 0 -214 30.5t-174.5 85.5t-132 131t-86.5 167.5t-38.5 194.5t12.5 212q25 143 95.5 267.5t173.5 214t239 141t287 51.5q268 0 432 -136t200 -364h-241q-31 142 -139 222.5t-275 80.5q-106 0 -200.5 -39t-163 -106.5t-115 -157t-64.5 -191.5
q-14 -94 -8.5 -182t40 -165.5t87 -135.5t133 -91.5t178.5 -33.5q194 0 320 93.5t160 262.5l10 48h-510l33 188h739l-37 -205q-35 -195 -142.5 -328t-259 -194t-339.5 -61zM594 1561l246 243h266l154 -243h-197l-90 118h-31l-137 -118h-211z" />
    <glyph glyph-name="gcircumflex" unicode="&#x11d;" horiz-adv-x="1239" 
d="M74 -369l32 187h652l33 188h-222q-172 0 -291 77t-166 210.5t-18 300.5q18 101 62 187.5t113 155.5t172 108.5t229 39.5h395q61 0 93 -38t22 -99l-207 -1175q-12 -68 -57.5 -105t-112.5 -37h-729zM317 569q-8 -56 -8 -109.5t19.5 -101.5t51 -84.5t87.5 -57.5t129 -21h229
l123 700h-282q-144 0 -234 -92.5t-115 -233.5zM467 1200l246 254h266l154 -254h-197l-90 129h-31l-137 -129h-211z" />
    <glyph glyph-name="Gbreve" unicode="&#x11e;" horiz-adv-x="1595" 
d="M760 -20q-114 0 -214 30.5t-174.5 85.5t-132 131t-86.5 167.5t-38.5 194.5t12.5 212q25 143 95.5 267.5t173.5 214t239 141t287 51.5q268 0 432 -136t200 -364h-241q-31 142 -139 222.5t-275 80.5q-106 0 -200.5 -39t-163 -106.5t-115 -157t-64.5 -191.5
q-14 -94 -8.5 -182t40 -165.5t87 -135.5t133 -91.5t178.5 -33.5q194 0 320 93.5t160 262.5l10 48h-510l33 188h739l-37 -205q-35 -195 -142.5 -328t-259 -194t-339.5 -61zM823 1804q3 -121 131 -121q143 0 179 121h176q-23 -128 -122 -194t-247 -66q-145 0 -223 74.5
t-66 185.5h172z" />
    <glyph glyph-name="gbreve" unicode="&#x11f;" horiz-adv-x="1239" 
d="M74 -369l32 187h652l33 188h-222q-172 0 -291 77t-166 210.5t-18 300.5q18 101 62 187.5t113 155.5t172 108.5t229 39.5h395q61 0 93 -38t22 -99l-207 -1175q-12 -68 -57.5 -105t-112.5 -37h-729zM317 569q-8 -56 -8 -109.5t19.5 -101.5t51 -84.5t87.5 -57.5t129 -21h229
l123 700h-282q-144 0 -234 -92.5t-115 -233.5zM698 1454q3 -121 129 -121q148 0 179 121h178q-23 -129 -122 -195.5t-249 -66.5q-144 0 -221.5 75.5t-65.5 186.5h172z" />
    <glyph glyph-name="Gdotaccent" unicode="&#x120;" horiz-adv-x="1595" 
d="M760 -20q-114 0 -214 30.5t-174.5 85.5t-132 131t-86.5 167.5t-38.5 194.5t12.5 212q25 143 95.5 267.5t173.5 214t239 141t287 51.5q268 0 432 -136t200 -364h-241q-31 142 -139 222.5t-275 80.5q-106 0 -200.5 -39t-163 -106.5t-115 -157t-64.5 -191.5
q-14 -94 -8.5 -182t40 -165.5t87 -135.5t133 -91.5t178.5 -33.5q194 0 320 93.5t160 262.5l10 48h-510l33 188h739l-37 -205q-35 -195 -142.5 -328t-259 -194t-339.5 -61zM823 1569l39 229h238l-41 -229h-236z" />
    <glyph glyph-name="gdotaccent" unicode="&#x121;" horiz-adv-x="1239" 
d="M74 -369l32 187h652l33 188h-222q-172 0 -291 77t-166 210.5t-18 300.5q18 101 62 187.5t113 155.5t172 108.5t229 39.5h395q61 0 93 -38t22 -99l-207 -1175q-12 -68 -57.5 -105t-112.5 -37h-729zM317 569q-8 -56 -8 -109.5t19.5 -101.5t51 -84.5t87.5 -57.5t129 -21h229
l123 700h-282q-144 0 -234 -92.5t-115 -233.5zM702 1229l39 225h222l-39 -225h-222z" />
    <glyph glyph-name="uni0122" unicode="&#x122;" horiz-adv-x="1595" 
d="M760 -20q-114 0 -214 30.5t-174.5 85.5t-132 131t-86.5 167.5t-38.5 194.5t12.5 212q25 143 95.5 267.5t173.5 214t239 141t287 51.5q268 0 432 -136t200 -364h-241q-31 142 -139 222.5t-275 80.5q-106 0 -200.5 -39t-163 -106.5t-115 -157t-64.5 -191.5
q-14 -94 -8.5 -182t40 -165.5t87 -135.5t133 -91.5t178.5 -33.5q194 0 320 93.5t160 262.5l10 48h-510l33 188h739l-37 -205q-35 -195 -142.5 -328t-259 -194t-339.5 -61zM520 -430l115 336h223l-176 -336h-162z" />
    <glyph glyph-name="uni0123" unicode="&#x123;" horiz-adv-x="1239" 
d="M74 -369l32 187h652l33 188h-222q-172 0 -291 77t-166 210.5t-18 300.5q18 101 62 187.5t113 155.5t172 108.5t229 39.5h395q61 0 93 -38t22 -99l-207 -1175q-12 -68 -57.5 -105t-112.5 -37h-729zM317 569q-8 -56 -8 -109.5t19.5 -101.5t51 -84.5t87.5 -57.5t129 -21h229
l123 700h-282q-144 0 -234 -92.5t-115 -233.5zM664 1200l292 254h195l-207 -254h-280z" />
    <glyph glyph-name="Hcircumflex" unicode="&#x124;" horiz-adv-x="1415" 
d="M954 0l111 629h-684l-111 -629h-227l256 1454h227l-110 -625h684l110 625h226l-256 -1454h-226zM545 1561l246 243h266l153 -243h-196l-90 118h-31l-137 -118h-211z" />
    <glyph glyph-name="hcircumflex" unicode="&#x125;" horiz-adv-x="1189" 
d="M872 662q21 121 -31.5 178t-178.5 57h-244l-158 -897h-221l256 1454h221l-65 -369h274q193 0 299 -112t72 -305l-119 -668h-221zM80 1548l246 254h266l153 -254h-196l-90 129h-31l-137 -129h-211z" />
    <glyph glyph-name="Hbar" unicode="&#x126;" horiz-adv-x="1415" 
d="M954 0l111 629h-684l-111 -629h-227l188 1069h-118l28 160h119l39 225h227l-39 -225h684l39 225h226l-39 -225h125l-29 -160h-125l-188 -1069h-226zM416 829h684l43 240h-684z" />
    <glyph glyph-name="hbar" unicode="&#x127;" horiz-adv-x="1189" 
d="M872 662q21 121 -31.5 178t-178.5 57h-244l-158 -897h-221l207 1171h-162l27 156h161l23 127h221l-22 -127h241l-28 -156h-240l-16 -86h274q193 0 299 -112t72 -305l-119 -668h-221z" />
    <glyph glyph-name="Itilde" unicode="&#x128;" horiz-adv-x="503" 
d="M299 1454h227l-256 -1454h-227zM51 1561q24 112 93.5 186t160.5 74q46 0 89.5 -18t71 -39.5t58.5 -39.5t54 -18q78 0 100 109h170q-24 -112 -93.5 -187.5t-160.5 -75.5q-46 0 -89 18.5t-70.5 40t-57.5 40t-53 18.5q-43 0 -67.5 -27t-35.5 -81h-170z" />
    <glyph glyph-name="itilde" unicode="&#x129;" horiz-adv-x="491" 
d="M39 0l192 1085h222l-193 -1085h-221zM-10 1198q24 111 93.5 185.5t160.5 74.5q46 0 89.5 -18.5t70.5 -40t58 -40t54 -18.5q78 0 100 109h170q-24 -110 -93.5 -185t-160.5 -75q-46 0 -89 18.5t-70.5 40t-57.5 40t-53 18.5q-43 0 -67 -27t-35 -82h-170z" />
    <glyph glyph-name="Imacron" unicode="&#x12a;" horiz-adv-x="503" 
d="M299 1454h227l-256 -1454h-227zM121 1595l26 160h637l-28 -160h-635z" />
    <glyph glyph-name="imacron" unicode="&#x12b;" horiz-adv-x="491" 
d="M39 0l192 1085h222l-193 -1085h-221zM53 1247l27 160h637l-29 -160h-635z" />
    <glyph glyph-name="Ibreve" unicode="&#x12c;" horiz-adv-x="503" 
d="M299 1454h227l-256 -1454h-227zM317 1804q3 -121 132 -121q142 0 178 121h176q-23 -128 -122 -194t-247 -66q-145 0 -223 74.5t-66 185.5h172z" />
    <glyph glyph-name="ibreve" unicode="&#x12d;" horiz-adv-x="491" 
d="M39 0l192 1085h222l-193 -1085h-221zM254 1454q3 -121 129 -121q147 0 178 121h178q-23 -130 -121.5 -196t-248.5 -66q-144 0 -221.5 75.5t-65.5 186.5h172z" />
    <glyph glyph-name="Iogonek" unicode="&#x12e;" horiz-adv-x="503" 
d="M299 1454h227l-256 -1454h-2q-188 -62 -188 -135q0 -25 19 -36t63 -11h69l-32 -187h-95q-110 0 -166.5 44.5t-56.5 113.5q0 74 44.5 132t119.5 95z" />
    <glyph glyph-name="iogonek" unicode="&#x12f;" horiz-adv-x="491" 
d="M256 1229l39 225h221l-39 -225h-221zM-127 -211q0 146 170 229l188 1067h222l-193 -1085q-188 -59 -188 -135q0 -47 82 -47h69l-33 -187h-94q-110 0 -166.5 44.5t-56.5 113.5z" />
    <glyph glyph-name="Idotaccent" unicode="&#x130;" horiz-adv-x="503" 
d="M299 1454h227l-256 -1454h-227zM317 1569l39 229h238l-41 -229h-236z" />
    <glyph glyph-name="dotlessi" unicode="&#x131;" horiz-adv-x="491" 
d="M39 0l192 1085h222l-193 -1085h-221z" />
    <glyph glyph-name="IJ" unicode="&#x132;" horiz-adv-x="1236" 
d="M299 1454h227l-256 -1454h-227zM504 0l35 199h274l217 1255h227l-231 -1317q-12 -68 -55.5 -102.5t-110.5 -34.5h-356z" />
    <glyph glyph-name="ij" unicode="&#x133;" horiz-adv-x="985" 
d="M39 0l192 1085h222l-193 -1085h-221zM221 -369l33 187h246l223 1267h221l-229 -1310q-12 -65 -58 -104.5t-116 -39.5h-320zM256 1229l39 225h221l-39 -225h-221zM745 1229l39 225h222l-39 -225h-222z" />
    <glyph glyph-name="Jcircumflex" unicode="&#x134;" horiz-adv-x="702" 
d="M-31 0l35 199h275l217 1255h227l-231 -1317q-12 -68 -55.5 -102.5t-110.5 -34.5h-357zM287 1561l245 243h267l153 -243h-196l-90 118h-31l-137 -118h-211z" />
    <glyph glyph-name="jcircumflex" unicode="&#x135;" horiz-adv-x="493" 
d="M-270 -369l32 187h246l223 1267h222l-230 -1310q-12 -65 -58 -104.5t-116 -39.5h-319zM18 1200l246 254h266l154 -254h-197l-90 129h-30l-138 -129h-211z" />
    <glyph glyph-name="uni0136" unicode="&#x136;" horiz-adv-x="1286" 
d="M795 739l331 -725v-14h-237l-283 653h-221l-115 -653h-227l256 1454h227l-106 -602h190l508 602h264v-16l-575 -654zM326 -430l114 336h224l-177 -336h-161z" />
    <glyph glyph-name="uni0137" unicode="&#x137;" horiz-adv-x="1142" 
d="M745 578l240 -566l-2 -12h-240l-194 489h-203l-86 -489h-221l256 1454h221l-135 -770h184l355 401h254l-5 -14l-415 -469zM264 -430l115 336h223l-176 -336h-162z" />
    <glyph glyph-name="Lacute" unicode="&#x139;" horiz-adv-x="1097" 
d="M43 0l256 1454h227l-221 -1255h670l-35 -199h-897zM315 1561l265 243h284l-348 -243h-201z" />
    <glyph glyph-name="lacute" unicode="&#x13a;" horiz-adv-x="491" 
d="M260 0h-221l256 1454h221zM309 1561l264 243h285l-348 -243h-201z" />
    <glyph glyph-name="uni013B" unicode="&#x13b;" horiz-adv-x="1097" 
d="M43 0l256 1454h227l-221 -1255h670l-35 -199h-897zM246 -430l114 336h224l-176 -336h-162z" />
    <glyph glyph-name="uni013C" unicode="&#x13c;" horiz-adv-x="491" 
d="M260 0h-221l256 1454h221zM-86 -430l115 336h223l-176 -336h-162z" />
    <glyph glyph-name="Lcaron" unicode="&#x13d;" horiz-adv-x="1097" 
d="M43 0l256 1454h227l-221 -1255h670l-35 -199h-897zM739 1139l95 315h231l-168 -315h-158z" />
    <glyph glyph-name="lcaron" unicode="&#x13e;" horiz-adv-x="491" 
d="M260 0h-221l256 1454h221zM569 1139l95 315h231l-168 -315h-158z" />
    <glyph glyph-name="Ldot" unicode="&#x13f;" horiz-adv-x="1097" 
d="M43 0l256 1454h227l-221 -1255h670l-35 -199h-897zM743 676l41 231h222l-41 -231h-222z" />
    <glyph glyph-name="ldot" unicode="&#x140;" horiz-adv-x="735" 
d="M260 0h-221l256 1454h221zM512 600l43 231h221l-43 -231h-221z" />
    <glyph glyph-name="Lslash" unicode="&#x141;" horiz-adv-x="1165" 
d="M111 0l120 684l-145 -43l33 186l145 43l103 584h227l-90 -512l395 117l-33 -187l-395 -116l-98 -557h669l-34 -199h-897z" />
    <glyph glyph-name="lslash" unicode="&#x142;" horiz-adv-x="733" 
d="M383 0h-221l106 604l-198 -102l39 215l196 100l113 637h221l-90 -512l201 102l-39 -215l-199 -102z" />
    <glyph glyph-name="Nacute" unicode="&#x143;" horiz-adv-x="1460" 
d="M274 1319q25 135 166 135h246l229 -919l76 -314h58l53 305l164 928h215l-256 -1454h-387l-232 920l-74 313h-59l-215 -1233h-215zM772 1561l264 243h285l-348 -243h-201z" />
    <glyph glyph-name="nacute" unicode="&#x144;" horiz-adv-x="1187" 
d="M205 956q11 59 51.5 94t103.5 35h363q192 0 298.5 -112t72.5 -305l-119 -668h-221l116 662q21 121 -32 178t-179 57h-243l-158 -897h-221zM516 1200l256 254h295l-346 -254h-205z" />
    <glyph glyph-name="uni0145" unicode="&#x145;" horiz-adv-x="1460" 
d="M274 1319q25 135 166 135h246l229 -919l76 -314h58l53 305l164 928h215l-256 -1454h-387l-232 920l-74 313h-59l-215 -1233h-215zM379 -430l115 336h223l-176 -336h-162z" />
    <glyph glyph-name="uni0146" unicode="&#x146;" horiz-adv-x="1187" 
d="M205 956q11 59 51.5 94t103.5 35h363q192 0 298.5 -112t72.5 -305l-119 -668h-221l116 662q21 121 -32 178t-179 57h-243l-158 -897h-221zM274 -430l115 336h223l-176 -336h-162z" />
    <glyph glyph-name="Ncaron" unicode="&#x147;" horiz-adv-x="1460" 
d="M274 1319q25 135 166 135h246l229 -919l76 -314h58l53 305l164 928h215l-256 -1454h-387l-232 920l-74 313h-59l-215 -1233h-215zM602 1804h199l90 -118h33l135 118h211l-246 -243h-266z" />
    <glyph glyph-name="ncaron" unicode="&#x148;" horiz-adv-x="1187" 
d="M205 956q11 59 51.5 94t103.5 35h363q192 0 298.5 -112t72.5 -305l-119 -668h-221l116 662q21 121 -32 178t-179 57h-243l-158 -897h-221zM391 1454h197l90 -129h33l135 129h211l-244 -254h-266z" />
    <glyph glyph-name="Eng" unicode="&#x14a;" horiz-adv-x="1462" 
d="M662 -369l36 201h285l29 168h-172l-234 920l-71 313h-60l-215 -1233h-215l231 1325q11 58 52 93.5t104 35.5h256l230 -919l75 -314h58l53 305l164 928h215l-297 -1685q-12 -67 -56 -102.5t-110 -35.5h-358z" />
    <glyph glyph-name="eng" unicode="&#x14b;" horiz-adv-x="1187" 
d="M723 1085q191 0 298 -113t73 -304l-160 -901q-25 -136 -162 -136h-328l35 187h240l151 844q21 121 -32 178t-179 57h-243l-158 -897h-221l168 956q11 59 51.5 94t103.5 35h363z" />
    <glyph glyph-name="Omacron" unicode="&#x14c;" horiz-adv-x="1613" 
d="M764 -20q-171 0 -306.5 65t-217 176t-112.5 261.5t-1 318.5q25 143 94.5 267t171.5 214t238.5 141.5t288.5 51.5q115 0 214.5 -30t174.5 -84.5t132.5 -130t86.5 -167t38.5 -195.5t-12.5 -215q-25 -144 -94.5 -267.5t-171.5 -213.5t-237.5 -141t-286.5 -51zM354 784
q-16 -76 -10.5 -150t23 -141.5t56 -125t88.5 -99.5t120.5 -66t152.5 -24q211 0 358 141.5t185 356.5q15 76 10 150.5t-23 141.5t-56 123.5t-88.5 98t-120.5 65t-152 23.5q-206 0 -355 -139t-188 -355zM582 1614l28 172h719l-29 -172h-718z" />
    <glyph glyph-name="omacron" unicode="&#x14d;" horiz-adv-x="1261" 
d="M592 -20q-170 0 -294.5 79t-178.5 221t-23 320q26 145 103 258.5t201.5 180.5t277.5 67q169 0 292 -81.5t175 -223t22 -314.5q-40 -225 -196 -366t-379 -141zM315 573q-20 -112 6 -205.5t98 -150.5t177 -57q139 0 231.5 99t118.5 251q8 60 7.5 119t-21 112.5t-52.5 94.5
t-86.5 65.5t-123.5 24.5q-143 0 -235.5 -101t-119.5 -252zM438 1247l27 160h637l-29 -160h-635z" />
    <glyph glyph-name="Obreve" unicode="&#x14e;" horiz-adv-x="1613" 
d="M764 -20q-171 0 -306.5 65t-217 176t-112.5 261.5t-1 318.5q25 143 94.5 267t171.5 214t238.5 141.5t288.5 51.5q115 0 214.5 -30t174.5 -84.5t132.5 -130t86.5 -167t38.5 -195.5t-12.5 -215q-25 -144 -94.5 -267.5t-171.5 -213.5t-237.5 -141t-286.5 -51zM354 784
q-16 -76 -10.5 -150t23 -141.5t56 -125t88.5 -99.5t120.5 -66t152.5 -24q211 0 358 141.5t185 356.5q15 76 10 150.5t-23 141.5t-56 123.5t-88.5 98t-120.5 65t-152 23.5q-206 0 -355 -139t-188 -355zM815 1804q3 -121 131 -121q142 0 178 121h176q-23 -128 -121.5 -194
t-246.5 -66q-145 0 -223 74.5t-66 185.5h172z" />
    <glyph glyph-name="obreve" unicode="&#x14f;" horiz-adv-x="1261" 
d="M592 -20q-170 0 -294.5 79t-178.5 221t-23 320q26 145 103 258.5t201.5 180.5t277.5 67q169 0 292 -81.5t175 -223t22 -314.5q-40 -225 -196 -366t-379 -141zM315 573q-20 -112 6 -205.5t98 -150.5t177 -57q139 0 231.5 99t118.5 251q8 60 7.5 119t-21 112.5t-52.5 94.5
t-86.5 65.5t-123.5 24.5q-143 0 -235.5 -101t-119.5 -252zM637 1454q3 -121 129 -121q147 0 178 121h178q-23 -130 -121.5 -196t-248.5 -66q-144 0 -221.5 75.5t-65.5 186.5h172z" />
    <glyph glyph-name="Ohungarumlaut" unicode="&#x150;" horiz-adv-x="1613" 
d="M764 -20q-171 0 -306.5 65t-217 176t-112.5 261.5t-1 318.5q25 143 94.5 267t171.5 214t238.5 141.5t288.5 51.5q115 0 214.5 -30t174.5 -84.5t132.5 -130t86.5 -167t38.5 -195.5t-12.5 -215q-25 -144 -94.5 -267.5t-171.5 -213.5t-237.5 -141t-286.5 -51zM354 784
q-16 -76 -10.5 -150t23 -141.5t56 -125t88.5 -99.5t120.5 -66t152.5 -24q211 0 358 141.5t185 356.5q15 76 10 150.5t-23 141.5t-56 123.5t-88.5 98t-120.5 65t-152 23.5q-206 0 -355 -139t-188 -355zM633 1550l205 256h272l-289 -256h-188zM1051 1550l206 256h273
l-289 -256h-190z" />
    <glyph glyph-name="ohungarumlaut" unicode="&#x151;" horiz-adv-x="1261" 
d="M592 -20q-170 0 -294.5 79t-178.5 221t-23 320q26 145 103 258.5t201.5 180.5t277.5 67q169 0 292 -81.5t175 -223t22 -314.5q-40 -225 -196 -366t-379 -141zM315 573q-20 -112 6 -205.5t98 -150.5t177 -57q139 0 231.5 99t118.5 251q8 60 7.5 119t-21 112.5t-52.5 94.5
t-86.5 65.5t-123.5 24.5q-143 0 -235.5 -101t-119.5 -252zM426 1200l209 254h272l-291 -254h-190zM836 1200l206 254h273l-291 -254h-188z" />
    <glyph glyph-name="OE" unicode="&#x152;" horiz-adv-x="1959" 
d="M754 0q-136 0 -244 29t-177.5 76.5t-117 115.5t-70.5 139t-30 155t-2 156t18 148q25 142 84.5 257t152.5 200t226 131.5t297 46.5h1145l-35 -197h-668l-76 -432h594l-34 -194h-592l-76 -434h676l-37 -197h-1034zM360 788q-8 -46 -13 -82t-7.5 -86t1.5 -89t16.5 -84.5
t34.5 -80t58 -67.5t85 -54.5t118 -34.5t154 -13h113l186 1060h-213q-226 0 -359.5 -124.5t-173.5 -344.5z" />
    <glyph glyph-name="oe" unicode="&#x153;" horiz-adv-x="2115" 
d="M592 -20q-170 0 -294.5 79t-178.5 221t-23 320q26 145 103 258.5t201.5 180.5t277.5 67q137 0 244.5 -54t171.5 -151q80 96 193.5 150.5t246.5 54.5q115 0 216 -41.5t174 -121t100.5 -196.5t-3.5 -268h-852q2 -63 18.5 -118.5t49.5 -102.5t89.5 -74.5t129.5 -27.5
q96 0 172.5 48.5t118.5 133.5h238q-73 -173 -211.5 -265.5t-319.5 -92.5q-137 0 -246.5 53.5t-175.5 150.5q-79 -97 -192.5 -150.5t-247.5 -53.5zM315 573q-20 -112 6 -205.5t98 -150.5t177 -57q139 0 231.5 99t118.5 251l4 25q2 10 2 26q5 71 -8.5 134.5t-45.5 116
t-91 83.5t-137 31q-143 0 -235.5 -101t-119.5 -252zM1194 649h625q-9 125 -87 204t-202 79q-123 0 -210.5 -78t-125.5 -205z" />
    <glyph glyph-name="Racute" unicode="&#x154;" horiz-adv-x="1314" 
d="M276 1325q10 60 52 94.5t104 34.5h395q224 0 349 -127.5t90 -333.5q-24 -143 -125.5 -239t-251.5 -131l270 -623h-260l-244 606h-280l-107 -606h-225zM410 797h354q105 0 181 61.5t93 157.5q22 116 -43.5 180t-199.5 64h-306zM647 1561l264 243h285l-348 -243h-201z" />
    <glyph glyph-name="racute" unicode="&#x155;" horiz-adv-x="729" 
d="M205 950q23 135 166 135h385l-35 -190h-303l-158 -895h-221zM356 1200l256 254h295l-346 -254h-205z" />
    <glyph glyph-name="uni0156" unicode="&#x156;" horiz-adv-x="1314" 
d="M276 1325q10 60 52 94.5t104 34.5h395q224 0 349 -127.5t90 -333.5q-24 -143 -125.5 -239t-251.5 -131l270 -623h-260l-244 606h-280l-107 -606h-225zM340 -430l115 336h223l-176 -336h-162zM410 797h354q105 0 181 61.5t93 157.5q22 116 -43.5 180t-199.5 64h-306z" />
    <glyph glyph-name="uni0157" unicode="&#x157;" horiz-adv-x="729" 
d="M205 950q23 135 166 135h385l-35 -190h-303l-158 -895h-221zM-86 -430l115 336h223l-176 -336h-162z" />
    <glyph glyph-name="Rcaron" unicode="&#x158;" horiz-adv-x="1314" 
d="M276 1325q10 60 52 94.5t104 34.5h395q224 0 349 -127.5t90 -333.5q-24 -143 -125.5 -239t-251.5 -131l270 -623h-260l-244 606h-280l-107 -606h-225zM410 797h354q105 0 181 61.5t93 157.5q22 116 -43.5 180t-199.5 64h-306zM477 1804h199l90 -118h33l135 118h211
l-246 -243h-266z" />
    <glyph glyph-name="rcaron" unicode="&#x159;" horiz-adv-x="729" 
d="M205 950q23 135 166 135h385l-35 -190h-303l-158 -895h-221zM229 1454h197l90 -129h33l135 129h211l-244 -254h-266z" />
    <glyph glyph-name="Sacute" unicode="&#x15a;" horiz-adv-x="1271" 
d="M596 -20q-237 0 -387 132t-150 359h226q0 -140 90.5 -217.5t240.5 -77.5q81 0 148 18.5t115 61t59 104.5q12 67 -8.5 117.5t-65 83t-105.5 57.5t-129 46.5t-136 45t-127.5 58t-101.5 79.5t-59 116.5t-1 162.5q30 166 172.5 257.5t355.5 91.5q223 0 367.5 -126t144.5 -343
h-221q-9 136 -87.5 207t-215.5 71q-119 0 -202 -45t-97 -129q-10 -58 12 -103t67.5 -75t106.5 -55t129.5 -48t136.5 -49.5t127 -64.5t101 -86.5t58.5 -123t0.5 -167.5t-69.5 -163.5t-132 -112t-170 -62t-193.5 -20.5zM633 1561l264 243h285l-348 -243h-201z" />
    <glyph glyph-name="sacute" unicode="&#x15b;" horiz-adv-x="1062" 
d="M471 -20q-194 0 -310 93t-120 265h215q3 -98 67.5 -142t157.5 -44q53 0 101.5 11.5t89.5 43t49 78.5q7 43 -10 74t-52 48.5t-82 33t-99.5 27t-104.5 30.5t-96.5 43t-76.5 65t-44.5 96.5t0.5 137.5q21 121 138.5 193.5t283.5 72.5q192 0 305.5 -98t113.5 -254h-215
q-4 88 -61.5 134t-159.5 46q-78 0 -131 -28.5t-63 -86.5q-8 -44 9.5 -76t52.5 -50t82.5 -33t100.5 -26t105.5 -29t97.5 -41.5t77.5 -64.5t44.5 -96.5t-1 -138.5q-23 -129 -153.5 -206.5t-311.5 -77.5zM430 1200l256 254h295l-346 -254h-205z" />
    <glyph glyph-name="Scircumflex" unicode="&#x15c;" horiz-adv-x="1271" 
d="M596 -20q-237 0 -387 132t-150 359h226q0 -140 90.5 -217.5t240.5 -77.5q81 0 148 18.5t115 61t59 104.5q12 67 -8.5 117.5t-65 83t-105.5 57.5t-129 46.5t-136 45t-127.5 58t-101.5 79.5t-59 116.5t-1 162.5q30 166 172.5 257.5t355.5 91.5q223 0 367.5 -126t144.5 -343
h-221q-9 136 -87.5 207t-215.5 71q-119 0 -202 -45t-97 -129q-10 -58 12 -103t67.5 -75t106.5 -55t129.5 -48t136.5 -49.5t127 -64.5t101 -86.5t58.5 -123t0.5 -167.5t-69.5 -163.5t-132 -112t-170 -62t-193.5 -20.5zM408 1561l245 243h267l153 -243h-196l-91 118h-30
l-138 -118h-210z" />
    <glyph glyph-name="scircumflex" unicode="&#x15d;" horiz-adv-x="1062" 
d="M471 -20q-194 0 -310 93t-120 265h215q3 -98 67.5 -142t157.5 -44q53 0 101.5 11.5t89.5 43t49 78.5q7 43 -10 74t-52 48.5t-82 33t-99.5 27t-104.5 30.5t-96.5 43t-76.5 65t-44.5 96.5t0.5 137.5q21 121 138.5 193.5t283.5 72.5q192 0 305.5 -98t113.5 -254h-215
q-4 88 -61.5 134t-159.5 46q-78 0 -131 -28.5t-63 -86.5q-8 -44 9.5 -76t52.5 -50t82.5 -33t100.5 -26t105.5 -29t97.5 -41.5t77.5 -64.5t44.5 -96.5t-1 -138.5q-23 -129 -153.5 -206.5t-311.5 -77.5zM246 1200l246 254h266l153 -254h-196l-90 129h-31l-137 -129h-211z" />
    <glyph glyph-name="Scedilla" unicode="&#x15e;" horiz-adv-x="1271" 
d="M373 -471l18 104h166q105 0 105 74q0 62 -89 62h-133l-12 14l82 201q-203 24 -327 152.5t-124 334.5h226q0 -140 90.5 -217.5t240.5 -77.5q81 0 148 18.5t115 61t59 104.5q12 67 -8.5 117.5t-65 83t-105.5 57.5t-129 46.5t-136 45t-127.5 58t-101.5 79.5t-59 116.5
t-1 162.5q30 166 172.5 257.5t355.5 91.5q223 0 367.5 -126t144.5 -343h-221q-9 136 -87.5 207t-215.5 71q-119 0 -202 -45t-97 -129q-10 -58 12 -103t67.5 -75t106.5 -55t129.5 -48t136.5 -49.5t127 -64.5t101 -86.5t58.5 -123t0.5 -167.5q-20 -111 -93.5 -190t-174 -118
t-223.5 -48l-60 -93l-6 -16h25q84 0 137 -46t53 -118q0 -89 -67 -134.5t-158 -45.5h-221z" />
    <glyph glyph-name="scedilla" unicode="&#x15f;" horiz-adv-x="1062" 
d="M244 -471l18 104h166q104 0 104 74q0 62 -88 62h-133l-12 14l82 203q-155 21 -245.5 111t-94.5 241h215q3 -98 67.5 -142t157.5 -44q53 0 101.5 11.5t89.5 43t49 78.5q7 43 -10 74t-52 48.5t-82 33t-99.5 27t-104.5 30.5t-96.5 43t-76.5 65t-44.5 96.5t0.5 137.5
q21 121 138.5 193.5t283.5 72.5q192 0 305.5 -98t113.5 -254h-215q-4 88 -61.5 134t-159.5 46q-78 0 -131 -28.5t-63 -86.5q-8 -44 9 -76.5t52 -52.5t82.5 -35t100 -29t105 -30.5t97.5 -43t77.5 -62.5t45.5 -94t0 -132q-20 -115 -128.5 -190.5t-264.5 -89.5l-62 -95l-6 -16
h25q84 0 137 -46t53 -118q0 -89 -67 -134.5t-158 -45.5h-221z" />
    <glyph glyph-name="Scaron" unicode="&#x160;" horiz-adv-x="1271" 
d="M596 -20q-237 0 -387 132t-150 359h226q0 -140 90.5 -217.5t240.5 -77.5q81 0 148 18.5t115 61t59 104.5q12 67 -8.5 117.5t-65 83t-105.5 57.5t-129 46.5t-136 45t-127.5 58t-101.5 79.5t-59 116.5t-1 162.5q30 166 172.5 257.5t355.5 91.5q223 0 367.5 -126t144.5 -343
h-221q-9 136 -87.5 207t-215.5 71q-119 0 -202 -45t-97 -129q-10 -58 12 -103t67.5 -75t106.5 -55t129.5 -48t136.5 -49.5t127 -64.5t101 -86.5t58.5 -123t0.5 -167.5t-69.5 -163.5t-132 -112t-170 -62t-193.5 -20.5zM463 1804h199l90 -118h32l136 118h210l-245 -243h-267z
" />
    <glyph glyph-name="scaron" unicode="&#x161;" horiz-adv-x="1062" 
d="M471 -20q-194 0 -310 93t-120 265h215q3 -98 67.5 -142t157.5 -44q53 0 101.5 11.5t89.5 43t49 78.5q7 43 -10 74t-52 48.5t-82 33t-99.5 27t-104.5 30.5t-96.5 43t-76.5 65t-44.5 96.5t0.5 137.5q21 121 138.5 193.5t283.5 72.5q192 0 305.5 -98t113.5 -254h-215
q-4 88 -61.5 134t-159.5 46q-78 0 -131 -28.5t-63 -86.5q-8 -44 9.5 -76t52.5 -50t82.5 -33t100.5 -26t105.5 -29t97.5 -41.5t77.5 -64.5t44.5 -96.5t-1 -138.5q-23 -129 -153.5 -206.5t-311.5 -77.5zM305 1454h197l90 -129h33l135 129h211l-244 -254h-266z" />
    <glyph glyph-name="uni0162" unicode="&#x162;" horiz-adv-x="1228" 
d="M406 0l221 1255h-437l35 199h1098l-33 -199h-436l-223 -1255h-27l-72 -111l-6 -16h25q84 0 137 -46t53 -118q0 -89 -67 -134.5t-158 -45.5h-221l18 104h166q105 0 105 74q0 62 -88 62h-134l-12 14l88 217h-32z" />
    <glyph glyph-name="uni0163" unicode="&#x163;" horiz-adv-x="780" 
d="M788 1085l-30 -190h-242l-125 -709h240l-33 -186h-149l-72 -111l-6 -16h24q85 0 138 -46t53 -118q0 -89 -67.5 -134.5t-158.5 -45.5h-221l19 104h166q104 0 104 74q0 62 -88 62h-133l-12 14l88 217h-2q-58 0 -93.5 41.5t-23.5 103.5l131 750h-162l33 190h162l49 277h221
l-49 -277h239z" />
    <glyph glyph-name="Tcaron" unicode="&#x164;" horiz-adv-x="1228" 
d="M406 0l221 1255h-437l35 199h1098l-33 -199h-436l-223 -1255h-225zM508 1804h199l90 -118h32l136 118h211l-246 -243h-266z" />
    <glyph glyph-name="tcaron" unicode="&#x165;" horiz-adv-x="780" 
d="M788 1085l-30 -190h-242l-125 -709h240l-33 -186h-317q-58 0 -93.5 41.5t-23.5 103.5l131 750h-162l33 190h162l49 277h221l-49 -277h239zM672 1241l94 315h231l-168 -315h-157z" />
    <glyph glyph-name="Tbar" unicode="&#x166;" horiz-adv-x="1228" 
d="M406 0l110 627h-254l37 200h252l76 428h-437l35 199h1098l-33 -199h-436l-76 -428h254l-35 -200h-256l-110 -627h-225z" />
    <glyph glyph-name="tbar" unicode="&#x167;" horiz-adv-x="780" 
d="M788 1085l-30 -190h-242l-49 -277h242l-29 -155h-240l-49 -277h240l-33 -186h-317q-58 0 -93.5 41.5t-23.5 103.5l55 318h-162l27 155h162l49 277h-162l33 190h162l49 277h221l-49 -277h239z" />
    <glyph glyph-name="Utilde" unicode="&#x168;" horiz-adv-x="1404" 
d="M627 -20q-92 0 -168.5 19.5t-129.5 53t-93 79.5t-62.5 97.5t-33.5 108t-10.5 110t9.5 105.5l160 901h227l-159 -903q-15 -99 -1.5 -168.5t54.5 -114t96.5 -64.5t126.5 -20q147 0 256 88.5t141 270.5l160 911h227l-163 -934q-13 -72 -40 -142.5t-79 -143.5t-121 -128.5
t-172 -90.5t-225 -35zM502 1561q24 112 93.5 186t160.5 74q46 0 89.5 -18t70.5 -39.5t58 -39.5t54 -18q78 0 100 109h170q-24 -112 -93.5 -187.5t-160.5 -75.5q-46 0 -89 18.5t-70.5 40t-57.5 40t-53 18.5q-43 0 -67 -27t-35 -81h-170z" />
    <glyph glyph-name="utilde" unicode="&#x169;" horiz-adv-x="1165" 
d="M465 0q-192 0 -298.5 112.5t-72.5 305.5l119 667h221l-117 -661q-21 -121 32 -178.5t179 -57.5h220l159 897h221l-170 -950q-23 -135 -163 -135h-330zM317 1198q24 111 93.5 185.5t160.5 74.5q46 0 89.5 -18.5t71 -40t58.5 -40t54 -18.5q78 0 100 109h170
q-24 -110 -93.5 -185t-160.5 -75q-46 0 -89 18.5t-70.5 40t-57.5 40t-53 18.5q-81 0 -103 -109h-170z" />
    <glyph glyph-name="Umacron" unicode="&#x16a;" horiz-adv-x="1404" 
d="M627 -20q-92 0 -168.5 19.5t-129.5 53t-93 79.5t-62.5 97.5t-33.5 108t-10.5 110t9.5 105.5l160 901h227l-159 -903q-15 -99 -1.5 -168.5t54.5 -114t96.5 -64.5t126.5 -20q147 0 256 88.5t141 270.5l160 911h227l-163 -934q-13 -72 -40 -142.5t-79 -143.5t-121 -128.5
t-172 -90.5t-225 -35zM571 1595l27 160h637l-29 -160h-635z" />
    <glyph glyph-name="umacron" unicode="&#x16b;" horiz-adv-x="1165" 
d="M465 0q-192 0 -298.5 112.5t-72.5 305.5l119 667h221l-117 -661q-21 -121 32 -178.5t179 -57.5h220l159 897h221l-170 -950q-23 -135 -163 -135h-330zM381 1247l27 160h636l-28 -160h-635z" />
    <glyph glyph-name="Ubreve" unicode="&#x16c;" horiz-adv-x="1404" 
d="M627 -20q-92 0 -168.5 19.5t-129.5 53t-93 79.5t-62.5 97.5t-33.5 108t-10.5 110t9.5 105.5l160 901h227l-159 -903q-15 -99 -1.5 -168.5t54.5 -114t96.5 -64.5t126.5 -20q147 0 256 88.5t141 270.5l160 911h227l-163 -934q-13 -72 -40 -142.5t-79 -143.5t-121 -128.5
t-172 -90.5t-225 -35zM768 1804q3 -121 131 -121q142 0 178 121h176q-23 -128 -121.5 -194t-246.5 -66q-145 0 -223 74.5t-66 185.5h172z" />
    <glyph glyph-name="ubreve" unicode="&#x16d;" horiz-adv-x="1165" 
d="M465 0q-192 0 -298.5 112.5t-72.5 305.5l119 667h221l-117 -661q-21 -121 32 -178.5t179 -57.5h220l159 897h221l-170 -950q-23 -135 -163 -135h-330zM580 1454q3 -121 129 -121q147 0 178 121h178q-23 -129 -122 -195.5t-249 -66.5q-143 0 -220.5 75.5t-65.5 186.5h172z
" />
    <glyph glyph-name="Uring" unicode="&#x16e;" horiz-adv-x="1404" 
d="M627 -20q-92 0 -168.5 19.5t-129.5 53t-93 79.5t-62.5 97.5t-33.5 108t-10.5 110t9.5 105.5l160 901h227l-159 -903q-15 -99 -1.5 -168.5t54.5 -114t96.5 -64.5t126.5 -20q147 0 256 88.5t141 270.5l160 911h227l-163 -934q-13 -72 -40 -142.5t-79 -143.5t-121 -128.5
t-172 -90.5t-225 -35zM705 1755q0 85 58 142t148 57q89 0 148 -57t59 -142q0 -89 -59 -145t-148 -56q-90 0 -148 55.5t-58 145.5zM817 1755q0 -44 27 -70t67 -26t67.5 26t27.5 70q0 37 -27.5 62.5t-67.5 25.5t-67 -24.5t-27 -63.5z" />
    <glyph glyph-name="uring" unicode="&#x16f;" horiz-adv-x="1165" 
d="M465 0q-192 0 -298.5 112.5t-72.5 305.5l119 667h221l-117 -661q-21 -121 32 -178.5t179 -57.5h220l159 897h221l-170 -950q-23 -135 -163 -135h-330zM516 1374q0 85 59 142t148 57q90 0 148.5 -57t58.5 -142q0 -89 -58.5 -144.5t-148.5 -55.5q-89 0 -148 56t-59 144z
M629 1374q0 -43 27.5 -69.5t66.5 -26.5t66.5 26.5t27.5 69.5q0 37 -27.5 63.5t-66.5 26.5q-40 0 -67 -25.5t-27 -64.5z" />
    <glyph glyph-name="Uhungarumlaut" unicode="&#x170;" horiz-adv-x="1404" 
d="M627 -20q-92 0 -168.5 19.5t-129.5 53t-93 79.5t-62.5 97.5t-33.5 108t-10.5 110t9.5 105.5l160 901h227l-159 -903q-15 -99 -1.5 -168.5t54.5 -114t96.5 -64.5t126.5 -20q147 0 256 88.5t141 270.5l160 911h227l-163 -934q-13 -72 -40 -142.5t-79 -143.5t-121 -128.5
t-172 -90.5t-225 -35zM586 1550l205 256h272l-289 -256h-188zM1004 1550l206 256h273l-289 -256h-190z" />
    <glyph glyph-name="uhungarumlaut" unicode="&#x171;" horiz-adv-x="1165" 
d="M465 0q-192 0 -298.5 112.5t-72.5 305.5l119 667h221l-117 -661q-21 -121 32 -178.5t179 -57.5h220l159 897h221l-170 -950q-23 -135 -163 -135h-330zM369 1200l209 254h272l-291 -254h-190zM778 1200l207 254h272l-290 -254h-189z" />
    <glyph glyph-name="Uogonek" unicode="&#x172;" horiz-adv-x="1404" 
d="M571 -369q-110 0 -166.5 44.5t-56.5 113.5q0 126 125 207q-74 16 -133.5 50t-97 78t-64.5 97.5t-36 109t-11.5 113t8.5 109.5l160 901h227l-159 -903q-15 -99 -1.5 -168.5t54.5 -114t96.5 -64.5t126.5 -20q147 0 256 88.5t141 270.5l160 911h227l-163 -934
q-12 -68 -37 -135.5t-72.5 -138t-110 -125t-156 -93t-204.5 -46.5q-137 -57 -137 -117q0 -25 19 -36t63 -11h69l-32 -187h-95z" />
    <glyph glyph-name="uogonek" unicode="&#x173;" horiz-adv-x="1165" 
d="M508 -369q-110 0 -166.5 44.5t-56.5 113.5q0 130 137 213q-83 6 -150 36.5t-113 82t-63.5 128t-1.5 169.5l119 667h221l-117 -661q-21 -121 32 -178.5t179 -57.5h220l159 897h221l-170 -950q-23 -135 -163 -135h-123q-189 -59 -189 -135q0 -47 82 -47h70l-33 -187h-94z
" />
    <glyph glyph-name="Wcircumflex" unicode="&#x174;" horiz-adv-x="2119" 
d="M1200 1249h-35l-123 -319l-368 -930h-340l-113 1454h225l56 -944l12 -305h37l115 305l378 944h342l44 -944l12 -305h35l116 305l392 944h233l-625 -1454h-340l-41 930zM885 1561l245 243h267l153 -243h-196l-90 118h-31l-137 -118h-211z" />
    <glyph glyph-name="wcircumflex" unicode="&#x175;" horiz-adv-x="1769" 
d="M1184 197h28l95 245l264 643h227l-2 -16l-471 -1069h-319l-35 643l-10 246h-33l-90 -246l-265 -643h-319l-94 1069l2 16h223l35 -643l14 -245h29l90 245l264 643h322l35 -643zM657 1200l246 254h266l154 -254h-197l-90 129h-30l-138 -129h-211z" />
    <glyph glyph-name="Ycircumflex" unicode="&#x176;" horiz-adv-x="1273" 
d="M535 592l-316 854l-2 8h242l137 -416l80 -237h8l158 237l288 416h246v-8l-616 -852l-107 -594h-227zM475 1561l246 243h266l154 -243h-197l-90 118h-31l-137 -118h-211z" />
    <glyph glyph-name="ycircumflex" unicode="&#x177;" horiz-adv-x="1187" 
d="M43 -369l37 197h297l82 176h-125l-176 1065l2 16h227l90 -643l31 -245h43l119 245l317 643h230l-3 -16l-675 -1319q-35 -69 -83 -94t-112 -25h-301zM367 1200l245 254h267l153 -254h-196l-91 129h-30l-137 -129h-211z" />
    <glyph glyph-name="Ydieresis" unicode="&#x178;" horiz-adv-x="1273" 
d="M535 592l-316 854l-2 8h242l137 -416l80 -237h8l158 237l288 416h246v-8l-616 -852l-107 -594h-227zM518 1577l37 211h209l-39 -211h-207zM920 1577l38 211h207l-39 -211h-206z" />
    <glyph glyph-name="Zacute" unicode="&#x179;" horiz-adv-x="1204" 
d="M-16 0l32 199l945 1054v2h-736l33 199h1010l-31 -197l-956 -1056v-2h786l-35 -199h-1048zM666 1561l264 243h284l-348 -243h-200z" />
    <glyph glyph-name="zacute" unicode="&#x17a;" horiz-adv-x="1054" 
d="M-16 0l28 162l721 733h-567l33 190h860l-29 -161l-723 -734h602l-35 -190h-890zM475 1200l256 254h295l-346 -254h-205z" />
    <glyph glyph-name="Zdotaccent" unicode="&#x17b;" horiz-adv-x="1204" 
d="M-16 0l32 199l945 1054v2h-736l33 199h1010l-31 -197l-956 -1056v-2h786l-35 -199h-1048zM668 1569l39 229h237l-41 -229h-235z" />
    <glyph glyph-name="zdotaccent" unicode="&#x17c;" horiz-adv-x="1054" 
d="M-16 0l28 162l721 733h-567l33 190h860l-29 -161l-723 -734h602l-35 -190h-890zM526 1229l39 225h221l-38 -225h-222z" />
    <glyph glyph-name="Zcaron" unicode="&#x17d;" horiz-adv-x="1204" 
d="M-16 0l32 199l945 1054v2h-736l33 199h1010l-31 -197l-956 -1056v-2h786l-35 -199h-1048zM496 1804h198l90 -118h33l135 118h211l-245 -243h-267z" />
    <glyph glyph-name="zcaron" unicode="&#x17e;" horiz-adv-x="1054" 
d="M-16 0l28 162l721 733h-567l33 190h860l-29 -161l-723 -734h602l-35 -190h-890zM348 1454h197l90 -129h33l135 129h211l-244 -254h-266z" />
    <glyph glyph-name="uni018F" unicode="&#x18f;" horiz-adv-x="1607" 
d="M754 -20q-150 0 -277 53.5t-216.5 151.5t-130 249t-17.5 334h1214q6 138 -40 252t-149.5 186t-248.5 72q-91 0 -170.5 -26.5t-138 -72t-100 -96t-72.5 -110.5h-240q40 104 109.5 194t161.5 159.5t211 109t249 39.5q140 0 258 -42.5t198.5 -118t133.5 -179.5t64.5 -225.5
t-9.5 -256.5q-34 -192 -142 -344.5t-277 -240.5t-371 -88zM338 584q22 -183 138.5 -294.5t299.5 -111.5q186 0 324 113t194 293h-956z" />
    <glyph glyph-name="uni0191" unicode="&#x191;" horiz-adv-x="886" 
d="M-401 -369l30 187h291l344 975h-141l35 190h172l121 342q23 66 65 97.5t109 31.5h356l-31 -186h-295l-100 -285h262l-37 -190h-291l-362 -1033q-24 -66 -65.5 -97.5t-110.5 -31.5h-352z" />
    <glyph glyph-name="florin" unicode="&#x192;" horiz-adv-x="886" 
d="M-401 -369l30 187h291l344 975h-141l35 190h172l121 342q23 66 65 97.5t109 31.5h356l-31 -186h-295l-100 -285h262l-37 -190h-291l-362 -1033q-24 -66 -65.5 -97.5t-110.5 -31.5h-352z" />
    <glyph glyph-name="Aringacute" unicode="&#x1fa;" horiz-adv-x="1470" 
d="M-37 0l768 1454h340l258 -1454h-225l-74 461h-594l-239 -461h-234zM537 653h460l-53 332l-45 268h-57l-133 -268zM698 1700q0 85 59 141.5t148 56.5q90 0 148.5 -56.5t58.5 -141.5q0 -89 -58.5 -145t-148.5 -56q-89 0 -148 56.5t-59 144.5zM811 1700q0 -43 27.5 -69.5
t66.5 -26.5t66.5 26.5t27.5 69.5q0 37 -27.5 63.5t-66.5 26.5q-40 0 -67 -25.5t-27 -64.5zM840 1942l256 253h295l-347 -253h-204z" />
    <glyph glyph-name="aringacute" unicode="&#x1fb;" horiz-adv-x="1150" 
d="M383 0q-181 0 -273 96.5t-63 261.5q43 249 436 277l357 29l12 67q19 98 -36.5 149.5t-174.5 51.5q-106 0 -164.5 -42.5t-81.5 -135.5h-231q20 117 90.5 198t170 117.5t222.5 36.5q212 0 331.5 -107.5t86.5 -287.5l-104 -576q-12 -65 -54 -100t-110 -35h-414zM272 336
q-13 -78 30 -117t138 -39h312l59 322l-281 -27q-44 -3 -74.5 -7.5t-65.5 -14t-57 -23.5t-39 -38t-22 -56zM453 1352q0 85 58.5 141.5t147.5 56.5q90 0 148.5 -56.5t58.5 -141.5q0 -89 -58.5 -145t-148.5 -56q-89 0 -147.5 56.5t-58.5 144.5zM565 1352q0 -43 27.5 -70
t66.5 -27t67 27t28 70q0 37 -27.5 63.5t-67.5 26.5t-67 -25.5t-27 -64.5zM592 1593l256 254h295l-346 -254h-205z" />
    <glyph glyph-name="AEacute" unicode="&#x1fc;" horiz-adv-x="1978" 
d="M-33 0l770 1454h1317l-35 -197h-665l-76 -432h592l-35 -194h-592l-76 -434h674l-35 -197h-901l82 461h-553l-237 -461h-230zM532 653h488l106 604h-282l-139 -272zM1251 1561l265 243h284l-348 -243h-201z" />
    <glyph glyph-name="aeacute" unicode="&#x1fd;" horiz-adv-x="1982" 
d="M383 0q-181 0 -273 96.5t-63 261.5q43 249 436 277l357 29l12 67q19 98 -36.5 149.5t-174.5 51.5q-106 0 -164.5 -42.5t-81.5 -135.5h-231q20 117 90.5 198t170 117.5t222.5 36.5q124 0 219.5 -38.5t149.5 -109.5q161 148 385 148q115 0 216 -41.5t174 -121t100.5 -196.5
t-3.5 -268h-852q2 -63 18.5 -118.5t49.5 -102.5t89.5 -74.5t129.5 -27.5q96 0 172.5 48.5t118.5 133.5h237q-73 -174 -211 -266t-319 -92q-225 0 -365 137q-28 -117 -159 -117h-414zM272 336q-13 -78 30 -117t138 -39h312l59 322l-281 -27q-44 -3 -74.5 -7.5t-65.5 -14
t-57 -23.5t-39 -38t-22 -56zM944 1200l256 254h295l-346 -254h-205zM1061 649h625q-9 125 -87 204t-202 79q-123 0 -210.5 -78t-125.5 -205z" />
    <glyph glyph-name="Oslashacute" unicode="&#x1fe;" horiz-adv-x="1613" 
d="M764 -20q-217 0 -375 102l-145 -164h-232l248 281q-95 114 -130 269t-3 333q25 143 94.5 267t171.5 214t238.5 141.5t288.5 51.5q215 0 374 -105l148 166h231l-250 -283q93 -115 127.5 -270.5t3.5 -329.5q-25 -144 -94.5 -267.5t-171.5 -213.5t-237.5 -141t-286.5 -51z
M354 782q-21 -109 -4.5 -216t68.5 -191l731 829q-104 74 -252 74q-106 0 -200 -39t-163 -107t-115.5 -158t-64.5 -192zM537 250q106 -72 247 -72q211 0 358 141.5t185 356.5q19 107 3.5 212.5t-62.5 188.5zM813 1561l264 243h285l-348 -243h-201z" />
    <glyph glyph-name="oslashacute" unicode="&#x1ff;" horiz-adv-x="1261" 
d="M592 -20q-164 0 -285 73l-119 -135h-213l211 242q-65 83 -89 196.5t-1 243.5q26 145 103 258.5t201.5 180.5t277.5 67q158 0 278 -74l121 135h213l-213 -243q65 -84 89 -197t1 -242q-40 -224 -196.5 -364.5t-378.5 -140.5zM315 573q-24 -136 21 -245l491 555
q-65 43 -157 43q-143 0 -235.5 -101t-119.5 -252zM436 205q67 -45 160 -45q139 0 231.5 99t118.5 251q23 140 -18 246zM614 1200l256 254h295l-346 -254h-205z" />
    <glyph glyph-name="uni0218" unicode="&#x218;" horiz-adv-x="1271" 
d="M596 -20q-237 0 -387 132t-150 359h226q0 -140 90.5 -217.5t240.5 -77.5q81 0 148 18.5t115 61t59 104.5q12 67 -8.5 117.5t-65 83t-105.5 57.5t-129 46.5t-136 45t-127.5 58t-101.5 79.5t-59 116.5t-1 162.5q30 166 172.5 257.5t355.5 91.5q223 0 367.5 -126t144.5 -343
h-221q-9 136 -87.5 207t-215.5 71q-119 0 -202 -45t-97 -129q-10 -58 12 -103t67.5 -75t106.5 -55t129.5 -48t136.5 -49.5t127 -64.5t101 -86.5t58.5 -123t0.5 -167.5t-69.5 -163.5t-132 -112t-170 -62t-193.5 -20.5zM360 -430l115 336h223l-176 -336h-162z" />
    <glyph glyph-name="uni0219" unicode="&#x219;" horiz-adv-x="1062" 
d="M471 -20q-194 0 -310 93t-120 265h215q3 -98 67.5 -142t157.5 -44q53 0 101.5 11.5t89.5 43t49 78.5q7 43 -10 74t-52 48.5t-82 33t-99.5 27t-104.5 30.5t-96.5 43t-76.5 65t-44.5 96.5t0.5 137.5q21 121 138.5 193.5t283.5 72.5q192 0 305.5 -98t113.5 -254h-215
q-4 88 -61.5 134t-159.5 46q-78 0 -131 -28.5t-63 -86.5q-8 -44 9.5 -76t52.5 -50t82.5 -33t100.5 -26t105.5 -29t97.5 -41.5t77.5 -64.5t44.5 -96.5t-1 -138.5q-23 -129 -153.5 -206.5t-311.5 -77.5zM233 -430l115 336h223l-176 -336h-162z" />
    <glyph glyph-name="uni021A" unicode="&#x21a;" horiz-adv-x="1228" 
d="M406 0l221 1255h-437l35 199h1098l-33 -199h-436l-223 -1255h-225zM283 -430l114 336h224l-177 -336h-161z" />
    <glyph glyph-name="uni021B" unicode="&#x21b;" horiz-adv-x="780" 
d="M788 1085l-30 -190h-242l-125 -709h240l-33 -186h-317q-58 0 -93.5 41.5t-23.5 103.5l131 750h-162l33 190h162l49 277h221l-49 -277h239zM129 -430l115 336h223l-176 -336h-162z" />
    <glyph glyph-name="uni0237" unicode="&#x237;" horiz-adv-x="493" 
d="M-270 -369l32 187h246l223 1267h222l-230 -1310q-12 -65 -58 -104.5t-116 -39.5h-319z" />
    <glyph glyph-name="uni0259" unicode="&#x259;" horiz-adv-x="1253" 
d="M662 1106q168 0 291.5 -78.5t179 -221t24.5 -321.5q-39 -221 -195.5 -363t-379.5 -142q-115 0 -216.5 41t-174.5 120.5t-100.5 196.5t3.5 268h852q-1 50 -11.5 95.5t-33 87.5t-55 73t-80.5 49.5t-107 18.5q-96 0 -172 -48.5t-118 -133.5h-238q73 173 211.5 265.5
t319.5 92.5zM297 436q9 -125 87 -203.5t202 -78.5q123 0 210.5 77.5t125.5 204.5h-625z" />
    <glyph glyph-name="uni02BC" unicode="&#x2bc;" horiz-adv-x="555" 
d="M203 971l149 483h236l-205 -483h-180z" />
    <glyph glyph-name="circumflex" unicode="&#x2c6;" horiz-adv-x="870" 
d="M688 1200l-90 129h-31l-137 -129h-211l246 254h266l154 -254h-197z" />
    <glyph glyph-name="caron" unicode="&#x2c7;" horiz-adv-x="870" 
d="M717 1454h211l-244 -254h-266l-156 254h197l90 -129h33z" />
    <glyph glyph-name="breve" unicode="&#x2d8;" horiz-adv-x="862" 
d="M549 1192q-144 0 -221.5 75.5t-65.5 186.5h172q3 -121 129 -121q147 0 178 121h179q-23 -129 -122 -195.5t-249 -66.5z" />
    <glyph glyph-name="dotaccent" unicode="&#x2d9;" horiz-adv-x="436" 
d="M221 1212l39 228h232l-39 -228h-232z" />
    <glyph glyph-name="ring" unicode="&#x2da;" horiz-adv-x="624" 
d="M459 1174q-89 0 -148 56t-59 144q0 85 59 142t148 57q90 0 148.5 -57t58.5 -142q0 -89 -58.5 -144.5t-148.5 -55.5zM365 1374q0 -43 27.5 -69.5t66.5 -26.5t66.5 26.5t27.5 69.5q0 37 -27.5 63.5t-66.5 26.5q-40 0 -67 -25.5t-27 -64.5z" />
    <glyph glyph-name="ogonek" unicode="&#x2db;" horiz-adv-x="606" 
d="M160 -414q-93 0 -144 42.5t-51 113.5q0 67 40.5 131.5t139.5 146.5l140 -20q-129 -93 -129 -170q0 -63 104 -63h107l-31 -181h-176z" />
    <glyph glyph-name="tilde" unicode="&#x2dc;" horiz-adv-x="958" 
d="M219 1200q24 111 93.5 185.5t160.5 74.5q46 0 89.5 -18.5t70.5 -40t58 -40t54 -18.5q79 0 101 109h170q-24 -110 -93.5 -185t-160.5 -75q-46 0 -89 18.5t-70.5 40t-57.5 40t-53 18.5q-81 0 -103 -109h-170z" />
    <glyph glyph-name="hungarumlaut" unicode="&#x2dd;" horiz-adv-x="1062" 
d="M639 1200l209 254h272l-293 -254h-188zM219 1200l209 254h272l-290 -254h-191z" />
    <glyph glyph-name="gravecomb" unicode="&#x300;" 
d="M516 1200l-254 254h277l174 -254h-197z" />
    <glyph glyph-name="acutecomb" unicode="&#x301;" 
d="M219 1200l256 254h295l-346 -254h-205z" />
    <glyph glyph-name="uni0302" unicode="&#x302;" 
d="M688 1200l-90 129h-31l-137 -129h-211l246 254h266l154 -254h-197z" />
    <glyph glyph-name="tildecomb" unicode="&#x303;" 
d="M219 1200q24 111 93.5 185.5t160.5 74.5q46 0 89.5 -18.5t70.5 -40t58 -40t54 -18.5q79 0 101 109h170q-24 -110 -93.5 -185t-160.5 -75q-46 0 -89 18.5t-70.5 40t-57.5 40t-53 18.5q-81 0 -103 -109h-170z" />
    <glyph glyph-name="uni0304" unicode="&#x304;" 
d="M254 1407h637l-29 -160h-635z" />
    <glyph glyph-name="uni0306" unicode="&#x306;" 
d="M549 1192q-144 0 -221.5 75.5t-65.5 186.5h172q3 -121 129 -121q147 0 178 121h179q-23 -129 -122 -195.5t-249 -66.5z" />
    <glyph glyph-name="uni0307" unicode="&#x307;" 
d="M223 1229l39 225h221l-39 -225h-221z" />
    <glyph glyph-name="uni0308" unicode="&#x308;" 
d="M625 1223l37 209h206l-37 -209h-206zM223 1223l37 209h207l-37 -209h-207z" />
    <glyph glyph-name="uni030A" unicode="&#x30a;" 
d="M459 1174q-89 0 -148 56t-59 144q0 85 59 142t148 57q90 0 148.5 -57t58.5 -142q0 -89 -58.5 -144.5t-148.5 -55.5zM365 1374q0 -43 27.5 -69.5t66.5 -26.5t66.5 26.5t27.5 69.5q0 37 -27.5 63.5t-66.5 26.5q-40 0 -67 -25.5t-27 -64.5z" />
    <glyph glyph-name="uni030B" unicode="&#x30b;" 
d="M629 1200l207 254h272l-291 -254h-188zM219 1200l209 254h272l-290 -254h-191z" />
    <glyph glyph-name="uni030C" unicode="&#x30c;" 
d="M717 1454h211l-244 -254h-266l-156 254h197l90 -129h33z" />
    <glyph glyph-name="uni0312" unicode="&#x312;" 
d="M219 1200l293 254h195l-207 -254h-281z" />
    <glyph glyph-name="uni0326" unicode="&#x326;" 
d="M-70 -430l115 336h223l-176 -336h-162z" />
    <glyph glyph-name="uni0327" unicode="&#x327;" 
d="M-76 -471l19 104h166q104 0 104 74q0 62 -88 62h-133l-12 14l90 221l163 -4l-71 -111l-6 -16h24q85 0 138 -46t53 -118q0 -89 -67.5 -134.5t-158.5 -45.5h-221z" />
    <glyph glyph-name="uni0328" unicode="&#x328;" 
d="M197 -369q-110 0 -167 44.5t-57 113.5q0 175 236 258l151 -47q-188 -59 -188 -135q0 -47 82 -47h70l-33 -187h-94z" />
    <glyph glyph-name="uni0337" unicode="&#x337;" 
d="M96 502l39 215l641 327l-39 -215z" />
    <glyph glyph-name="uni0338" unicode="&#x338;" 
d="M-8 -82l254 289l639 723l59 69l150 168h213l-250 -284l-639 -719l-62 -72l-151 -174h-213z" />
    <glyph glyph-name="uni03A9" unicode="&#x3a9;" horiz-adv-x="1660" 
d="M37 0l37 209h305q-315 224 -244 625q17 99 59.5 191t112 174.5t159 143.5t209 96.5t253.5 35.5q115 0 216 -30t176.5 -83.5t133.5 -128t87.5 -163.5t39 -189.5t-11.5 -206.5q-51 -289 -305 -465h260l-37 -209h-617l31 184q146 22 274.5 156.5t163.5 333.5
q13 92 8.5 178.5t-38.5 164t-85.5 135.5t-133 92t-181.5 34q-211 0 -357.5 -141t-184.5 -353q-23 -130 3 -254.5t107.5 -220.5t206.5 -123l-31 -186h-616z" />
    <glyph glyph-name="pi" unicode="&#x3c0;" horiz-adv-x="1368" 
d="M868 0q-61 0 -94 43t-24 102l131 750h-367l-156 -895h-221l156 895h-162l35 190h1210l-33 -190h-239l-125 -709h240l-33 -186h-318z" />
    <glyph glyph-name="Wgrave" unicode="&#x1e80;" horiz-adv-x="2119" 
d="M1200 1249h-35l-123 -319l-368 -930h-340l-113 1454h225l56 -944l12 -305h37l115 305l378 944h342l44 -944l12 -305h35l116 305l392 944h233l-625 -1454h-340l-41 930zM897 1804h264l182 -243h-186z" />
    <glyph glyph-name="wgrave" unicode="&#x1e81;" horiz-adv-x="1769" 
d="M1184 197h28l95 245l264 643h227l-2 -16l-471 -1069h-319l-35 643l-10 246h-33l-90 -246l-265 -643h-319l-94 1069l2 16h223l35 -643l14 -245h29l90 245l264 643h322l35 -643zM707 1454h276l174 -254h-196z" />
    <glyph glyph-name="Wacute" unicode="&#x1e82;" horiz-adv-x="2119" 
d="M1200 1249h-35l-123 -319l-368 -930h-340l-113 1454h225l56 -944l12 -305h37l115 305l378 944h342l44 -944l12 -305h35l116 305l392 944h233l-625 -1454h-340l-41 930zM1112 1561l264 243h285l-348 -243h-201z" />
    <glyph glyph-name="wacute" unicode="&#x1e83;" horiz-adv-x="1769" 
d="M1184 197h28l95 245l264 643h227l-2 -16l-471 -1069h-319l-35 643l-10 246h-33l-90 -246l-265 -643h-319l-94 1069l2 16h223l35 -643l14 -245h29l90 245l264 643h322l35 -643zM842 1200l256 254h295l-346 -254h-205z" />
    <glyph glyph-name="Wdieresis" unicode="&#x1e84;" horiz-adv-x="2119" 
d="M1200 1249h-35l-123 -319l-368 -930h-340l-113 1454h225l56 -944l12 -305h37l115 305l378 944h342l44 -944l12 -305h35l116 305l392 944h233l-625 -1454h-340l-41 930zM928 1577l37 211h209l-39 -211h-207zM1329 1577l39 211h207l-39 -211h-207z" />
    <glyph glyph-name="wdieresis" unicode="&#x1e85;" horiz-adv-x="1769" 
d="M1184 197h28l95 245l264 643h227l-2 -16l-471 -1069h-319l-35 643l-10 246h-33l-90 -246l-265 -643h-319l-94 1069l2 16h223l35 -643l14 -245h29l90 245l264 643h322l35 -643zM700 1223l37 209h207l-37 -209h-207zM1102 1223l37 209h207l-37 -209h-207z" />
    <glyph glyph-name="uni1E9E" unicode="&#x1e9e;" horiz-adv-x="1284" 
d="M276 1325q11 58 52 93.5t104 35.5h856l-31 -201l-409 -442q170 -33 264.5 -153.5t65.5 -282.5q-13 -73 -54 -140t-105 -119.5t-155.5 -84t-197.5 -31.5h-205l35 195h161q118 0 197.5 59.5t93.5 146.5q19 104 -46.5 171t-192.5 67h-134l31 184l389 428l2 11h-508
l-221 -1262h-225z" />
    <glyph glyph-name="uni1EBC" unicode="&#x1ebc;" horiz-adv-x="1116" 
d="M276 1325q10 60 52 94.5t104 34.5h758l-33 -197h-665l-76 -432h592l-35 -194h-592l-76 -434h674l-35 -197h-901zM391 1561q24 112 93.5 186t160.5 74q46 0 89.5 -18t71 -39.5t58.5 -39.5t54 -18q78 0 100 109h170q-24 -112 -93.5 -187.5t-160.5 -75.5q-46 0 -89 18.5
t-70.5 40t-57.5 40t-53 18.5q-43 0 -67.5 -27t-35.5 -81h-170z" />
    <glyph glyph-name="uni1EBD" unicode="&#x1ebd;" horiz-adv-x="1253" 
d="M592 -20q-125 0 -228.5 46t-170 126.5t-93.5 197t-4 250.5q39 221 196 363.5t380 142.5q115 0 216 -41.5t174 -121t100.5 -196.5t-3.5 -268h-852q2 -63 18.5 -118.5t49.5 -102.5t89.5 -74.5t129.5 -27.5q96 0 172.5 48.5t118.5 133.5h237q-73 -174 -211 -266t-319 -92z
M332 649h624q-9 126 -86.5 204.5t-201.5 78.5q-123 0 -210.5 -78t-125.5 -205zM342 1198q24 111 93.5 185.5t160.5 74.5q46 0 89.5 -18.5t70.5 -40t58 -40t54 -18.5q79 0 101 109h170q-24 -110 -93.5 -185t-160.5 -75q-46 0 -89.5 18.5t-70.5 40t-57.5 40t-53.5 18.5
q-43 0 -67 -27t-35 -82h-170z" />
    <glyph glyph-name="Ygrave" unicode="&#x1ef2;" horiz-adv-x="1273" 
d="M535 592l-316 854l-2 8h242l137 -416l80 -237h8l158 237l288 416h246v-8l-616 -852l-107 -594h-227zM487 1804h265l182 -243h-186z" />
    <glyph glyph-name="ygrave" unicode="&#x1ef3;" horiz-adv-x="1187" 
d="M43 -369l37 197h297l82 176h-125l-176 1065l2 16h227l90 -643l31 -245h43l119 245l317 643h230l-3 -16l-675 -1319q-35 -69 -83 -94t-112 -25h-301zM416 1454h276l174 -254h-196z" />
    <glyph glyph-name="uni1EF8" unicode="&#x1ef8;" horiz-adv-x="1273" 
d="M535 592l-316 854l-2 8h242l137 -416l80 -237h8l158 237l288 416h246v-8l-616 -852l-107 -594h-227zM438 1561q24 112 93.5 186t160.5 74q46 0 89.5 -18t71 -39.5t58.5 -39.5t54 -18q78 0 100 109h170q-24 -112 -93.5 -187.5t-160.5 -75.5q-46 0 -89 18.5t-70.5 40
t-57.5 40t-53 18.5q-43 0 -67.5 -27t-35.5 -81h-170z" />
    <glyph glyph-name="uni1EF9" unicode="&#x1ef9;" horiz-adv-x="1187" 
d="M43 -369l37 197h297l82 176h-125l-176 1065l2 16h227l90 -643l31 -245h43l119 245l317 643h230l-3 -16l-675 -1319q-35 -69 -83 -94t-112 -25h-301zM336 1198q24 111 93.5 185.5t160.5 74.5q46 0 89.5 -18.5t70.5 -40t58 -40t54 -18.5q79 0 101 109h170
q-24 -110 -93.5 -185t-160.5 -75q-46 0 -89.5 18.5t-70.5 40t-57.5 40t-53.5 18.5q-43 0 -67 -27t-35 -82h-170z" />
    <glyph glyph-name="uni2002" unicode="&#x2002;" horiz-adv-x="1024" 
 />
    <glyph glyph-name="uni2003" unicode="&#x2003;" horiz-adv-x="2048" 
 />
    <glyph glyph-name="uni2004" unicode="&#x2004;" horiz-adv-x="681" 
 />
    <glyph glyph-name="uni2005" unicode="&#x2005;" horiz-adv-x="512" 
 />
    <glyph glyph-name="uni2009" unicode="&#x2009;" horiz-adv-x="256" 
 />
    <glyph glyph-name="uni200A" unicode="&#x200a;" horiz-adv-x="86" 
 />
    <glyph glyph-name="uni200B" unicode="&#x200b;" 
 />
    <glyph glyph-name="endash" unicode="&#x2013;" horiz-adv-x="1263" 
d="M94 473l33 184h1053l-35 -184h-1051z" />
    <glyph glyph-name="emdash" unicode="&#x2014;" horiz-adv-x="1937" 
d="M123 473l35 184h1665l-33 -184h-1667z" />
    <glyph glyph-name="quoteleft" unicode="&#x2018;" horiz-adv-x="548" 
d="M203 971l200 483h179l-146 -483h-233z" />
    <glyph glyph-name="quoteright" unicode="&#x2019;" horiz-adv-x="555" 
d="M203 971l149 483h236l-205 -483h-180z" />
    <glyph glyph-name="quotesinglbase" unicode="&#x201a;" horiz-adv-x="555" 
d="M-10 -238l149 484h236l-205 -484h-180z" />
    <glyph glyph-name="quotedblleft" unicode="&#x201c;" horiz-adv-x="929" 
d="M203 971l200 483h179l-146 -483h-233zM586 971l200 483h179l-146 -483h-233z" />
    <glyph glyph-name="quotedblright" unicode="&#x201d;" horiz-adv-x="937" 
d="M203 971l149 483h236l-205 -483h-180zM586 971l149 483h236l-205 -483h-180z" />
    <glyph glyph-name="quotedblbase" unicode="&#x201e;" horiz-adv-x="937" 
d="M-10 -238l149 484h236l-205 -484h-180zM373 -238l149 484h236l-205 -484h-180z" />
    <glyph glyph-name="dagger" unicode="&#x2020;" horiz-adv-x="1226" 
d="M371 -205l190 1084h-368l36 206h369l66 369h221l-66 -369h367l-35 -206h-369l-190 -1084h-221z" />
    <glyph glyph-name="daggerdbl" unicode="&#x2021;" horiz-adv-x="1253" 
d="M385 -205l102 578h-368l37 209h368l51 297h-368l37 206h368l66 369h221l-65 -369h366l-35 -206h-368l-52 -297h369l-39 -209h-366l-103 -578h-221z" />
    <glyph glyph-name="bullet" unicode="&#x2022;" horiz-adv-x="970" 
d="M496 305q-122 0 -207.5 85t-85.5 206t85.5 206t207.5 85q121 0 205.5 -84.5t84.5 -206.5t-84.5 -206.5t-205.5 -84.5z" />
    <glyph glyph-name="ellipsis" unicode="&#x2026;" horiz-adv-x="1316" 
d="M39 0l41 231h221l-41 -231h-221zM453 0l41 231h221l-41 -231h-221zM864 0l41 231h221l-41 -231h-221z" />
    <glyph glyph-name="uni202F" unicode="&#x202f;" horiz-adv-x="256" 
 />
    <glyph glyph-name="perthousand" unicode="&#x2030;" horiz-adv-x="2789" 
d="M428 639q-142 0 -221.5 89t-79.5 224q0 107 26 199t75 163t127.5 111.5t176.5 40.5q139 0 220.5 -86t81.5 -225q0 -151 -46 -266.5t-139 -182.5t-221 -67zM305 958q0 -78 34.5 -128t102.5 -50q71 0 121 57t71 138.5t21 175.5q0 77 -34.5 125.5t-104.5 48.5q-54 0 -96 -33
t-66 -87.5t-36.5 -117t-12.5 -129.5zM492 0l884 1454h170l-884 -1454h-170zM1192 301q0 107 26 199t75 163t127.5 111.5t176.5 40.5q139 0 220 -86t81 -225q0 -151 -46 -266.5t-138.5 -182.5t-220.5 -67q-142 0 -221.5 89t-79.5 224zM1370 307q0 -78 34.5 -128t102.5 -50
q71 0 121 57t71 138.5t21 175.5q0 77 -34.5 125.5t-104.5 48.5q-54 0 -96 -33t-66 -87.5t-36.5 -117t-12.5 -129.5zM2019 301q0 107 26 199t75.5 163t128 111.5t176.5 40.5q139 0 220 -86t81 -225q0 -151 -46 -266.5t-139 -182.5t-221 -67q-142 0 -221.5 89t-79.5 224z
M2198 307q0 -78 34.5 -128t102.5 -50q71 0 121 57t71 138.5t21 175.5q0 77 -35 125.5t-105 48.5q-71 0 -120.5 -58t-69.5 -138t-20 -171z" />
    <glyph glyph-name="guilsinglleft" unicode="&#x2039;" horiz-adv-x="690" 
d="M272 143l-168 402l308 399h239l-313 -399l166 -402h-232z" />
    <glyph glyph-name="guilsinglright" unicode="&#x203a;" horiz-adv-x="690" 
d="M418 944l168 -401l-307 -400h-240l313 400l-166 401h232z" />
    <glyph glyph-name="fraction" unicode="&#x2044;" horiz-adv-x="421" 
d="M-268 0l884 1454h170l-884 -1454h-170z" />
    <glyph glyph-name="uni2070" unicode="&#x2070;" horiz-adv-x="782" 
d="M465 842q-142 0 -221.5 89t-79.5 224q0 107 26 199t75 163t127.5 111.5t176.5 40.5q139 0 220 -86t81 -225q0 -151 -46 -266.5t-138.5 -182.5t-220.5 -67zM342 1161q0 -78 34.5 -128t102.5 -50q71 0 121 57t71 138.5t21 175.5q0 77 -34.5 125.5t-104.5 48.5
q-54 0 -96 -33t-66 -87.5t-36.5 -117t-12.5 -129.5z" />
    <glyph glyph-name="uni2074" unicode="&#x2074;" horiz-adv-x="716" 
d="M520 854l31 174h-442l20 127l446 502h166q38 0 60 -25.5t16 -62.5l-127 -715h-170zM324 1171h254l32 183l31 151h-25l-292 -325v-9z" />
    <glyph glyph-name="uni2075" unicode="&#x2075;" horiz-adv-x="724" 
d="M442 842q-145 0 -225 69.5t-78 182.5h166q4 -58 44.5 -91.5t103.5 -33.5q64 0 106.5 35.5t50.5 87.5q11 67 -20 110t-101 43q-103 0 -153 -76h-115q-19 0 -31 13.5t-8 31.5l90 355q9 37 39 62.5t68 25.5h463l-25 -148h-409l-54 -190q73 47 181 47q131 0 202 -80t51 -201
q-19 -108 -111.5 -175.5t-234.5 -67.5z" />
    <glyph glyph-name="uni2076" unicode="&#x2076;" horiz-adv-x="749" 
d="M481 842q-80 0 -141 21.5t-98 59.5t-58.5 90.5t-22 115.5t10.5 133q32 180 139.5 293.5t268.5 113.5q126 0 198 -63.5t74 -173.5h-174q-15 104 -121 104q-78 0 -129.5 -65t-75.5 -164q71 53 187 53q138 0 215 -82.5t55 -206.5q-19 -108 -115 -168.5t-213 -60.5zM334 1122
q-11 -63 30 -108t117 -45q64 0 103.5 32t48.5 86q9 62 -27 106t-108 44q-66 0 -110 -30t-54 -85z" />
    <glyph glyph-name="uni2077" unicode="&#x2077;" horiz-adv-x="628" 
d="M143 854l441 655h-394l27 148h592l-23 -113l-452 -690h-191z" />
    <glyph glyph-name="uni2078" unicode="&#x2078;" horiz-adv-x="727" 
d="M436 842q-92 0 -164 27t-112 86.5t-25 140.5q12 65 60.5 111t121.5 67l2 8q-114 58 -92 182q17 96 107 150.5t215 54.5q121 0 205.5 -66.5t66.5 -168.5q-20 -115 -149 -158l-2 -6q137 -79 116 -205q-18 -98 -111.5 -160.5t-238.5 -62.5zM315 1100q-9 -56 26.5 -93.5
t109.5 -37.5q62 0 107 30.5t54 81.5q10 62 -34 93.5t-109 31.5q-60 0 -103.5 -29t-50.5 -77zM393 1444q-7 -50 27.5 -82.5t91.5 -32.5q53 0 91.5 26.5t47.5 74.5q9 49 -25 80.5t-94 31.5q-59 0 -95 -26.5t-44 -71.5z" />
    <glyph glyph-name="uni2079" unicode="&#x2079;" horiz-adv-x="751" 
d="M420 842q-124 0 -200.5 64t-76.5 173h179q0 -104 112 -104q80 0 132.5 62.5t78.5 160.5q-75 -59 -186 -59q-136 0 -210 79.5t-54 202.5q19 112 110.5 180t222.5 68q84 0 146 -23.5t96 -64.5t53.5 -95.5t18 -116t-10.5 -126.5q-29 -175 -137.5 -288t-273.5 -113zM371 1413
q-11 -62 24 -107.5t109 -45.5q60 0 107.5 36t56.5 90q12 61 -23.5 108.5t-112.5 47.5q-62 0 -107 -36.5t-54 -92.5z" />
    <glyph glyph-name="Euro" unicode="&#x20ac;" horiz-adv-x="1349" 
d="M717 -20q-89 0 -164.5 27t-129.5 73.5t-95 112t-65.5 137.5t-37.5 155h-153l30 177h111q0 42 8 120h-98l31 174h100q64 236 214 377.5t368 141.5q136 0 248 -66.5t177.5 -177.5t75.5 -244h-233q-17 143 -93 218t-198 75q-119 0 -205.5 -86.5t-130.5 -237.5h498l-33 -174
h-496q-6 -58 -6 -120h486l-35 -177h-438q11 -66 31.5 -119.5t54 -97.5t84.5 -68t116 -24q92 0 168 74t123 213h234q-28 -103 -73 -187t-110.5 -152t-158.5 -106t-205 -38z" />
    <glyph glyph-name="uni2116" unicode="&#x2116;" horiz-adv-x="2439" 
d="M1642 606l23 131h659l-22 -131h-660zM104 0l234 1319q23 135 164 135h248l229 -919l74 -314h59l215 1233h215l-256 -1454h-387l-231 920l-74 313h-57l-56 -305l-162 -928h-215zM1737 1118q0 146 98 247t254 101q135 0 222 -76.5t87 -195.5q0 -152 -100 -252t-254 -100
q-133 0 -220 75t-87 201zM1905 1118q0 -69 39 -110t106 -41q82 0 129 66.5t47 160.5q0 65 -38 105t-105 40q-82 0 -130 -66t-48 -155z" />
    <glyph glyph-name="uni2117" unicode="&#x2117;" horiz-adv-x="1812" 
d="M936 -20q-203 0 -374.5 99.5t-271.5 272t-100 377.5q0 153 58.5 291t158.5 237.5t239 158.5t294 59q153 0 292 -59t238.5 -158.5t158.5 -237.5t59 -291q0 -155 -59 -294t-159.5 -238.5t-240 -158t-293.5 -58.5zM293 729q0 -135 50.5 -256t136.5 -208.5t205.5 -139
t252.5 -51.5q175 0 324 86.5t237 237.5t88 331q0 178 -87.5 327t-236 234.5t-323.5 85.5q-135 0 -255 -50.5t-206 -137t-136 -206t-50 -253.5zM639 264v832q0 40 25 65t65 25h309q131 0 213 -75.5t82 -205.5t-79 -206t-212 -76h-231v-359h-172zM811 764h223q121 0 121 141
q0 64 -36 100.5t-101 36.5h-207v-278z" />
    <glyph glyph-name="trademark" unicode="&#x2122;" horiz-adv-x="1992" 
d="M377 651l112 637h-219l29 166h629l-29 -166h-219l-113 -637h-190zM881 651l127 731q6 34 29.5 53t56.5 19h252l18 -483l2 -148h23l49 148l194 483h318l-142 -803h-174l84 469l29 160h-23l-59 -160l-186 -469h-256l-31 469l-2 160h-25l-26 -160l-86 -469h-172z" />
    <glyph glyph-name="estimated" unicode="&#x212e;" horiz-adv-x="1794" 
d="M936 0q-235 0 -418 89.5t-286 257t-103 388.5q0 163 60 301.5t166 234.5t255.5 150t325.5 54q362 0 577 -197.5t230 -560.5h-1284q-11 0 -16.5 -2t-10 -10.5t-4.5 -26.5v-361q0 -30 37.5 -73t101 -85.5t162.5 -72t207 -29.5q147 0 283 66t227 170h151
q-145 -161 -291 -227t-370 -66zM428 780q0 -18 31 -18h950q21 0 27 7t6 28v354q0 56 -78.5 120.5t-198.5 108t-231 43.5q-102 0 -200.5 -31t-162.5 -73.5t-103.5 -85t-39.5 -68.5v-385z" />
    <glyph glyph-name="uni2153" unicode="&#x2153;" horiz-adv-x="1595" 
d="M238 651l116 658h-200l26 145h283q38 0 60 -25.5t16 -62.5l-127 -715h-174zM207 0l885 1454h170l-885 -1454h-170zM1042 238q3 -117 138 -117q57 0 94.5 30t46.5 76q10 58 -30 88.5t-109 30.5h-64l25 133h59q43 0 79.5 10t63.5 33.5t33 57.5q9 49 -25.5 75.5t-90.5 26.5
q-58 0 -98 -28.5t-52 -78.5h-170q21 117 110.5 178.5t219.5 61.5q85 0 151.5 -28t101 -83t21.5 -126q-10 -61 -56 -103t-101 -53v-6q68 -27 92 -83.5t14 -121.5q-18 -103 -108 -163t-213 -60q-151 0 -227.5 65t-78.5 185h174z" />
    <glyph glyph-name="uni2154" unicode="&#x2154;" horiz-adv-x="1826" 
d="M84 786q287 184 394.5 273t117.5 153q8 51 -25.5 86t-93.5 35q-63 0 -102 -34.5t-47 -94.5h-178q20 131 110.5 196.5t231.5 65.5q133 0 217 -72t63 -190q-18 -95 -119 -188.5t-327 -216.5v-6l143 6h225l-26 -148h-607zM438 0l885 1454h170l-885 -1454h-170zM1274 238
q3 -117 137 -117q57 0 94.5 30t46.5 76q10 58 -30 88.5t-109 30.5h-63l24 133h60q43 0 79.5 10t63.5 33.5t33 57.5q9 48 -26 75t-91 27q-58 0 -98 -28.5t-52 -78.5h-169q21 117 110 178.5t219 61.5q85 0 152 -28t101.5 -83t21.5 -126q-10 -61 -56 -103t-102 -53v-6
q68 -27 92 -83.5t14 -121.5q-18 -103 -108 -163t-213 -60q-151 0 -227 65t-78 185h174z" />
    <glyph glyph-name="oneeighth" unicode="&#x215b;" horiz-adv-x="1624" 
d="M238 651l116 658h-200l26 145h283q38 0 60 -25.5t16 -62.5l-127 -715h-174zM207 0l885 1454h170l-885 -1454h-170zM881 242q12 65 60.5 111t121.5 67l2 8q-114 58 -92 182q17 96 106.5 150.5t214.5 54.5q121 0 206 -66.5t67 -168.5q-20 -115 -150 -158l-2 -6
q138 -79 117 -205q-18 -98 -111.5 -160.5t-238.5 -62.5q-92 0 -164 27t-112 86.5t-25 140.5zM1061 246q-9 -56 26 -93.5t109 -37.5q62 0 107.5 30.5t54.5 81.5q10 62 -34.5 93.5t-109.5 31.5q-60 0 -103 -28.5t-50 -77.5zM1139 590q-7 -50 27 -82.5t91 -32.5q53 0 92 26
t48 74q9 49 -25 81t-94 32q-59 0 -95 -26.5t-44 -71.5z" />
    <glyph glyph-name="threeeighths" unicode="&#x215c;" horiz-adv-x="1845" 
d="M393 639q-151 0 -227 65t-78 185h174q3 -117 137 -117q56 0 94.5 30.5t47.5 76.5q10 58 -30.5 88t-109.5 30h-63l24 133h60q43 0 79.5 10t63.5 33.5t33 57.5q9 48 -26 75t-91 27q-58 0 -97.5 -28t-51.5 -78h-170q21 117 110.5 178t219.5 61q85 0 151.5 -28t101 -83
t21.5 -126q-10 -61 -56 -103t-102 -53v-6q68 -27 92.5 -83.5t14.5 -121.5q-18 -103 -108.5 -163t-213.5 -60zM428 0l885 1454h170l-885 -1454h-170zM1102 242q12 65 60.5 111t121.5 67l2 8q-114 58 -92 182q17 96 107 150.5t215 54.5q121 0 205.5 -66.5t66.5 -168.5
q-20 -115 -150 -158l-2 -6q138 -79 117 -205q-18 -98 -111.5 -160.5t-238.5 -62.5q-92 0 -164 27t-112 86.5t-25 140.5zM1282 246q-9 -56 26 -93.5t109 -37.5q62 0 107.5 30.5t54.5 81.5q10 62 -34 93.5t-109 31.5q-60 0 -103.5 -29t-50.5 -77zM1360 590q-7 -50 27.5 -82.5
t91.5 -32.5q53 0 91.5 26t47.5 74q9 49 -25 81t-94 32q-59 0 -95 -26.5t-44 -71.5z" />
    <glyph glyph-name="fiveeighths" unicode="&#x215d;" horiz-adv-x="1869" 
d="M406 639q-145 0 -225.5 69.5t-78.5 182.5h166q4 -58 44.5 -91.5t103.5 -33.5q64 0 106.5 35.5t50.5 87.5q11 67 -20 110t-100 43q-104 0 -154 -75h-115q-19 0 -31 13.5t-8 31.5l91 354q9 37 38.5 62.5t67.5 25.5h463l-25 -147h-409l-54 -191q73 47 181 47
q131 0 202.5 -79.5t51.5 -200.5q-19 -108 -111.5 -176t-234.5 -68zM453 0l884 1454h170l-884 -1454h-170zM1126 242q12 65 61 111t122 67l2 8q-114 58 -92 182q17 96 106.5 150.5t214.5 54.5q121 0 205.5 -66.5t66.5 -168.5q-20 -115 -149 -158l-2 -6q138 -79 117 -205
q-18 -98 -112 -160.5t-239 -62.5q-92 0 -164 27t-112 86.5t-25 140.5zM1307 246q-9 -56 26 -93.5t109 -37.5q62 0 107.5 30.5t54.5 81.5q10 62 -34.5 93.5t-109.5 31.5q-60 0 -103 -28.5t-50 -77.5zM1384 590q-7 -50 27.5 -82.5t91.5 -32.5q53 0 91.5 26t47.5 74
q9 49 -24.5 81t-93.5 32q-59 0 -95.5 -26.5t-44.5 -71.5z" />
    <glyph glyph-name="seveneighths" unicode="&#x215e;" horiz-adv-x="1634" 
d="M106 651l441 656h-393l26 147h592l-22 -113l-453 -690h-191zM217 0l885 1454h170l-885 -1454h-170zM891 242q12 65 60.5 111t121.5 67l2 8q-114 58 -92 182q17 96 107 150.5t215 54.5q121 0 205.5 -66.5t66.5 -168.5q-20 -115 -150 -158l-2 -6q138 -79 117 -205
q-18 -98 -111.5 -160.5t-238.5 -62.5q-92 0 -164 27t-112 86.5t-25 140.5zM1071 246q-9 -56 26 -93.5t109 -37.5q62 0 107.5 30.5t54.5 81.5q10 62 -34 93.5t-109 31.5q-60 0 -103.5 -29t-50.5 -77zM1149 590q-7 -50 27.5 -82.5t91.5 -32.5q53 0 91.5 26t47.5 74
q9 49 -25 81t-94 32q-59 0 -95 -26.5t-44 -71.5z" />
    <glyph glyph-name="arrowleft" unicode="&#x2190;" horiz-adv-x="1830" 
d="M1675 840v-226h-1097l438 -434h-287l-528 547l528 547h287l-441 -434h1100z" />
    <glyph glyph-name="arrowup" unicode="&#x2191;" horiz-adv-x="1482" 
d="M674 0v1100l-434 -441v287l548 529l547 -529v-287l-434 439v-1098h-227z" />
    <glyph glyph-name="arrowright" unicode="&#x2192;" horiz-adv-x="1830" 
d="M219 842h1100l-440 434h286l529 -549l-529 -547h-286l438 434h-1098v228z" />
    <glyph glyph-name="arrowdown" unicode="&#x2193;" horiz-adv-x="1482" 
d="M647 1454h227v-1098l435 439v-287l-547 -528l-549 528v287l434 -441v1100z" />
    <glyph glyph-name="uni2196" unicode="&#x2196;" horiz-adv-x="1630" 
d="M1423 319l-161 -159l-777 776l4 -617l-202 203l12 760l762 14l203 -202l-621 6z" />
    <glyph glyph-name="uni2197" unicode="&#x2197;" horiz-adv-x="1437" 
d="M131 332l780 780l-620 -6l203 203l761 -15l13 -759l-203 -203l4 616l-776 -776z" />
    <glyph glyph-name="uni2198" unicode="&#x2198;" horiz-adv-x="1628" 
d="M432 1296l778 -778l-4 619l203 -203l-14 -762l-762 -12l-203 202l619 -4l-777 777z" />
    <glyph glyph-name="uni2199" unicode="&#x2199;" horiz-adv-x="1435" 
d="M1378 1161l-778 -778l619 4l-203 -203l-762 17l-12 760l202 202l-4 -618l777 778z" />
    <glyph glyph-name="partialdiff" unicode="&#x2202;" horiz-adv-x="1263" 
d="M594 -20q-171 0 -295.5 80t-177.5 224t-21 324q18 103 66 193.5t120 158.5t170.5 107t211.5 39q148 0 278 -92q-57 132 -160 247t-223 189v4h268q74 -56 134.5 -130t100 -154.5t66.5 -167t38 -171.5t10 -163.5t-13 -147.5q-43 -245 -196 -392.5t-377 -147.5zM317 575
q-10 -45 -8 -93.5t10.5 -95t32 -87.5t55.5 -72t81.5 -49t109.5 -18q139 0 230.5 98.5t119.5 253.5q9 63 8 122.5t-21.5 112.5t-53 93t-87 63t-124.5 23q-140 0 -233.5 -100t-119.5 -251z" />
    <glyph glyph-name="emptyset" unicode="&#x2205;" horiz-adv-x="1497" 
d="M756 -20q-169 0 -310 86l-71 -86h-228l166 198q-149 165 -149 391q0 160 79 296t215.5 215t297.5 79q167 0 305 -86l72 86h229l-166 -198q70 -78 110 -180t40 -212q0 -160 -79 -296t-215 -214.5t-296 -78.5zM348 569q0 -138 86 -247l506 608q-85 45 -184 45
q-169 0 -288.5 -119.5t-119.5 -286.5zM567 209q88 -45 189 -45q167 0 286 119t119 286q0 138 -86 248z" />
    <glyph glyph-name="uni2206" unicode="&#x2206;" horiz-adv-x="1619" 
d="M31 0l768 1454h340l258 -1454h-1366zM362 193h779l-129 792l-43 268h-60l-133 -268z" />
    <glyph glyph-name="product" unicode="&#x220f;" horiz-adv-x="1490" 
d="M1446 1454l-295 -1679h-227l262 1482h-629l-262 -1482h-227l294 1679h1084z" />
    <glyph glyph-name="summation" unicode="&#x2211;" horiz-adv-x="1302" 
d="M10 -225l33 194l608 652l-368 639l32 194h988l-33 -194h-738l379 -652l-604 -639h756l-35 -194h-1018z" />
    <glyph glyph-name="minus" unicode="&#x2212;" horiz-adv-x="1153" 
d="M92 633l35 192h1003l-34 -192h-1004z" />
    <glyph glyph-name="radical" unicode="&#x221a;" horiz-adv-x="1761" 
d="M598 -225l-131 817h-326l35 192h486l79 -528l35 -268h49l133 268l603 1198h233l-2 -16l-852 -1663h-342z" />
    <glyph glyph-name="infinity" unicode="&#x221e;" horiz-adv-x="2043" 
d="M1491 285q-77 0 -143 22t-118.5 64t-92 88.5t-80.5 109.5q-42 -63 -81.5 -109.5t-92.5 -88.5t-119 -64t-143 -22q-125 0 -222 62.5t-148.5 166.5t-51.5 229q0 190 118.5 322.5t303.5 132.5q77 0 143 -22t119 -64.5t93 -89t81 -109.5q41 63 80.5 109.5t92 89t118.5 64.5
t143 22q122 0 220 -62t151 -167t53 -230q0 -190 -118.5 -322t-305.5 -132zM385 739q0 -113 68 -192.5t182 -79.5q52 0 97 20t84.5 62t68.5 83.5t67 106.5q-38 65 -66.5 106.5t-68.5 84.5t-85 63.5t-97 20.5q-114 0 -182 -80t-68 -195zM1159 741q39 -65 68 -106.5t69 -84
t85.5 -63t97.5 -20.5q114 0 179.5 79.5t65.5 192.5q0 116 -65.5 195.5t-179.5 79.5q-52 0 -97.5 -20.5t-85.5 -62.5t-69 -83.5t-68 -106.5z" />
    <glyph glyph-name="integral" unicode="&#x222b;" horiz-adv-x="1144" 
d="M-29 -369l33 197h330l262 1489q12 67 55.5 102t112.5 35h410l-33 -197h-332l-262 -1488q-12 -67 -55.5 -102.5t-112.5 -35.5h-408z" />
    <glyph glyph-name="approxequal" unicode="&#x2248;" horiz-adv-x="1245" 
d="M922 778q-76 0 -158 29t-152.5 57.5t-119.5 28.5q-125 0 -148 -113h-211q28 134 116.5 224t223.5 90q77 0 159 -29t152.5 -57.5t118.5 -28.5q122 0 144 115h213q-23 -133 -113 -224.5t-225 -91.5zM43 324q25 133 115 224t225 91q60 0 125 -18t111.5 -39.5t99.5 -39.5
t92 -18q119 0 145 113h213q-25 -134 -114 -223.5t-226 -89.5q-76 0 -157.5 28.5t-152 57t-120.5 28.5q-123 0 -145 -114h-211z" />
    <glyph glyph-name="notequal" unicode="&#x2260;" horiz-adv-x="1198" 
d="M1155 838h-356l-135 -220h450l-33 -190h-534l-103 -164h-198l100 164h-268l33 190h354l135 220h-448l30 190h535l100 162h201l-100 -162h268z" />
    <glyph glyph-name="lessequal" unicode="&#x2264;" horiz-adv-x="1183" 
d="M1049 379l-930 336l43 225l1061 336l-37 -205l-797 -225l-8 -35l709 -225zM2 121l35 170h997l-35 -170h-997z" />
    <glyph glyph-name="greaterequal" unicode="&#x2265;" horiz-adv-x="1183" 
d="M68 379l38 217l797 225l6 35l-706 225l39 195l929 -336l-43 -225zM14 121l35 170h998l-35 -170h-998z" />
    <glyph glyph-name="lozenge" unicode="&#x25ca;" horiz-adv-x="1468" 
d="M518 0l-358 727l612 727h242l360 -727l-612 -727h-244zM406 723l251 -516h25l438 536l-243 504h-23z" />
    <glyph glyph-name="uniA78B" unicode="&#xa78b;" horiz-adv-x="409" 
d="M152 700l96 754h233l-168 -754h-161z" />
    <glyph glyph-name="uniA78C" unicode="&#xa78c;" horiz-adv-x="325" 
d="M137 850l68 604h235l-141 -604h-162z" />
    <glyph glyph-name="fi" unicode="&#xfb01;" horiz-adv-x="1236" 
d="M367 1319q23 135 163 135h357l-31 -186h-276l-33 -183h276l-32 -190h-277l-160 -895h-221l158 895h-160l35 190h160zM784 0l193 1085h221l-192 -1085h-222zM1001 1229l39 225h222l-39 -225h-222z" />
    <glyph glyph-name="fl" unicode="&#xfb02;" horiz-adv-x="1241" 
d="M367 1319q23 135 163 135h357l-31 -186h-276l-33 -183h276l-32 -190h-277l-160 -895h-221l158 895h-160l35 190h160zM788 0l256 1454h222l-256 -1454h-222z" />
    <glyph glyph-name="uni004A0301" horiz-adv-x="702" 
d="M-31 0l35 199h275l217 1255h227l-231 -1317q-12 -68 -55.5 -102.5t-110.5 -34.5h-357zM512 1561l264 243h285l-348 -243h-201z" />
    <glyph glyph-name="B.ss01" horiz-adv-x="1273" 
d="M43 0l256 1454h494q224 0 346.5 -115.5t89.5 -304.5q-16 -97 -79 -179t-167 -120q111 -41 158.5 -143.5t27.5 -214.5q-28 -159 -166 -268t-346 -109h-614zM301 195h348q118 0 197.5 62t95.5 151q19 101 -50 166t-190 65h-323zM414 825h305q117 0 191.5 57.5t90.5 145.5
q19 106 -46 171t-201 65h-265z" />
    <glyph glyph-name="D.ss01" horiz-adv-x="1456" 
d="M43 0l256 1454h451q175 0 313 -58.5t219.5 -162.5t114.5 -248.5t0 -316.5q-53 -296 -276 -482t-535 -186h-543zM305 195h299q221 0 372 136t189 351q24 120 3 225t-74 183.5t-148 124t-219 45.5h-235z" />
    <glyph glyph-name="Eth.ss01" horiz-adv-x="1476" 
d="M63 0l111 627h-162l37 200h160l110 627h451q175 0 313 -58.5t219.5 -162.5t114.5 -248.5t0 -316.5q-53 -296 -276 -482t-535 -186h-543zM326 195h299q221 0 372 136t189 351q24 120 3 225t-74 183.5t-148 124t-219 45.5h-236l-76 -433h338l-37 -200h-336z" />
    <glyph glyph-name="Dcaron.ss01" horiz-adv-x="1456" 
d="M43 0l256 1454h451q175 0 313 -58.5t219.5 -162.5t114.5 -248.5t0 -316.5q-53 -296 -276 -482t-535 -186h-543zM305 195h299q221 0 372 136t189 351q24 120 3 225t-74 183.5t-148 124t-219 45.5h-235zM483 1804h199l90 -118h33l135 118h211l-246 -243h-266z" />
    <glyph glyph-name="Dcroat.ss01" horiz-adv-x="1476" 
d="M63 0l111 627h-162l37 200h160l110 627h451q175 0 313 -58.5t219.5 -162.5t114.5 -248.5t0 -316.5q-53 -296 -276 -482t-535 -186h-543zM326 195h299q221 0 372 136t189 351q24 120 3 225t-74 183.5t-148 124t-219 45.5h-236l-76 -433h338l-37 -200h-336z" />
    <glyph glyph-name="E.ss01" horiz-adv-x="1116" 
d="M43 0l256 1454h893l-35 -197h-665l-76 -432h592l-35 -194h-592l-76 -434h674l-35 -197h-901z" />
    <glyph glyph-name="Eacute.ss01" horiz-adv-x="1116" 
d="M651 1561l264 243h285l-348 -243h-201zM43 0l256 1454h893l-35 -197h-665l-76 -432h592l-35 -194h-592l-76 -434h674l-35 -197h-901z" />
    <glyph glyph-name="Ebreve.ss01" horiz-adv-x="1116" 
d="M770 1544q-145 0 -223 74.5t-66 185.5h172q3 -121 131 -121q143 0 179 121h176q-23 -128 -122 -194t-247 -66zM43 0l256 1454h893l-35 -197h-665l-76 -432h592l-35 -194h-592l-76 -434h674l-35 -197h-901z" />
    <glyph glyph-name="Ecaron.ss01" horiz-adv-x="1116" 
d="M938 1804h211l-246 -243h-266l-156 243h199l90 -118h33zM43 0l256 1454h893l-35 -197h-665l-76 -432h592l-35 -194h-592l-76 -434h674l-35 -197h-901z" />
    <glyph glyph-name="Ecircumflex.ss01" horiz-adv-x="1116" 
d="M895 1561l-90 118h-31l-137 -118h-211l246 243h266l154 -243h-197zM43 0l256 1454h893l-35 -197h-665l-76 -432h592l-35 -194h-592l-76 -434h674l-35 -197h-901z" />
    <glyph glyph-name="Edieresis.ss01" horiz-adv-x="1116" 
d="M868 1577l39 211h207l-39 -211h-207zM43 0l256 1454h893l-35 -197h-665l-76 -432h592l-35 -194h-592l-76 -434h674l-35 -197h-901zM467 1577l37 211h209l-39 -211h-207z" />
    <glyph glyph-name="Edotaccent.ss01" horiz-adv-x="1116" 
d="M653 1569l39 229h238l-41 -229h-236zM43 0l256 1454h893l-35 -197h-665l-76 -432h592l-35 -194h-592l-76 -434h674l-35 -197h-901z" />
    <glyph glyph-name="Egrave.ss01" horiz-adv-x="1116" 
d="M696 1561l-260 243h264l183 -243h-187zM43 0l256 1454h893l-35 -197h-665l-76 -432h592l-35 -194h-592l-76 -434h674l-35 -197h-901z" />
    <glyph glyph-name="Emacron.ss01" horiz-adv-x="1116" 
d="M449 1786h718l-28 -172h-719zM43 0l256 1454h893l-35 -197h-665l-76 -432h592l-35 -194h-592l-76 -434h674l-35 -197h-901z" />
    <glyph glyph-name="Eogonek.ss01" horiz-adv-x="1116" 
d="M780 -369q-110 0 -166.5 44.5t-56.5 113.5q0 133 133 211h-647l256 1454h893l-35 -197h-665l-76 -432h592l-35 -194h-592l-76 -434h674l-35 -197q-188 -62 -188 -135q0 -25 19 -36t63 -11h69l-33 -187h-94z" />
    <glyph glyph-name="uni1EBC.ss01" horiz-adv-x="1116" 
d="M389 1561q24 112 93.5 186t160.5 74q46 0 89.5 -18t70.5 -39.5t58 -39.5t54 -18q79 0 101 109h170q-24 -112 -93.5 -187.5t-160.5 -75.5q-46 0 -89 18.5t-70.5 40t-57.5 40t-53 18.5q-43 0 -67.5 -27t-35.5 -81h-170zM43 0l256 1454h893l-35 -197h-665l-76 -432h592
l-35 -194h-592l-76 -434h674l-35 -197h-901z" />
    <glyph glyph-name="F.ss01" horiz-adv-x="1134" 
d="M270 0h-227l256 1454h891l-35 -199h-663l-76 -434h590l-35 -194h-590z" />
    <glyph glyph-name="G.ss01" horiz-adv-x="1632" 
d="M754 -20q-170 0 -304.5 67.5t-213 180t-108 261t-1.5 310.5q34 193 143 346t279.5 241.5t372.5 88.5q268 0 432 -136t200 -364h-241q-31 142 -139 222.5t-275 80.5q-106 0 -200.5 -39t-163 -106.5t-115 -157t-64.5 -191.5q-16 -78 -10.5 -153t23 -142.5t56 -125t89 -99
t121 -65t153.5 -23.5q191 0 330.5 111t165.5 293h-518l33 188h737l-137 -768h-164l20 193q-191 -213 -501 -213z" />
    <glyph glyph-name="Gbreve.ss01" horiz-adv-x="1632" 
d="M754 -20q-170 0 -304.5 67.5t-213 180t-108 261t-1.5 310.5q34 193 143 346t279.5 241.5t372.5 88.5q268 0 432 -136t200 -364h-241q-31 142 -139 222.5t-275 80.5q-106 0 -200.5 -39t-163 -106.5t-115 -157t-64.5 -191.5q-16 -78 -10.5 -153t23 -142.5t56 -125t89 -99
t121 -65t153.5 -23.5q191 0 330.5 111t165.5 293h-518l33 188h737l-137 -768h-164l20 193q-191 -213 -501 -213zM823 1804q3 -121 131 -121q143 0 179 121h176q-23 -128 -122 -194t-247 -66q-145 0 -223 74.5t-66 185.5h172z" />
    <glyph glyph-name="Gcircumflex.ss01" horiz-adv-x="1632" 
d="M754 -20q-170 0 -304.5 67.5t-213 180t-108 261t-1.5 310.5q34 193 143 346t279.5 241.5t372.5 88.5q268 0 432 -136t200 -364h-241q-31 142 -139 222.5t-275 80.5q-106 0 -200.5 -39t-163 -106.5t-115 -157t-64.5 -191.5q-16 -78 -10.5 -153t23 -142.5t56 -125t89 -99
t121 -65t153.5 -23.5q191 0 330.5 111t165.5 293h-518l33 188h737l-137 -768h-164l20 193q-191 -213 -501 -213zM594 1561l246 243h266l154 -243h-197l-90 118h-31l-137 -118h-211z" />
    <glyph glyph-name="uni0122.ss01" horiz-adv-x="1632" 
d="M754 -20q-170 0 -304.5 67.5t-213 180t-108 261t-1.5 310.5q34 193 143 346t279.5 241.5t372.5 88.5q268 0 432 -136t200 -364h-241q-31 142 -139 222.5t-275 80.5q-106 0 -200.5 -39t-163 -106.5t-115 -157t-64.5 -191.5q-16 -78 -10.5 -153t23 -142.5t56 -125t89 -99
t121 -65t153.5 -23.5q191 0 330.5 111t165.5 293h-518l33 188h737l-137 -768h-164l20 193q-191 -213 -501 -213zM520 -430l115 336h223l-176 -336h-162z" />
    <glyph glyph-name="Gdotaccent.ss01" horiz-adv-x="1632" 
d="M754 -20q-170 0 -304.5 67.5t-213 180t-108 261t-1.5 310.5q34 193 143 346t279.5 241.5t372.5 88.5q268 0 432 -136t200 -364h-241q-31 142 -139 222.5t-275 80.5q-106 0 -200.5 -39t-163 -106.5t-115 -157t-64.5 -191.5q-16 -78 -10.5 -153t23 -142.5t56 -125t89 -99
t121 -65t153.5 -23.5q191 0 330.5 111t165.5 293h-518l33 188h737l-137 -768h-164l20 193q-191 -213 -501 -213zM823 1569l39 229h238l-41 -229h-236z" />
    <glyph glyph-name="M.ss01" horiz-adv-x="1837" 
d="M256 0h-213l256 1454h408l98 -950l29 -295h47l129 295l434 950h414l-256 -1454h-211l161 924l58 319h-47l-140 -319l-430 -924h-336l-102 924l-31 319h-51l-55 -319z" />
    <glyph glyph-name="N.ss01" horiz-adv-x="1460" 
d="M43 0l256 1454h387l232 -919l73 -314h58l55 305l162 928h215l-256 -1454h-387l-232 920l-74 313h-59l-215 -1233h-215z" />
    <glyph glyph-name="Nacute.ss01" horiz-adv-x="1460" 
d="M43 0l256 1454h387l232 -919l73 -314h58l55 305l162 928h215l-256 -1454h-387l-232 920l-74 313h-59l-215 -1233h-215zM772 1561l264 243h285l-348 -243h-201z" />
    <glyph glyph-name="Ncaron.ss01" horiz-adv-x="1460" 
d="M43 0l256 1454h387l232 -919l73 -314h58l55 305l162 928h215l-256 -1454h-387l-232 920l-74 313h-59l-215 -1233h-215zM602 1804h199l90 -118h33l135 118h211l-246 -243h-266z" />
    <glyph glyph-name="uni0145.ss01" horiz-adv-x="1460" 
d="M43 0l256 1454h387l232 -919l73 -314h58l55 305l162 928h215l-256 -1454h-387l-232 920l-74 313h-59l-215 -1233h-215zM379 -430l115 336h223l-176 -336h-162z" />
    <glyph glyph-name="Eng.ss01" horiz-adv-x="1460" 
d="M662 -369l36 201h285l29 168h-174l-232 920l-74 313h-59l-215 -1233h-215l256 1454h387l232 -919l73 -314h58l55 305l162 928h215l-295 -1685q-12 -67 -56 -102.5t-110 -35.5h-358z" />
    <glyph glyph-name="Ntilde.ss01" horiz-adv-x="1460" 
d="M43 0l256 1454h387l232 -919l73 -314h58l55 305l162 928h215l-256 -1454h-387l-232 920l-74 313h-59l-215 -1233h-215zM510 1561q24 112 93.5 186t160.5 74q46 0 89.5 -18t70.5 -39.5t58 -39.5t54 -18q79 0 101 109h170q-24 -112 -93.5 -187.5t-160.5 -75.5
q-46 0 -89.5 18.5t-70.5 40t-57.5 40t-53.5 18.5q-43 0 -67 -27t-35 -81h-170z" />
    <glyph glyph-name="P.ss01" horiz-adv-x="1218" 
d="M43 0l258 1454h483q109 0 198.5 -30.5t150.5 -87t87 -144t7 -195.5q-33 -186 -178 -289.5t-349 -103.5h-323l-107 -604h-227zM412 797h315q107 0 181 60.5t93 162.5q20 114 -45.5 177t-197.5 63h-264z" />
    <glyph glyph-name="Q.ss01" horiz-adv-x="1613" 
d="M764 -20q-171 0 -306.5 65t-217 176t-112.5 261.5t-1 318.5q25 143 94.5 267t171.5 214t238.5 141.5t288.5 51.5q115 0 214.5 -30t174.5 -84.5t132.5 -130t86.5 -167t38.5 -195.5t-12.5 -215q-53 -297 -274 -487l193 -242h-269l-102 129q-155 -73 -338 -73zM354 784
q-16 -76 -10.5 -150t23 -141.5t56 -125t88.5 -99.5t120.5 -66t152.5 -24q104 0 191 35l-191 240h269l98 -125q138 138 176 348q15 76 10 150.5t-23 141.5t-56 123.5t-88.5 98t-120.5 65t-152 23.5q-206 0 -355 -139t-188 -355z" />
    <glyph glyph-name="R.ss01" horiz-adv-x="1314" 
d="M43 0l256 1454h528q225 0 350 -127.5t89 -335.5q-26 -142 -126.5 -237.5t-250.5 -130.5l270 -623h-260l-244 606h-278l-107 -606h-227zM410 797h354q105 0 181 61.5t93 157.5q22 116 -43.5 180t-199.5 64h-303z" />
    <glyph glyph-name="Racute.ss01" horiz-adv-x="1314" 
d="M43 0l256 1454h528q225 0 350 -127.5t89 -335.5q-26 -142 -126.5 -237.5t-250.5 -130.5l270 -623h-260l-244 606h-278l-107 -606h-227zM410 797h354q105 0 181 61.5t93 157.5q22 116 -43.5 180t-199.5 64h-303zM631 1561l264 243h285l-349 -243h-200z" />
    <glyph glyph-name="Rcaron.ss01" horiz-adv-x="1314" 
d="M43 0l256 1454h528q225 0 350 -127.5t89 -335.5q-26 -142 -126.5 -237.5t-250.5 -130.5l270 -623h-260l-244 606h-278l-107 -606h-227zM410 797h354q105 0 181 61.5t93 157.5q22 116 -43.5 180t-199.5 64h-303zM459 1804h198l91 -118h32l135 118h211l-245 -243h-267z" />
    <glyph glyph-name="uni0156.ss01" horiz-adv-x="1314" 
d="M43 0l256 1454h528q225 0 350 -127.5t89 -335.5q-26 -142 -126.5 -237.5t-250.5 -130.5l270 -623h-260l-244 606h-278l-107 -606h-227zM340 -430l115 336h223l-176 -336h-162zM410 797h354q105 0 181 61.5t93 157.5q22 116 -43.5 180t-199.5 64h-303z" />
    <glyph glyph-name="uni1E9E.ss01" horiz-adv-x="1280" 
d="M43 0l256 1454h989l-31 -201l-409 -442q170 -33 264.5 -153.5t65.5 -282.5q-13 -73 -54 -140t-105 -119.5t-155.5 -84t-197.5 -31.5h-205l35 195h161q118 0 197.5 59.5t93.5 146.5q19 104 -46.5 171t-192.5 67h-134l31 184l389 428l2 11h-508l-221 -1262h-225z" />
    <glyph glyph-name="G.ss09" horiz-adv-x="1593" 
d="M733 0q-101 0 -188.5 22t-154.5 62.5t-121 97.5t-87 126t-53 149.5t-19 167t15 178.5q25 144 92.5 267t166.5 213t233 141t286 51q254 0 416.5 -137t198.5 -363h-242q-31 141 -135.5 222t-259.5 81q-106 0 -198 -39.5t-157.5 -107.5t-109.5 -156.5t-62 -190.5
q-15 -74 -11.5 -146.5t18.5 -138t50 -121.5t82.5 -96.5t116 -63.5t150.5 -23h418l67 383h-489l35 190h706l-111 -633q-11 -60 -55.5 -97.5t-105.5 -37.5h-492z" />
    <glyph glyph-name="Gbreve.ss09" horiz-adv-x="1593" 
d="M733 0q-101 0 -188.5 22t-154.5 62.5t-121 97.5t-87 126t-53 149.5t-19 167t15 178.5q25 144 92.5 267t166.5 213t233 141t286 51q254 0 416.5 -137t198.5 -363h-242q-31 141 -135.5 222t-259.5 81q-106 0 -198 -39.5t-157.5 -107.5t-109.5 -156.5t-62 -190.5
q-15 -74 -11.5 -146.5t18.5 -138t50 -121.5t82.5 -96.5t116 -63.5t150.5 -23h418l67 383h-489l35 190h706l-111 -633q-11 -60 -55.5 -97.5t-105.5 -37.5h-492zM803 1804q3 -121 131 -121q142 0 178 121h176q-23 -128 -121.5 -194t-246.5 -66q-145 0 -223 74.5t-66 185.5h172
z" />
    <glyph glyph-name="Gcircumflex.ss09" horiz-adv-x="1593" 
d="M733 0q-101 0 -188.5 22t-154.5 62.5t-121 97.5t-87 126t-53 149.5t-19 167t15 178.5q25 144 92.5 267t166.5 213t233 141t286 51q254 0 416.5 -137t198.5 -363h-242q-31 141 -135.5 222t-259.5 81q-106 0 -198 -39.5t-157.5 -107.5t-109.5 -156.5t-62 -190.5
q-15 -74 -11.5 -146.5t18.5 -138t50 -121.5t82.5 -96.5t116 -63.5t150.5 -23h418l67 383h-489l35 190h706l-111 -633q-11 -60 -55.5 -97.5t-105.5 -37.5h-492zM573 1561l246 243h266l154 -243h-197l-90 118h-30l-138 -118h-211z" />
    <glyph glyph-name="uni0122.ss09" horiz-adv-x="1593" 
d="M733 0q-101 0 -188.5 22t-154.5 62.5t-121 97.5t-87 126t-53 149.5t-19 167t15 178.5q25 144 92.5 267t166.5 213t233 141t286 51q254 0 416.5 -137t198.5 -363h-242q-31 141 -135.5 222t-259.5 81q-106 0 -198 -39.5t-157.5 -107.5t-109.5 -156.5t-62 -190.5
q-15 -74 -11.5 -146.5t18.5 -138t50 -121.5t82.5 -96.5t116 -63.5t150.5 -23h418l67 383h-489l35 190h706l-111 -633q-11 -60 -55.5 -97.5t-105.5 -37.5h-492zM532 -430l115 336h223l-176 -336h-162z" />
    <glyph glyph-name="Gdotaccent.ss09" horiz-adv-x="1593" 
d="M733 0q-101 0 -188.5 22t-154.5 62.5t-121 97.5t-87 126t-53 149.5t-19 167t15 178.5q25 144 92.5 267t166.5 213t233 141t286 51q254 0 416.5 -137t198.5 -363h-242q-31 141 -135.5 222t-259.5 81q-106 0 -198 -39.5t-157.5 -107.5t-109.5 -156.5t-62 -190.5
q-15 -74 -11.5 -146.5t18.5 -138t50 -121.5t82.5 -96.5t116 -63.5t150.5 -23h418l67 383h-489l35 190h706l-111 -633q-11 -60 -55.5 -97.5t-105.5 -37.5h-492zM803 1569l39 229h237l-41 -229h-235z" />
    <glyph glyph-name="G.ss01.ss08" horiz-adv-x="1595" 
d="M760 -20q-114 0 -214 30.5t-174.5 85.5t-132 131t-86.5 167.5t-38.5 194.5t12.5 212q25 143 95.5 267.5t173.5 214t239 141t287 51.5q268 0 432 -136t200 -364h-241q-31 142 -139 222.5t-275 80.5q-106 0 -200.5 -39t-163 -106.5t-115 -157t-64.5 -191.5
q-14 -94 -8.5 -182t40 -165.5t87 -135.5t133 -91.5t178.5 -33.5q194 0 320 93.5t160 262.5l10 48h-510l33 188h739l-37 -205q-35 -195 -142.5 -328t-259 -194t-339.5 -61z" />
    <glyph glyph-name="Gbreve.ss01.ss08" horiz-adv-x="1595" 
d="M760 -20q-114 0 -214 30.5t-174.5 85.5t-132 131t-86.5 167.5t-38.5 194.5t12.5 212q25 143 95.5 267.5t173.5 214t239 141t287 51.5q268 0 432 -136t200 -364h-241q-31 142 -139 222.5t-275 80.5q-106 0 -200.5 -39t-163 -106.5t-115 -157t-64.5 -191.5
q-14 -94 -8.5 -182t40 -165.5t87 -135.5t133 -91.5t178.5 -33.5q194 0 320 93.5t160 262.5l10 48h-510l33 188h739l-37 -205q-35 -195 -142.5 -328t-259 -194t-339.5 -61zM823 1804q3 -121 131 -121q143 0 179 121h176q-23 -128 -122 -194t-247 -66q-145 0 -223 74.5
t-66 185.5h172z" />
    <glyph glyph-name="Gcircumflex.ss01.ss08" horiz-adv-x="1595" 
d="M760 -20q-114 0 -214 30.5t-174.5 85.5t-132 131t-86.5 167.5t-38.5 194.5t12.5 212q25 143 95.5 267.5t173.5 214t239 141t287 51.5q268 0 432 -136t200 -364h-241q-31 142 -139 222.5t-275 80.5q-106 0 -200.5 -39t-163 -106.5t-115 -157t-64.5 -191.5
q-14 -94 -8.5 -182t40 -165.5t87 -135.5t133 -91.5t178.5 -33.5q194 0 320 93.5t160 262.5l10 48h-510l33 188h739l-37 -205q-35 -195 -142.5 -328t-259 -194t-339.5 -61zM594 1561l246 243h266l154 -243h-197l-90 118h-31l-137 -118h-211z" />
    <glyph glyph-name="uni0122.ss01.ss08" horiz-adv-x="1595" 
d="M760 -20q-114 0 -214 30.5t-174.5 85.5t-132 131t-86.5 167.5t-38.5 194.5t12.5 212q25 143 95.5 267.5t173.5 214t239 141t287 51.5q268 0 432 -136t200 -364h-241q-31 142 -139 222.5t-275 80.5q-106 0 -200.5 -39t-163 -106.5t-115 -157t-64.5 -191.5
q-14 -94 -8.5 -182t40 -165.5t87 -135.5t133 -91.5t178.5 -33.5q194 0 320 93.5t160 262.5l10 48h-510l33 188h739l-37 -205q-35 -195 -142.5 -328t-259 -194t-339.5 -61zM520 -430l115 336h223l-176 -336h-162z" />
    <glyph glyph-name="Gdotaccent.ss01.ss08" horiz-adv-x="1595" 
d="M760 -20q-114 0 -214 30.5t-174.5 85.5t-132 131t-86.5 167.5t-38.5 194.5t12.5 212q25 143 95.5 267.5t173.5 214t239 141t287 51.5q268 0 432 -136t200 -364h-241q-31 142 -139 222.5t-275 80.5q-106 0 -200.5 -39t-163 -106.5t-115 -157t-64.5 -191.5
q-14 -94 -8.5 -182t40 -165.5t87 -135.5t133 -91.5t178.5 -33.5q194 0 320 93.5t160 262.5l10 48h-510l33 188h739l-37 -205q-35 -195 -142.5 -328t-259 -194t-339.5 -61zM823 1569l39 229h238l-41 -229h-236z" />
    <glyph glyph-name="a.dnom" horiz-adv-x="688" 
d="M172 0q-89 0 -144 40t-55 116q0 179 260 196l195 15l6 30q9 46 -19 71.5t-85 25.5q-102 0 -121 -84h-166q13 102 94 152t199 50q133 0 204.5 -62t51.5 -173l-53 -293q-16 -84 -105 -84h-262zM143 168q0 -57 88 -57h152l27 151l-142 -12q-25 -2 -37.5 -4t-32.5 -7.5
t-29.5 -13.5t-17.5 -22.5t-8 -34.5z" />
    <glyph glyph-name="b.dnom" horiz-adv-x="737" 
d="M80 0q-44 0 -65 26.5t-15 63.5l125 713h170l-35 -203h125q147 0 218 -92t46 -234q-22 -120 -105.5 -197t-217.5 -77h-246zM176 129h129q73 0 118 45t58 117q8 47 -0.5 85.5t-43.5 66.5t-95 28h-104z" />
    <glyph glyph-name="c.dnom" horiz-adv-x="724" 
d="M305 -12q-155 0 -242 97t-61 245q22 123 116 202.5t232 79.5q119 0 202.5 -62.5t100.5 -166.5h-174q-26 102 -135 102q-69 0 -115 -50t-59 -124q-14 -84 23 -141t118 -57q102 0 152 102h174q-33 -102 -123 -164.5t-209 -62.5z" />
    <glyph glyph-name="d.dnom" horiz-adv-x="739" 
d="M270 0q-143 0 -217.5 90t-48.5 234q20 116 104 196t218 80h176l35 203h172l-127 -717q-7 -40 -37.5 -63t-71.5 -23h-203zM176 315q-14 -82 17.5 -134t123.5 -52h103l59 342h-129q-69 0 -115.5 -42t-58.5 -114z" />
    <glyph glyph-name="e.dnom" horiz-adv-x="737" 
d="M305 -12q-156 0 -242 98.5t-61 241.5q22 124 116.5 204t231.5 80q68 0 128.5 -23.5t105 -66.5t63 -111.5t0.5 -150.5h-479q2 -66 34.5 -108.5t104.5 -42.5q101 0 148 86h176q-42 -100 -128 -153.5t-198 -53.5zM182 367h307q-5 60 -43.5 96.5t-101.5 36.5q-59 0 -101 -35
t-61 -98z" />
    <glyph glyph-name="f.dnom" horiz-adv-x="438" 
d="M139 719q14 84 107 84h215l-21 -125h-139l-14 -78h139l-23 -131h-139l-82 -469h-170l82 469h-88l27 131h86z" />
    <glyph glyph-name="g.dnom" horiz-adv-x="739" 
d="M-4 -203l20 125h365l16 90h-133q-140 0 -212.5 90t-47.5 230q20 116 102.5 192t215.5 76h258q38 0 60.5 -25.5t16.5 -62.5l-114 -631q-7 -40 -35.5 -62t-69.5 -22h-442zM176 324q-13 -79 18.5 -132t118.5 -53h107l57 330h-133q-67 0 -111.5 -38.5t-56.5 -106.5z" />
    <glyph glyph-name="h.dnom" horiz-adv-x="716" 
d="M446 360q18 111 -110 111h-103l-81 -471h-168l141 803h168l-35 -203h152q106 0 165 -63.5t41 -169.5l-63 -367h-170z" />
    <glyph glyph-name="i.dnom" horiz-adv-x="333" 
d="M-12 0l102 600h174l-108 -600h-168zM106 674l21 129h170l-23 -129h-168z" />
    <glyph glyph-name="j.dnom" horiz-adv-x="333" 
d="M-184 -203l22 125h133l119 678h172l-127 -715q-6 -37 -36.5 -62.5t-73.5 -25.5h-209zM104 674l23 129h168l-21 -129h-170z" />
    <glyph glyph-name="k.dnom" horiz-adv-x="688" 
d="M442 313l129 -305v-8h-180l-98 254h-96l-45 -254h-168l141 803h168l-74 -414h88l180 211h191l-4 -8l-225 -262z" />
    <glyph glyph-name="l.dnom" horiz-adv-x="329" 
d="M152 0h-168l141 803h168z" />
    <glyph glyph-name="m.dnom" horiz-adv-x="1069" 
d="M74 518q6 37 34 59.5t68 22.5h584q103 0 164.5 -62t42.5 -171l-64 -367h-172l66 362q9 55 -18.5 82t-94.5 27h-72l-86 -471h-168l82 471h-202l-84 -471h-168z" />
    <glyph glyph-name="n.dnom" horiz-adv-x="720" 
d="M74 518q6 37 34 59.5t68 22.5h238q103 0 164.5 -61.5t42.5 -171.5l-64 -367h-172l66 360q9 55 -18.5 83t-94.5 28h-100l-84 -471h-168z" />
    <glyph glyph-name="o.dnom" horiz-adv-x="741" 
d="M305 -12q-155 0 -242 97t-61 245q22 122 116.5 202t231.5 80q151 0 240.5 -94t62.5 -248q-22 -125 -118 -203.5t-230 -78.5zM170 313q-14 -86 22.5 -143t118.5 -57q69 0 113 47.5t57 120.5q9 36 4.5 72.5t-17.5 65.5t-45 47.5t-79 18.5q-68 0 -114.5 -50t-59.5 -122z" />
    <glyph glyph-name="p.dnom" horiz-adv-x="741" 
d="M76 518q6 35 33.5 58.5t68.5 23.5h209q140 0 215.5 -90t48.5 -236q-22 -118 -106.5 -196t-218.5 -78h-170l-35 -203h-170zM178 129h129q72 0 117.5 45.5t58.5 116.5q8 46 0 84.5t-43 67t-96 28.5h-106z" />
    <glyph glyph-name="q.dnom" horiz-adv-x="739" 
d="M358 -203l37 203h-125q-142 0 -216.5 88.5t-49.5 230.5q21 119 103.5 200t218.5 81h256q40 0 59.5 -26.5t13.5 -61.5l-127 -715h-170zM176 313q-6 -47 -0.5 -88t41.5 -68.5t100 -27.5h101l61 342h-129q-71 0 -116.5 -43t-57.5 -115z" />
    <glyph glyph-name="r.dnom" horiz-adv-x="434" 
d="M74 516q15 84 106 84h242l-23 -131h-163l-82 -469h-168z" />
    <glyph glyph-name="s.dnom" horiz-adv-x="645" 
d="M246 -12q-129 0 -198 55t-71 152h162q3 -50 35.5 -72.5t79.5 -22.5q49 0 82 17t37 47q5 28 -13 46t-50.5 27t-72.5 16.5t-79 20.5t-69.5 33t-45 59t-4.5 95q11 67 83 109t181 42q128 0 196 -55.5t70 -146.5h-161q-3 92 -115 92q-86 0 -92 -53q-6 -29 19 -49t66 -29.5
t88.5 -25t87.5 -34.5t61.5 -60t11.5 -99q-12 -74 -91.5 -119t-197.5 -45z" />
    <glyph glyph-name="t.dnom" horiz-adv-x="446" 
d="M414 600l-23 -131h-125l-61 -344h125l-23 -125h-196q-36 0 -61.5 26.5t-18.5 67.5l65 375h-88l23 131h90l26 152h168l-26 -152h125z" />
    <glyph glyph-name="u.dnom" horiz-adv-x="696" 
d="M549 82q-7 -39 -36 -60.5t-67 -21.5h-225q-104 0 -165 61.5t-42 171.5l64 367h172l-66 -360q-18 -111 111 -111h90l84 471h168z" />
    <glyph glyph-name="v.dnom" horiz-adv-x="681" 
d="M123 0l-98 588l2 12h176l39 -336l12 -129h27l59 129l158 336h176l-2 -12l-305 -588h-244z" />
    <glyph glyph-name="w.dnom" horiz-adv-x="1107" 
d="M104 0l-75 588l2 12h164l24 -336l8 -131h23l51 131l141 336h240l23 -336l6 -131h22l53 131l144 336h168l-2 -12l-283 -588h-235l-21 336l-4 131h-25l-53 -131l-135 -336h-236z" />
    <glyph glyph-name="x.dnom" horiz-adv-x="702" 
d="M465 295l121 -287v-8h-178l-86 236h-43l-168 -236h-185v8l217 287l9 22l-121 275l-2 8h180l86 -233h45l168 233h184v-8l-219 -275z" />
    <glyph glyph-name="y.dnom" horiz-adv-x="684" 
d="M-25 -203l23 125h190l39 88h-104l-96 580v10h176l41 -336l12 -129h25l59 129l158 336h178l-2 -10l-369 -717q-22 -44 -50.5 -60t-72.5 -16h-207z" />
    <glyph glyph-name="z.dnom" horiz-adv-x="614" 
d="M-53 0l18 119l383 350h-307l22 131h512l-20 -121l-379 -348h322l-23 -131h-528z" />
    <glyph glyph-name="a.numr" horiz-adv-x="688" 
d="M287 651q-89 0 -144 40t-55 116q0 180 260 197l195 14l6 31q9 46 -19.5 71t-85.5 25q-55 0 -83 -21t-37 -63h-166q13 102 94 152.5t199 50.5q133 0 204.5 -62.5t51.5 -173.5l-54 -293q-16 -84 -104 -84h-262zM258 819q0 -57 88 -57h152l26 151l-141 -12q-25 -2 -37.5 -4
t-32.5 -7.5t-29.5 -13.5t-17.5 -22.5t-8 -34.5z" />
    <glyph glyph-name="b.numr" horiz-adv-x="737" 
d="M195 651q-44 0 -65 26.5t-15 63.5l125 713h170l-35 -203h125q147 0 218 -91.5t46 -233.5q-22 -120 -106 -197.5t-218 -77.5h-245zM291 780h129q73 0 118 45t58 117q8 47 -0.5 85.5t-43.5 66.5t-95 28h-105z" />
    <glyph glyph-name="c.numr" horiz-adv-x="724" 
d="M420 639q-155 0 -242 97t-61 245q22 124 116.5 203.5t231.5 79.5q119 0 202.5 -63t100.5 -167h-174q-26 103 -135 103q-69 0 -115 -50t-59 -124q-14 -84 23 -141.5t118 -57.5q102 0 152 102h174q-33 -102 -123 -164.5t-209 -62.5z" />
    <glyph glyph-name="d.numr" horiz-adv-x="739" 
d="M385 651q-143 0 -217.5 90t-48.5 234q21 116 104 196t217 80h176l35 203h172l-127 -717q-7 -40 -37 -63t-71 -23h-203zM291 967q-14 -82 17.5 -134.5t123.5 -52.5h103l59 342h-129q-69 0 -115.5 -41.5t-58.5 -113.5z" />
    <glyph glyph-name="e.numr" horiz-adv-x="737" 
d="M420 639q-156 0 -242 98.5t-61 241.5q22 124 116.5 204.5t231.5 80.5q68 0 128.5 -24t105 -67t63 -111.5t0.5 -150.5h-479q2 -66 34.5 -108.5t104.5 -42.5q100 0 147 86h176q-42 -100 -127.5 -153.5t-197.5 -53.5zM297 1018h307q-5 60 -43.5 96.5t-101.5 36.5
q-59 0 -101 -35t-61 -98z" />
    <glyph glyph-name="f.numr" horiz-adv-x="438" 
d="M254 1370q14 84 106 84h215l-20 -125h-139l-15 -78h140l-23 -131h-139l-82 -469h-170l82 469h-88l26 131h86z" />
    <glyph glyph-name="g.numr" horiz-adv-x="739" 
d="M111 449l20 124h365l16 91h-133q-140 0 -212.5 89.5t-47.5 229.5q20 116 102 192t215 76h258q38 0 61 -25.5t17 -62.5l-115 -631q-7 -40 -35 -61.5t-69 -21.5h-442zM291 975q-13 -79 18.5 -131.5t118.5 -52.5h107l57 329h-133q-67 0 -111.5 -38.5t-56.5 -106.5z" />
    <glyph glyph-name="h.numr" horiz-adv-x="716" 
d="M561 1012q10 60 -19.5 85t-90.5 25h-103l-82 -471h-168l142 803h168l-35 -203h151q107 0 166 -63.5t41 -169.5l-63 -367h-170z" />
    <glyph glyph-name="i.numr" horiz-adv-x="333" 
d="M102 651l103 600h174l-109 -600h-168zM221 1325l21 129h170l-23 -129h-168z" />
    <glyph glyph-name="j.numr" horiz-adv-x="333" 
d="M-70 449l23 124h133l119 678h172l-127 -714q-6 -37 -37 -62.5t-74 -25.5h-209zM219 1325l23 129h168l-21 -129h-170z" />
    <glyph glyph-name="k.numr" horiz-adv-x="688" 
d="M557 965l129 -306v-8h-180l-98 254h-97l-45 -254h-168l142 803h168l-74 -414h88l180 211h191l-5 -8l-225 -262z" />
    <glyph glyph-name="l.numr" horiz-adv-x="329" 
d="M266 651h-168l142 803h168z" />
    <glyph glyph-name="m.numr" horiz-adv-x="1069" 
d="M188 1169q6 37 34.5 59.5t68.5 22.5h583q103 0 164.5 -62t42.5 -171l-63 -367h-172l65 363q9 55 -18 81.5t-94 26.5h-72l-86 -471h-168l82 471h-203l-84 -471h-168z" />
    <glyph glyph-name="n.numr" horiz-adv-x="720" 
d="M188 1169q6 37 34.5 59.5t68.5 22.5h237q103 0 164.5 -61.5t42.5 -171.5l-63 -367h-172l65 361q9 55 -18 82.5t-94 27.5h-101l-84 -471h-168z" />
    <glyph glyph-name="o.numr" horiz-adv-x="741" 
d="M420 639q-155 0 -242 97t-61 245q22 122 116.5 202.5t231.5 80.5q151 0 240.5 -94t62.5 -248q-22 -125 -118 -204t-230 -79zM285 965q-14 -86 22.5 -143.5t118.5 -57.5q69 0 113 47.5t57 120.5q9 36 4.5 72.5t-17.5 66t-45 48t-79 18.5q-68 0 -114.5 -50t-59.5 -122z" />
    <glyph glyph-name="p.numr" horiz-adv-x="741" 
d="M190 1169q6 35 34 58.5t69 23.5h209q140 0 215.5 -90t48.5 -235q-22 -118 -107 -196.5t-219 -78.5h-170l-34 -202h-170zM293 780h129q72 0 117.5 45.5t58.5 116.5q8 46 0 84.5t-43 67t-96 28.5h-107z" />
    <glyph glyph-name="q.numr" horiz-adv-x="739" 
d="M473 449l37 202h-125q-142 0 -216.5 89t-49.5 231q21 119 103 199.5t218 80.5h256q40 0 60 -26.5t14 -61.5l-127 -714h-170zM291 965q-8 -34 -3.5 -67t17.5 -59.5t46 -42.5t81 -16h100l62 342h-129q-71 0 -116.5 -43t-57.5 -114z" />
    <glyph glyph-name="r.numr" horiz-adv-x="434" 
d="M188 1167q15 84 107 84h242l-23 -131h-164l-82 -469h-168z" />
    <glyph glyph-name="s.numr" horiz-adv-x="645" 
d="M360 639q-128 0 -197 55t-71 152h162q3 -50 35.5 -72t79.5 -22q49 0 81.5 16.5t36.5 46.5q5 28 -13 46t-50.5 27t-72.5 16.5t-79 20.5t-69 33t-44.5 59t-4.5 95q11 67 83 109.5t181 42.5q128 0 196 -56t70 -147h-162q-3 92 -114 92q-87 0 -93 -53q-6 -29 19 -49t66 -29.5
t88.5 -25t87.5 -34.5t61.5 -60t11.5 -99q-12 -74 -91.5 -119t-197.5 -45z" />
    <glyph glyph-name="t.numr" horiz-adv-x="446" 
d="M528 1251l-22 -131h-125l-62 -344h125l-22 -125h-197q-36 0 -61.5 26.5t-18.5 67.5l66 375h-88l22 131h91l26 152h168l-27 -152h125z" />
    <glyph glyph-name="u.numr" horiz-adv-x="696" 
d="M664 733q-7 -39 -36 -60.5t-67 -21.5h-225q-104 0 -165 62t-42 172l64 366h172l-66 -360q-19 -111 111 -111h90l84 471h168z" />
    <glyph glyph-name="v.numr" horiz-adv-x="681" 
d="M238 651l-99 588l2 12h176l39 -336l13 -129h26l60 129l157 336h176l-2 -12l-305 -588h-243z" />
    <glyph glyph-name="w.numr" horiz-adv-x="1107" 
d="M219 651l-76 588l2 12h164l25 -336l8 -131h23l51 131l141 336h240l22 -336l6 -131h23l53 131l143 336h168l-2 -12l-282 -588h-236l-20 336l-4 131h-25l-53 -131l-135 -336h-236z" />
    <glyph glyph-name="x.numr" horiz-adv-x="702" 
d="M580 946l120 -287v-8h-178l-86 236h-43l-168 -236h-184v8l217 287l8 23l-121 274l-2 8h181l86 -233h45l168 233h184v-8l-219 -274z" />
    <glyph glyph-name="y.numr" horiz-adv-x="684" 
d="M90 449l23 124h190l39 89h-104l-97 579v10h176l41 -336l13 -129h24l60 129l157 336h179l-3 -10l-368 -717q-22 -43 -50.5 -59t-72.5 -16h-207z" />
    <glyph glyph-name="z.numr" horiz-adv-x="614" 
d="M61 651l19 119l383 350h-307l22 131h512l-20 -121l-379 -348h321l-22 -131h-529z" />
    <glyph glyph-name="a.dnom.ss01" horiz-adv-x="692" 
d="M178 -12q-106 0 -160.5 57.5t-37.5 149.5q25 141 256 157l194 15l6 30q8 47 -18.5 74t-85.5 27q-101 0 -121 -88h-166q13 102 93 152t198 50q138 0 208 -63.5t50 -171.5l-70 -377h-133v68h-4q-88 -80 -209 -80zM145 180q-6 -37 21.5 -58.5t71.5 -21.5q61 0 108.5 30.5
t56.5 78.5l11 53l-146 -12q-59 -5 -88 -21t-35 -49z" />
    <glyph glyph-name="b.dnom.ss01" horiz-adv-x="776" 
d="M375 -12q-67 0 -124 24.5t-89 73.5l-15 -86h-163l141 803h168l-43 -260q72 69 182 69q92 0 156.5 -48t89.5 -126t8 -168q-23 -124 -105.5 -203t-205.5 -79zM201 311q-14 -86 23 -142t120 -56q69 0 113 47.5t57 120.5q9 53 0.5 97t-44 75.5t-97.5 31.5q-69 0 -114 -50.5
t-58 -123.5z" />
    <glyph glyph-name="d.dnom.ss01" horiz-adv-x="778" 
d="M258 -12q-133 0 -205.5 95t-46.5 243q23 125 104 205.5t203 80.5q137 0 209 -96l51 287h168l-141 -803h-162l11 66q-78 -78 -191 -78zM178 317q-8 -33 -3 -69t17 -66t45 -49.5t82 -19.5q67 0 114.5 49t58.5 121q9 51 1 94t-44 75.5t-99 32.5q-67 0 -113.5 -47t-58.5 -121
z" />
    <glyph glyph-name="g.dnom.ss01" horiz-adv-x="778" 
d="M4 -203l21 125h395l31 168q-77 -72 -191 -72q-138 0 -208.5 93t-45.5 231q21 119 104.5 194.5t206.5 75.5q141 0 211 -98l15 86h166l-125 -719q-7 -41 -36 -62.5t-71 -21.5h-473zM180 328q-15 -85 24 -135t118 -50q68 0 114.5 47t59.5 117q14 77 -25.5 127.5t-118.5 50.5
q-67 0 -114 -44.5t-58 -112.5z" />
    <glyph glyph-name="h.dnom.ss01" horiz-adv-x="727" 
d="M-16 0l141 803h168l-47 -273q74 82 184 82q103 0 160 -64.5t37 -178.5l-64 -369h-172l66 367q20 118 -95 118q-59 0 -97.5 -31.5t-47.5 -86.5l-65 -367h-168z" />
    <glyph glyph-name="m.dnom.ss01" horiz-adv-x="1132" 
d="M-12 0l104 600h156l-12 -70h6q73 82 190 82q59 0 106 -26.5t70 -77.5q74 104 230 104q104 0 159 -68.5t35 -176.5l-65 -367h-170l65 369q20 116 -90 116q-125 0 -145 -118l-64 -367h-170l64 367q20 118 -90 118q-61 0 -98 -31t-48 -87l-65 -367h-168z" />
    <glyph glyph-name="n.dnom.ss01" horiz-adv-x="731" 
d="M246 528q76 84 186 84q103 0 161 -64t38 -177l-66 -371h-170l66 369q20 116 -94 116q-60 0 -97.5 -31.5t-48.5 -86.5l-65 -367h-168l104 600h162l-12 -72h4z" />
    <glyph glyph-name="p.dnom.ss01" horiz-adv-x="778" 
d="M-49 -203l141 803h166l-10 -61q73 73 186 73q96 0 160 -49t86.5 -127.5t5.5 -171.5q-21 -121 -104.5 -198.5t-204.5 -77.5q-64 0 -119 23.5t-88 66.5l-49 -281h-170zM205 317q-8 -35 -3 -71t18.5 -65.5t46 -48.5t79.5 -19q70 0 114.5 49t57.5 123q14 81 -19.5 140.5
t-123.5 59.5q-66 0 -111.5 -48.5t-58.5 -119.5z" />
    <glyph glyph-name="q.dnom.ss01" horiz-adv-x="774" 
d="M393 -203l45 260q-72 -69 -180 -69q-138 0 -208 99t-46 239q21 123 103.5 204.5t205.5 81.5q143 0 211 -102l17 90h164l-140 -803h-172zM176 315q-9 -31 -4 -67t18 -66t46 -49.5t81 -19.5q69 0 114 48.5t58 121.5q14 84 -19 143t-122 59q-66 0 -113 -48t-59 -122z" />
    <glyph glyph-name="r.dnom.ss01" horiz-adv-x="450" 
d="M246 528q37 41 68.5 56.5t93.5 15.5h30l-24 -141h-66q-55 0 -87 -23.5t-42 -79.5l-63 -356h-168l104 600h160l-10 -72h4z" />
    <glyph glyph-name="u.dnom.ss01" horiz-adv-x="724" 
d="M393 70q-71 -82 -184 -82q-103 0 -159 67t-36 174l66 371h170l-66 -369q-10 -60 15 -89t77 -29q57 0 95.5 30t48.5 90l63 367h172l-106 -600h-162l12 70h-6z" />
    <glyph glyph-name="a.numr.ss01" horiz-adv-x="692" 
d="M293 639q-106 0 -161 57.5t-38 149.5q25 142 256 158l195 14l6 31q9 49 -20.5 74.5t-84.5 25.5q-52 0 -80.5 -21t-39.5 -67h-166q13 102 93 152.5t198 50.5q138 0 208 -63.5t50 -172.5l-70 -377h-133v68h-4q-88 -80 -209 -80zM260 831q-6 -37 21 -58t71 -21
q62 0 109.5 30t56.5 78l10 53l-145 -12q-59 -5 -88 -21t-35 -49z" />
    <glyph glyph-name="b.numr.ss01" horiz-adv-x="776" 
d="M489 639q-67 0 -124 24.5t-89 73.5l-14 -86h-164l142 803h168l-43 -260q73 70 182 70q92 0 156.5 -48t89.5 -126t8 -168q-23 -124 -106 -203.5t-206 -79.5zM315 963q-14 -86 23.5 -142.5t120.5 -56.5q69 0 113 47.5t57 120.5q9 53 0.5 97t-44.5 76t-98 32
q-69 0 -114 -50.5t-58 -123.5z" />
    <glyph glyph-name="d.numr.ss01" horiz-adv-x="778" 
d="M373 639q-133 0 -205.5 95t-46.5 243q23 125 104 206t203 81q137 0 209 -97l51 287h168l-141 -803h-162l10 66q-78 -78 -190 -78zM293 969q-8 -33 -3 -69t17 -66.5t45 -50t82 -19.5q67 0 114 49t58 121q8 34 3.5 70.5t-18 65.5t-46 48t-80.5 19q-67 0 -113.5 -47
t-58.5 -121z" />
    <glyph glyph-name="g.numr.ss01" horiz-adv-x="778" 
d="M119 449l20 124h396l30 168q-76 -71 -190 -71q-138 0 -208.5 92.5t-45.5 230.5q21 119 104.5 195t206.5 76q140 0 211 -99l14 86h166l-125 -719q-7 -41 -35.5 -62t-70.5 -21h-473zM295 979q-15 -85 23.5 -134.5t117.5 -49.5q68 0 114.5 47t59.5 116q14 78 -25.5 128.5
t-117.5 50.5q-67 0 -114 -45t-58 -113z" />
    <glyph glyph-name="h.numr.ss01" horiz-adv-x="727" 
d="M98 651l142 803h168l-48 -272q74 82 185 82q102 0 159 -65t37 -179l-63 -369h-172l65 367q20 119 -94 119q-59 0 -97.5 -32t-47.5 -87l-66 -367h-168z" />
    <glyph glyph-name="m.numr.ss01" horiz-adv-x="1132" 
d="M102 651l105 600h155l-12 -69h6q73 82 191 82q59 0 106 -27t70 -78q75 105 229 105q104 0 159.5 -69t35.5 -177l-66 -367h-170l66 369q20 117 -90 117q-59 0 -97.5 -29.5t-48.5 -89.5l-63 -367h-170l63 367q20 119 -90 119q-122 0 -145 -119l-66 -367h-168z" />
    <glyph glyph-name="n.numr.ss01" horiz-adv-x="731" 
d="M360 1180q76 84 187 84q103 0 160.5 -64.5t37.5 -177.5l-65 -371h-170l65 369q10 58 -15 87.5t-79 29.5q-60 0 -97 -31.5t-48 -87.5l-66 -367h-168l105 600h162l-13 -71h4z" />
    <glyph glyph-name="p.numr.ss01" horiz-adv-x="778" 
d="M66 449l141 802h166l-11 -61q74 74 187 74q96 0 160 -49.5t86.5 -128t5.5 -171.5q-21 -121 -104.5 -198.5t-204.5 -77.5q-64 0 -119 23.5t-88 66.5l-49 -280h-170zM319 969q-9 -50 -0.5 -94.5t44.5 -77.5t98 -33q70 0 114.5 49t57.5 123q14 81 -20 141t-124 60
q-66 0 -111.5 -48.5t-58.5 -119.5z" />
    <glyph glyph-name="q.numr.ss01" horiz-adv-x="774" 
d="M508 449l45 260q-73 -70 -180 -70q-138 0 -208 99t-46 239q21 123 103.5 205t205.5 82q143 0 211 -103l16 90h164l-139 -802h-172zM291 967q-9 -31 -4 -67t18 -66t46 -50t81 -20q69 0 114 48.5t58 121.5q14 84 -19 143.5t-122 59.5q-66 0 -113 -48t-59 -122z" />
    <glyph glyph-name="r.numr.ss01" horiz-adv-x="450" 
d="M360 1180q37 40 68.5 55.5t93.5 15.5h31l-25 -141h-65q-55 0 -87 -23t-42 -79l-64 -357h-168l105 600h160l-11 -71h4z" />
    <glyph glyph-name="u.numr.ss01" horiz-adv-x="724" 
d="M508 721q-71 -82 -184 -82q-103 0 -159 67.5t-36 174.5l66 370h170l-66 -368q-10 -61 15 -90t77 -29q59 0 97 32t47 89l63 366h172l-106 -600h-162l12 70h-6z" />
    <glyph glyph-name="a.dnom.ss01.ss02" horiz-adv-x="710" 
d="M170 -12q-84 0 -138.5 46t-54.5 124q0 92 62 138.5t190 55.5l187 15l6 30q8 41 -16 69t-78 28q-96 0 -115 -84h-168q14 102 94 152t197 50q126 0 195 -62t49 -171l-43 -248h73l-20 -131h-148q-65 0 -65 61v7h-2q-93 -80 -205 -80zM147 168q0 -30 24 -48t62 -18
q57 0 103 30t53 79l8 51l-135 -12q-37 -2 -58 -7t-39 -23.5t-18 -51.5z" />
    <glyph glyph-name="a.numr.ss01.ss02" horiz-adv-x="710" 
d="M285 639q-84 0 -138.5 46t-54.5 124q0 92 62 139t190 56l186 14l7 31q8 41 -16.5 68.5t-78.5 27.5q-95 0 -114 -84h-168q14 102 94.5 152.5t196.5 50.5q125 0 194 -62t49 -172l-43 -248h74l-20 -131h-148q-65 0 -65 62v6h-3q-93 -80 -204 -80zM262 819q0 -30 24 -47.5
t62 -17.5q57 0 103 29.5t53 78.5l8 51l-135 -12q-21 -2 -33.5 -3.5t-30 -6.5t-27.5 -13t-17 -23t-7 -36z" />
    <glyph glyph-name="i.loclTRK" horiz-adv-x="491" 
d="M39 0l192 1085h222l-193 -1085h-221zM256 1229l39 225h221l-39 -225h-221z" />
    <glyph glyph-name="uni006A0301" horiz-adv-x="493" 
d="M-270 -369l32 187h246l223 1267h222l-230 -1310q-12 -65 -58 -104.5t-116 -39.5h-319zM203 1200l256 254h295l-346 -254h-205z" />
    <glyph glyph-name="r.calt" horiz-adv-x="729" 
d="M205 950q23 135 166 135h385l-35 -190h-303l-158 -895h-221z" />
    <glyph glyph-name="racute.calt" horiz-adv-x="729" 
d="M205 950q23 135 166 135h385l-35 -190h-303l-158 -895h-221zM356 1200l256 254h295l-346 -254h-205z" />
    <glyph glyph-name="rcaron.calt" horiz-adv-x="729" 
d="M205 950q23 135 166 135h385l-35 -190h-303l-158 -895h-221zM229 1454h197l90 -129h33l135 129h211l-244 -254h-266z" />
    <glyph glyph-name="uni0157.calt" horiz-adv-x="729" 
d="M205 950q23 135 166 135h385l-35 -190h-303l-158 -895h-221zM-96 -430l114 336h224l-176 -336h-162z" />
    <glyph glyph-name="a.ss01" horiz-adv-x="1155" 
d="M385 -20q-121 0 -205.5 52.5t-118 138t-14.5 187.5q44 248 436 277l357 29l12 67q18 102 -39 151.5t-172 49.5q-106 0 -164.5 -42.5t-81.5 -135.5h-231q20 117 90.5 198t170 117.5t222.5 36.5q135 0 236.5 -44.5t152.5 -135.5t29 -215l-127 -711h-178l4 129h-8
q-157 -149 -371 -149zM272 334q-15 -85 36 -133.5t145 -48.5q127 0 223.5 65.5t116.5 173.5l20 113l-283 -29q-48 -5 -76.5 -9.5t-64.5 -14.5t-57 -23.5t-38 -37.5t-22 -56z" />
    <glyph glyph-name="aacute.ss01" horiz-adv-x="1155" 
d="M385 -20q-121 0 -205.5 52.5t-118 138t-14.5 187.5q44 248 436 277l357 29l12 67q18 102 -39 151.5t-172 49.5q-106 0 -164.5 -42.5t-81.5 -135.5h-231q20 117 90.5 198t170 117.5t222.5 36.5q135 0 236.5 -44.5t152.5 -135.5t29 -215l-127 -711h-178l4 129h-8
q-157 -149 -371 -149zM272 334q-15 -85 36 -133.5t145 -48.5q127 0 223.5 65.5t116.5 173.5l20 113l-283 -29q-48 -5 -76.5 -9.5t-64.5 -14.5t-57 -23.5t-38 -37.5t-22 -56zM512 1200l256 254h295l-346 -254h-205z" />
    <glyph glyph-name="abreve.ss01" horiz-adv-x="1155" 
d="M385 -20q-121 0 -205.5 52.5t-118 138t-14.5 187.5q44 248 436 277l357 29l12 67q18 102 -39 151.5t-172 49.5q-106 0 -164.5 -42.5t-81.5 -135.5h-231q20 117 90.5 198t170 117.5t222.5 36.5q135 0 236.5 -44.5t152.5 -135.5t29 -215l-127 -711h-178l4 129h-8
q-157 -149 -371 -149zM272 334q-15 -85 36 -133.5t145 -48.5q127 0 223.5 65.5t116.5 173.5l20 113l-283 -29q-48 -5 -76.5 -9.5t-64.5 -14.5t-57 -23.5t-38 -37.5t-22 -56zM559 1454q3 -121 129 -121q147 0 178 121h178q-23 -130 -121.5 -196t-248.5 -66
q-144 0 -221.5 75.5t-65.5 186.5h172z" />
    <glyph glyph-name="acircumflex.ss01" horiz-adv-x="1155" 
d="M385 -20q-121 0 -205.5 52.5t-118 138t-14.5 187.5q44 248 436 277l357 29l12 67q18 102 -39 151.5t-172 49.5q-106 0 -164.5 -42.5t-81.5 -135.5h-231q20 117 90.5 198t170 117.5t222.5 36.5q135 0 236.5 -44.5t152.5 -135.5t29 -215l-127 -711h-178l4 129h-8
q-157 -149 -371 -149zM272 334q-15 -85 36 -133.5t145 -48.5q127 0 223.5 65.5t116.5 173.5l20 113l-283 -29q-48 -5 -76.5 -9.5t-64.5 -14.5t-57 -23.5t-38 -37.5t-22 -56zM328 1200l245 254h267l153 -254h-196l-90 129h-31l-137 -129h-211z" />
    <glyph glyph-name="adieresis.ss01" horiz-adv-x="1155" 
d="M385 -20q-121 0 -205.5 52.5t-118 138t-14.5 187.5q44 248 436 277l357 29l12 67q18 102 -39 151.5t-172 49.5q-106 0 -164.5 -42.5t-81.5 -135.5h-231q20 117 90.5 198t170 117.5t222.5 36.5q135 0 236.5 -44.5t152.5 -135.5t29 -215l-127 -711h-178l4 129h-8
q-157 -149 -371 -149zM272 334q-15 -85 36 -133.5t145 -48.5q127 0 223.5 65.5t116.5 173.5l20 113l-283 -29q-48 -5 -76.5 -9.5t-64.5 -14.5t-57 -23.5t-38 -37.5t-22 -56zM371 1223l37 209h206l-36 -209h-207zM772 1223l37 209h207l-37 -209h-207z" />
    <glyph glyph-name="agrave.ss01" horiz-adv-x="1155" 
d="M385 -20q-121 0 -205.5 52.5t-118 138t-14.5 187.5q44 248 436 277l357 29l12 67q18 102 -39 151.5t-172 49.5q-106 0 -164.5 -42.5t-81.5 -135.5h-231q20 117 90.5 198t170 117.5t222.5 36.5q135 0 236.5 -44.5t152.5 -135.5t29 -215l-127 -711h-178l4 129h-8
q-157 -149 -371 -149zM272 334q-15 -85 36 -133.5t145 -48.5q127 0 223.5 65.5t116.5 173.5l20 113l-283 -29q-48 -5 -76.5 -9.5t-64.5 -14.5t-57 -23.5t-38 -37.5t-22 -56zM377 1454h276l174 -254h-196z" />
    <glyph glyph-name="amacron.ss01" horiz-adv-x="1155" 
d="M385 -20q-121 0 -205.5 52.5t-118 138t-14.5 187.5q44 248 436 277l357 29l12 67q18 102 -39 151.5t-172 49.5q-106 0 -164.5 -42.5t-81.5 -135.5h-231q20 117 90.5 198t170 117.5t222.5 36.5q135 0 236.5 -44.5t152.5 -135.5t29 -215l-127 -711h-178l4 129h-8
q-157 -149 -371 -149zM272 334q-15 -85 36 -133.5t145 -48.5q127 0 223.5 65.5t116.5 173.5l20 113l-283 -29q-48 -5 -76.5 -9.5t-64.5 -14.5t-57 -23.5t-38 -37.5t-22 -56zM360 1247l27 160h637l-29 -160h-635z" />
    <glyph glyph-name="aogonek.ss01" horiz-adv-x="1155" 
d="M385 -20q-121 0 -205.5 52.5t-118 138t-14.5 187.5q44 248 436 277l357 29l12 67q18 102 -39 151.5t-172 49.5q-106 0 -164.5 -42.5t-81.5 -135.5h-231q20 117 90.5 198t170 117.5t222.5 36.5q135 0 236.5 -44.5t152.5 -135.5t29 -215l-127 -711q-188 -59 -188 -135
q0 -47 81 -47h70l-33 -187h-94q-110 0 -166.5 44.5t-56.5 113.5q0 165 211 248l2 92h-8q-157 -149 -371 -149zM272 334q-15 -85 36 -133.5t145 -48.5q127 0 223.5 65.5t116.5 173.5l20 113l-283 -29q-48 -5 -76.5 -9.5t-64.5 -14.5t-57 -23.5t-38 -37.5t-22 -56z" />
    <glyph glyph-name="aring.ss01" horiz-adv-x="1155" 
d="M385 -20q-121 0 -205.5 52.5t-118 138t-14.5 187.5q44 248 436 277l357 29l12 67q18 102 -39 151.5t-172 49.5q-106 0 -164.5 -42.5t-81.5 -135.5h-231q20 117 90.5 198t170 117.5t222.5 36.5q135 0 236.5 -44.5t152.5 -135.5t29 -215l-127 -711h-178l4 129h-8
q-157 -149 -371 -149zM272 334q-15 -85 36 -133.5t145 -48.5q127 0 223.5 65.5t116.5 173.5l20 113l-283 -29q-48 -5 -76.5 -9.5t-64.5 -14.5t-57 -23.5t-38 -37.5t-22 -56zM496 1374q0 85 58.5 142t147.5 57q90 0 148.5 -57t58.5 -142q0 -89 -58.5 -144.5t-148.5 -55.5
q-89 0 -147.5 56t-58.5 144zM608 1374q0 -43 27.5 -69.5t66.5 -26.5q40 0 67.5 26.5t27.5 69.5q0 37 -27.5 63.5t-67.5 26.5t-67 -25.5t-27 -64.5z" />
    <glyph glyph-name="aringacute.ss01" horiz-adv-x="1155" 
d="M385 -20q-121 0 -205.5 52.5t-118 138t-14.5 187.5q44 248 436 277l357 29l12 67q18 102 -39 151.5t-172 49.5q-106 0 -164.5 -42.5t-81.5 -135.5h-231q20 117 90.5 198t170 117.5t222.5 36.5q135 0 236.5 -44.5t152.5 -135.5t29 -215l-127 -711h-178l4 129h-8
q-157 -149 -371 -149zM272 334q-15 -85 36 -133.5t145 -48.5q127 0 223.5 65.5t116.5 173.5l20 113l-283 -29q-48 -5 -76.5 -9.5t-64.5 -14.5t-57 -23.5t-38 -37.5t-22 -56zM451 1352q0 85 58.5 141.5t147.5 56.5q90 0 148.5 -56.5t58.5 -141.5q0 -89 -58.5 -145t-148.5 -56
q-89 0 -147.5 56.5t-58.5 144.5zM563 1352q0 -43 27.5 -70t66.5 -27t67 27t28 70q0 37 -27.5 63.5t-67.5 26.5t-67 -25.5t-27 -64.5zM590 1593l256 254h295l-346 -254h-205z" />
    <glyph glyph-name="atilde.ss01" horiz-adv-x="1155" 
d="M385 -20q-121 0 -205.5 52.5t-118 138t-14.5 187.5q44 248 436 277l357 29l12 67q18 102 -39 151.5t-172 49.5q-106 0 -164.5 -42.5t-81.5 -135.5h-231q20 117 90.5 198t170 117.5t222.5 36.5q135 0 236.5 -44.5t152.5 -135.5t29 -215l-127 -711h-178l4 129h-8
q-157 -149 -371 -149zM272 334q-15 -85 36 -133.5t145 -48.5q127 0 223.5 65.5t116.5 173.5l20 113l-283 -29q-48 -5 -76.5 -9.5t-64.5 -14.5t-57 -23.5t-38 -37.5t-22 -56zM297 1198q24 111 93.5 185.5t160.5 74.5q46 0 89.5 -18.5t70.5 -40t58 -40t54 -18.5q79 0 101 109
h170q-24 -110 -93.5 -185t-160.5 -75q-46 0 -89.5 18.5t-70.5 40t-57.5 40t-53.5 18.5q-43 0 -67 -27t-35 -82h-170z" />
    <glyph glyph-name="ae.ss01" horiz-adv-x="1968" 
d="M430 -20q-197 0 -305.5 100t-77.5 278q43 245 434 277l357 31l10 65q17 101 -39 150t-170 49q-107 0 -164.5 -42t-79.5 -134h-231q30 174 161 263t320 89q122 0 219 -39.5t148 -108.5q69 70 166 109t211 39q115 0 215.5 -41.5t173 -121t101 -196.5t-2.5 -268h-852
q1 -64 17 -119t48 -101.5t88.5 -73.5t131.5 -27q93 0 169 48t119 132h242q-75 -174 -213 -266t-319 -92q-140 0 -248.5 55t-167.5 153q-81 -103 -201.5 -155.5t-259.5 -52.5zM270 334q-15 -85 36.5 -132.5t144.5 -47.5q130 0 226 65.5t114 173.5l18 109l-281 -27
q-44 -4 -74 -8t-65 -13.5t-57 -24t-39.5 -38.5t-22.5 -57zM1049 649h622q-8 124 -86.5 203.5t-200.5 79.5q-121 0 -208.5 -79t-126.5 -204z" />
    <glyph glyph-name="aeacute.ss01" horiz-adv-x="1968" 
d="M430 -20q-197 0 -305.5 100t-77.5 278q43 245 434 277l357 31l10 65q17 101 -39 150t-170 49q-107 0 -164.5 -42t-79.5 -134h-231q30 174 161 263t320 89q122 0 219 -39.5t148 -108.5q69 70 166 109t211 39q115 0 215.5 -41.5t173 -121t101 -196.5t-2.5 -268h-852
q1 -64 17 -119t48 -101.5t88.5 -73.5t131.5 -27q93 0 169 48t119 132h242q-75 -174 -213 -266t-319 -92q-140 0 -248.5 55t-167.5 153q-81 -103 -201.5 -155.5t-259.5 -52.5zM270 334q-15 -85 36.5 -132.5t144.5 -47.5q130 0 226 65.5t114 173.5l18 109l-281 -27
q-44 -4 -74 -8t-65 -13.5t-57 -24t-39.5 -38.5t-22.5 -57zM905 1200l256 254h295l-346 -254h-205zM1049 649h622q-8 124 -86.5 203.5t-200.5 79.5q-121 0 -208.5 -79t-126.5 -204z" />
    <glyph glyph-name="b.ss01" horiz-adv-x="1300" 
d="M662 -20q-122 0 -221.5 47t-155.5 135l-27 -162h-219l256 1454h221l-82 -485q134 137 328 137q164 0 276 -87t153.5 -228t12.5 -308q-39 -222 -186 -362.5t-356 -140.5zM350 573q-10 -45 -7.5 -93t11.5 -94t32.5 -87t55.5 -72t81.5 -49t109.5 -18q139 0 229.5 97.5
t118.5 250.5q8 58 8.5 116.5t-19 113t-51.5 96.5t-88 67t-129 25q-136 0 -229.5 -98t-122.5 -255z" />
    <glyph glyph-name="d.ss01" horiz-adv-x="1302" 
d="M535 -20q-99 0 -181 34t-135.5 93.5t-88.5 138.5t-40.5 168.5t8.5 185.5q38 219 185 362.5t356 143.5q243 0 375 -174l92 522h221l-256 -1454h-219l22 123q-140 -143 -339 -143zM322 582q-8 -59 -8.5 -118t19 -114t51.5 -97t88 -67.5t128 -25.5q138 0 231 99.5t119 248.5
q9 46 8.5 93.5t-9 95t-30.5 88.5t-54.5 72.5t-82.5 50t-112 18.5q-135 0 -228.5 -98.5t-119.5 -245.5z" />
    <glyph glyph-name="dcaron.ss01" horiz-adv-x="1302" 
d="M535 -20q-99 0 -181 34t-135.5 93.5t-88.5 138.5t-40.5 168.5t8.5 185.5q38 219 185 362.5t356 143.5q243 0 375 -174l92 522h221l-256 -1454h-219l22 123q-140 -143 -339 -143zM322 582q-8 -59 -8.5 -118t19 -114t51.5 -97t88 -67.5t128 -25.5q138 0 231 99.5t119 248.5
q9 46 8.5 93.5t-9 95t-30.5 88.5t-54.5 72.5t-82.5 50t-112 18.5q-135 0 -228.5 -98.5t-119.5 -245.5zM1350 1139l94 315h231l-168 -315h-157z" />
    <glyph glyph-name="dcroat.ss01" horiz-adv-x="1302" 
d="M535 -20q-99 0 -181 34t-135.5 93.5t-88.5 138.5t-40.5 168.5t8.5 185.5q38 219 185 362.5t356 143.5q243 0 375 -174l41 239h-238l27 156h239l23 127h221l-22 -127h163l-28 -156h-162l-207 -1171h-219l22 123q-140 -143 -339 -143zM322 582q-8 -59 -8.5 -118t19 -114
t51.5 -97t88 -67.5t128 -25.5q138 0 231 99.5t119 248.5q9 46 8.5 93.5t-9 95t-30.5 88.5t-54.5 72.5t-82.5 50t-112 18.5q-135 0 -228.5 -98.5t-119.5 -245.5z" />
    <glyph glyph-name="g.ss01" horiz-adv-x="1304" 
d="M84 -369l33 187h704l62 350q-135 -135 -338 -135q-85 0 -157 22t-124 61.5t-91 94.5t-57.5 120.5t-24 140t10.5 153.5q38 212 184 346.5t359 134.5q249 0 375 -174l27 153h219l-232 -1312q-12 -68 -57 -105t-111 -37h-782zM324 596q-29 -162 47 -272.5t235 -110.5
q135 0 230.5 94.5t119.5 235.5q30 174 -51.5 278.5t-228.5 104.5q-139 0 -232.5 -94t-119.5 -236z" />
    <glyph glyph-name="gbreve.ss01" horiz-adv-x="1304" 
d="M84 -369l33 187h704l62 350q-135 -135 -338 -135q-85 0 -157 22t-124 61.5t-91 94.5t-57.5 120.5t-24 140t10.5 153.5q38 212 184 346.5t359 134.5q249 0 375 -174l27 153h219l-232 -1312q-12 -68 -57 -105t-111 -37h-782zM324 596q-29 -162 47 -272.5t235 -110.5
q135 0 230.5 94.5t119.5 235.5q30 174 -51.5 278.5t-228.5 104.5q-139 0 -232.5 -94t-119.5 -236zM618 1454q1 -63 36.5 -92t93.5 -29q147 0 178 121h178q-23 -129 -122 -195.5t-249 -66.5q-144 0 -221.5 75.5t-65.5 186.5h172z" />
    <glyph glyph-name="gcircumflex.ss01" horiz-adv-x="1304" 
d="M84 -369l33 187h704l62 350q-135 -135 -338 -135q-85 0 -157 22t-124 61.5t-91 94.5t-57.5 120.5t-24 140t10.5 153.5q38 212 184 346.5t359 134.5q249 0 375 -174l27 153h219l-232 -1312q-12 -68 -57 -105t-111 -37h-782zM324 596q-29 -162 47 -272.5t235 -110.5
q135 0 230.5 94.5t119.5 235.5q30 174 -51.5 278.5t-228.5 104.5q-139 0 -232.5 -94t-119.5 -236zM385 1200l246 254h266l154 -254h-197l-90 129h-31l-137 -129h-211z" />
    <glyph glyph-name="uni0123.ss01" horiz-adv-x="1304" 
d="M84 -369l33 187h704l62 350q-135 -135 -338 -135q-85 0 -157 22t-124 61.5t-91 94.5t-57.5 120.5t-24 140t10.5 153.5q38 212 184 346.5t359 134.5q249 0 375 -174l27 153h219l-232 -1312q-12 -68 -57 -105t-111 -37h-782zM324 596q-29 -162 47 -272.5t235 -110.5
q135 0 230.5 94.5t119.5 235.5q30 174 -51.5 278.5t-228.5 104.5q-139 0 -232.5 -94t-119.5 -236zM582 1200l292 254h195l-207 -254h-280z" />
    <glyph glyph-name="gdotaccent.ss01" horiz-adv-x="1304" 
d="M84 -369l33 187h704l62 350q-135 -135 -338 -135q-85 0 -157 22t-124 61.5t-91 94.5t-57.5 120.5t-24 140t10.5 153.5q38 212 184 346.5t359 134.5q249 0 375 -174l27 153h219l-232 -1312q-12 -68 -57 -105t-111 -37h-782zM324 596q-29 -162 47 -272.5t235 -110.5
q135 0 230.5 94.5t119.5 235.5q30 174 -51.5 278.5t-228.5 104.5q-139 0 -232.5 -94t-119.5 -236zM621 1229l38 225h222l-39 -225h-221z" />
    <glyph glyph-name="h.ss01" horiz-adv-x="1191" 
d="M39 0l256 1454h221l-86 -496h6q69 80 147 114t179 34q86 0 155.5 -28.5t116 -84t64 -137.5t-1.5 -188l-119 -668h-221l116 666q23 129 -26 194.5t-164 65.5q-119 0 -200 -68.5t-105 -204.5l-117 -653h-221z" />
    <glyph glyph-name="hbar.ss01" horiz-adv-x="1191" 
d="M39 0l207 1171h-162l27 156h161l23 127h221l-22 -127h241l-28 -156h-240l-37 -213h6q69 80 147 114t179 34q86 0 155.5 -28.5t116 -84t64 -137.5t-1.5 -188l-119 -668h-221l116 666q23 129 -26 194.5t-164 65.5q-119 0 -200 -68.5t-105 -204.5l-117 -653h-221z" />
    <glyph glyph-name="hcircumflex.ss01" horiz-adv-x="1191" 
d="M39 0l256 1454h221l-86 -496h6q69 80 147 114t179 34q86 0 155.5 -28.5t116 -84t64 -137.5t-1.5 -188l-119 -668h-221l116 666q23 129 -26 194.5t-164 65.5q-119 0 -200 -68.5t-105 -204.5l-117 -653h-221zM80 1561l246 243h266l153 -243h-196l-90 118h-31l-137 -118
h-211z" />
    <glyph glyph-name="m.ss01" horiz-adv-x="1894" 
d="M39 0l192 1085h213l-22 -127h12q69 80 146.5 114t181.5 34t183 -45.5t116 -132.5q131 178 407 178q183 0 274.5 -117.5t55.5 -318.5l-119 -670h-221l117 668q46 258 -182 258q-124 0 -204 -68.5t-104 -204.5l-114 -653h-221l116 666q47 260 -184 260q-121 0 -201 -68
t-104 -205l-117 -653h-221z" />
    <glyph glyph-name="n.ss01" horiz-adv-x="1191" 
d="M39 0l192 1085h218l-23 -129h8q68 81 147 115.5t181 34.5q86 0 155.5 -28.5t116 -84t64 -137.5t-1.5 -188l-119 -668h-221l116 666q23 129 -26 194.5t-164 65.5q-119 0 -200 -68.5t-105 -204.5l-117 -653h-221z" />
    <glyph glyph-name="nacute.ss01" horiz-adv-x="1191" 
d="M39 0l192 1085h218l-23 -129h8q68 81 147 115.5t181 34.5q86 0 155.5 -28.5t116 -84t64 -137.5t-1.5 -188l-119 -668h-221l116 666q23 129 -26 194.5t-164 65.5q-119 0 -200 -68.5t-105 -204.5l-117 -653h-221zM571 1200l256 254h295l-346 -254h-205z" />
    <glyph glyph-name="ncaron.ss01" horiz-adv-x="1191" 
d="M39 0l192 1085h218l-23 -129h8q68 81 147 115.5t181 34.5q86 0 155.5 -28.5t116 -84t64 -137.5t-1.5 -188l-119 -668h-221l116 666q23 129 -26 194.5t-164 65.5q-119 0 -200 -68.5t-105 -204.5l-117 -653h-221zM444 1454h197l90 -129h33l135 129h211l-244 -254h-266z" />
    <glyph glyph-name="uni0146.ss01" horiz-adv-x="1191" 
d="M39 0l192 1085h218l-23 -129h8q68 81 147 115.5t181 34.5q86 0 155.5 -28.5t116 -84t64 -137.5t-1.5 -188l-119 -668h-221l116 666q23 129 -26 194.5t-164 65.5q-119 0 -200 -68.5t-105 -204.5l-117 -653h-221zM276 -430l115 336h223l-176 -336h-162z" />
    <glyph glyph-name="eng.ss01" horiz-adv-x="1191" 
d="M444 -369l33 187h246l149 846q24 131 -27 196.5t-163 65.5q-124 0 -204 -72t-103 -203l-115 -651h-221l192 1085h218l-23 -127h8q69 80 146.5 114t181.5 34q181 0 275.5 -119t58.5 -319l-160 -895q-12 -66 -57.5 -104t-114.5 -38h-320z" />
    <glyph glyph-name="ntilde.ss01" horiz-adv-x="1191" 
d="M39 0l192 1085h218l-23 -129h8q68 81 147 115.5t181 34.5q86 0 155.5 -28.5t116 -84t64 -137.5t-1.5 -188l-119 -668h-221l116 666q23 129 -26 194.5t-164 65.5q-119 0 -200 -68.5t-105 -204.5l-117 -653h-221zM356 1198q24 111 93.5 185.5t160.5 74.5q46 0 89.5 -18.5
t71 -40t58.5 -40t54 -18.5q78 0 100 109h170q-24 -110 -93.5 -185t-160.5 -75q-46 0 -89 18.5t-70.5 40t-57.5 40t-53 18.5q-81 0 -103 -109h-170z" />
    <glyph glyph-name="p.ss01" horiz-adv-x="1300" 
d="M-25 -369l256 1454h220l-21 -118q136 139 332 139q83 0 154.5 -24t123.5 -66t91.5 -100.5t58.5 -127t24.5 -145.5t-10.5 -156q-42 -229 -189 -368t-353 -139q-120 0 -217.5 45.5t-155.5 130.5l-92 -525h-222zM350 573q-8 -58 -7 -116t21.5 -111.5t53 -95t88.5 -66
t127 -24.5q140 0 231 98t119 252q10 47 8 96t-11 95.5t-32.5 87t-55.5 71t-81 48.5t-109 18q-140 0 -232 -100.5t-120 -252.5z" />
    <glyph glyph-name="thorn.ss01" horiz-adv-x="1300" 
d="M-25 -369l320 1823h221l-82 -485q134 137 328 137q84 0 155.5 -23.5t123.5 -65.5t91.5 -100t58.5 -127.5t24 -147.5t-11 -159q-39 -222 -186 -362.5t-356 -140.5q-120 0 -217.5 45.5t-155.5 130.5l-92 -525h-222zM350 569q-7 -55 -6.5 -111.5t21 -110t52.5 -95t87.5 -67
t126.5 -25.5q140 0 232 98.5t118 251.5q10 46 8.5 94.5t-9.5 95t-31 87.5t-54 72t-80 49t-110 18q-141 0 -234 -101.5t-121 -255.5z" />
    <glyph glyph-name="q.ss01" horiz-adv-x="1300" 
d="M784 -369l84 488q-136 -139 -327 -139q-166 0 -278.5 89t-153 229.5t-11.5 303.5q38 217 185.5 360.5t355.5 143.5q119 0 215.5 -46t159.5 -132l28 157h220l-256 -1454h-222zM322 580q-9 -61 -8.5 -120.5t21 -114t53 -95.5t87.5 -65.5t125 -24.5q140 0 232 99.5
t118 250.5q9 64 8 124t-21.5 113t-53.5 93t-88 63t-125 23q-135 0 -228.5 -99.5t-119.5 -246.5z" />
    <glyph glyph-name="r.ss01" horiz-adv-x="741" 
d="M41 0l190 1085h218l-23 -131h8q59 77 113 104t153 27h66l-35 -200h-82q-125 0 -187 -51.5t-85 -178.5l-115 -655h-221z" />
    <glyph glyph-name="racute.ss01" horiz-adv-x="741" 
d="M41 0l190 1085h218l-23 -131h8q59 77 113 104t153 27h66l-35 -200h-82q-125 0 -187 -51.5t-85 -178.5l-115 -655h-221zM350 1200l256 254h295l-346 -254h-205z" />
    <glyph glyph-name="rcaron.ss01" horiz-adv-x="741" 
d="M41 0l190 1085h218l-23 -131h8q59 77 113 104t153 27h66l-35 -200h-82q-125 0 -187 -51.5t-85 -178.5l-115 -655h-221zM223 1454h197l90 -129h33l135 129h211l-244 -254h-266z" />
    <glyph glyph-name="uni0157.ss01" horiz-adv-x="741" 
d="M41 0l190 1085h218l-23 -131h8q59 77 113 104t153 27h66l-35 -200h-82q-125 0 -187 -51.5t-85 -178.5l-115 -655h-221zM-84 -430l115 336h223l-176 -336h-162z" />
    <glyph glyph-name="u.ss01" horiz-adv-x="1185" 
d="M428 -20q-184 0 -276 119t-56 319l119 667h221l-117 -665q-24 -133 26.5 -196.5t160.5 -63.5q120 0 199.5 68t103.5 204l117 653h221l-193 -1085h-217l23 129h-8q-69 -81 -144.5 -115t-179.5 -34z" />
    <glyph glyph-name="uacute.ss01" horiz-adv-x="1185" 
d="M428 -20q-184 0 -276 119t-56 319l119 667h221l-117 -665q-24 -133 26.5 -196.5t160.5 -63.5q120 0 199.5 68t103.5 204l117 653h221l-193 -1085h-217l23 129h-8q-69 -81 -144.5 -115t-179.5 -34zM543 1200l256 254h295l-346 -254h-205z" />
    <glyph glyph-name="ubreve.ss01" horiz-adv-x="1185" 
d="M428 -20q-184 0 -276 119t-56 319l119 667h221l-117 -665q-24 -133 26.5 -196.5t160.5 -63.5q120 0 199.5 68t103.5 204l117 653h221l-193 -1085h-217l23 129h-8q-69 -81 -144.5 -115t-179.5 -34zM590 1454q3 -121 129 -121q147 0 178 121h178q-23 -130 -121.5 -196
t-248.5 -66q-144 0 -221.5 75.5t-65.5 186.5h172z" />
    <glyph glyph-name="ucircumflex.ss01" horiz-adv-x="1185" 
d="M428 -20q-184 0 -276 119t-56 319l119 667h221l-117 -665q-24 -133 26.5 -196.5t160.5 -63.5q120 0 199.5 68t103.5 204l117 653h221l-193 -1085h-217l23 129h-8q-69 -81 -144.5 -115t-179.5 -34zM358 1200l246 254h266l154 -254h-197l-90 129h-30l-138 -129h-211z" />
    <glyph glyph-name="udieresis.ss01" horiz-adv-x="1185" 
d="M428 -20q-184 0 -276 119t-56 319l119 667h221l-117 -665q-24 -133 26.5 -196.5t160.5 -63.5q120 0 199.5 68t103.5 204l117 653h221l-193 -1085h-217l23 129h-8q-69 -81 -144.5 -115t-179.5 -34zM401 1223l37 209h207l-37 -209h-207zM803 1223l37 209h207l-37 -209h-207
z" />
    <glyph glyph-name="ugrave.ss01" horiz-adv-x="1185" 
d="M428 -20q-184 0 -276 119t-56 319l119 667h221l-117 -665q-24 -133 26.5 -196.5t160.5 -63.5q120 0 199.5 68t103.5 204l117 653h221l-193 -1085h-217l23 129h-8q-69 -81 -144.5 -115t-179.5 -34zM408 1454h276l174 -254h-196z" />
    <glyph glyph-name="uhungarumlaut.ss01" horiz-adv-x="1185" 
d="M428 -20q-184 0 -276 119t-56 319l119 667h221l-117 -665q-24 -133 26.5 -196.5t160.5 -63.5q120 0 199.5 68t103.5 204l117 653h221l-193 -1085h-217l23 129h-8q-69 -81 -144.5 -115t-179.5 -34zM379 1200l209 254h272l-291 -254h-190zM788 1200l207 254h273l-291 -254
h-189z" />
    <glyph glyph-name="umacron.ss01" horiz-adv-x="1185" 
d="M428 -20q-184 0 -276 119t-56 319l119 667h221l-117 -665q-24 -133 26.5 -196.5t160.5 -63.5q120 0 199.5 68t103.5 204l117 653h221l-193 -1085h-217l23 129h-8q-69 -81 -144.5 -115t-179.5 -34zM391 1247l27 160h637l-29 -160h-635z" />
    <glyph glyph-name="uogonek.ss01" horiz-adv-x="1185" 
d="M428 -20q-184 0 -276 119t-56 319l119 667h221l-117 -665q-24 -133 26.5 -196.5t160.5 -63.5q120 0 199.5 68t103.5 204l117 653h221l-193 -1085h-2q-188 -59 -188 -135q0 -47 82 -47h69l-32 -187h-95q-110 0 -166.5 44.5t-56.5 113.5q0 151 176 234l19 106h-8
q-69 -81 -144.5 -115t-179.5 -34z" />
    <glyph glyph-name="uring.ss01" horiz-adv-x="1185" 
d="M428 -20q-184 0 -276 119t-56 319l119 667h221l-117 -665q-24 -133 26.5 -196.5t160.5 -63.5q120 0 199.5 68t103.5 204l117 653h221l-193 -1085h-217l23 129h-8q-69 -81 -144.5 -115t-179.5 -34zM526 1374q0 85 59 142t148 57q90 0 148.5 -57t58.5 -142
q0 -89 -58.5 -144.5t-148.5 -55.5q-89 0 -148 56t-59 144zM639 1374q0 -43 27.5 -69.5t66.5 -26.5t66.5 26.5t27.5 69.5q0 37 -27.5 63.5t-66.5 26.5q-40 0 -67 -25.5t-27 -64.5z" />
    <glyph glyph-name="utilde.ss01" horiz-adv-x="1185" 
d="M428 -20q-184 0 -276 119t-56 319l119 667h221l-117 -665q-24 -133 26.5 -196.5t160.5 -63.5q120 0 199.5 68t103.5 204l117 653h221l-193 -1085h-217l23 129h-8q-69 -81 -144.5 -115t-179.5 -34zM328 1198q24 111 93.5 185.5t160.5 74.5q46 0 89.5 -18.5t70.5 -40
t58 -40t54 -18.5q78 0 100 109h170q-24 -110 -93.5 -185t-160.5 -75q-46 0 -89 18.5t-70.5 40t-57.5 40t-53 18.5q-43 0 -67 -27t-35 -82h-170z" />
    <glyph glyph-name="a.ss01.ss02" horiz-adv-x="1218" 
d="M373 -20q-171 0 -262.5 109t-63.5 271q12 69 48 119.5t93.5 82t126 49t156.5 24.5l342 29l12 67q17 94 -34 147.5t-158 53.5q-102 0 -158 -42.5t-78 -135.5h-233q30 174 160.5 263t318.5 89q131 0 228 -47.5t142.5 -138.5t24.5 -209l-92 -521h141l-34 -190h-205
q-59 0 -89 27.5t-24 83.5l2 18h-8q-157 -149 -356 -149zM272 338q-13 -84 36.5 -135t133.5 -51q72 0 140 28t119.5 84t64.5 129l18 107l-266 -25q-58 -6 -92.5 -12.5t-71 -21t-56 -40t-26.5 -63.5z" />
    <glyph glyph-name="aacute.ss01.ss02" horiz-adv-x="1218" 
d="M373 -20q-171 0 -262.5 109t-63.5 271q12 69 48 119.5t93.5 82t126 49t156.5 24.5l342 29l12 67q17 94 -34 147.5t-158 53.5q-102 0 -158 -42.5t-78 -135.5h-233q30 174 160.5 263t318.5 89q131 0 228 -47.5t142.5 -138.5t24.5 -209l-92 -521h141l-34 -190h-205
q-59 0 -89 27.5t-24 83.5l2 18h-8q-157 -149 -356 -149zM272 338q-13 -84 36.5 -135t133.5 -51q72 0 140 28t119.5 84t64.5 129l18 107l-266 -25q-58 -6 -92.5 -12.5t-71 -21t-56 -40t-26.5 -63.5zM524 1200l256 254h295l-346 -254h-205z" />
    <glyph glyph-name="abreve.ss01.ss02" horiz-adv-x="1218" 
d="M373 -20q-171 0 -262.5 109t-63.5 271q12 69 48 119.5t93.5 82t126 49t156.5 24.5l342 29l12 67q17 94 -34 147.5t-158 53.5q-102 0 -158 -42.5t-78 -135.5h-233q30 174 160.5 263t318.5 89q131 0 228 -47.5t142.5 -138.5t24.5 -209l-92 -521h141l-34 -190h-205
q-59 0 -89 27.5t-24 83.5l2 18h-8q-157 -149 -356 -149zM272 338q-13 -84 36.5 -135t133.5 -51q72 0 140 28t119.5 84t64.5 129l18 107l-266 -25q-58 -6 -92.5 -12.5t-71 -21t-56 -40t-26.5 -63.5zM571 1454q3 -121 129 -121q148 0 179 121h178q-23 -129 -122 -195.5
t-249 -66.5q-144 0 -221.5 75.5t-65.5 186.5h172z" />
    <glyph glyph-name="acircumflex.ss01.ss02" horiz-adv-x="1218" 
d="M373 -20q-171 0 -262.5 109t-63.5 271q12 69 48 119.5t93.5 82t126 49t156.5 24.5l342 29l12 67q17 94 -34 147.5t-158 53.5q-102 0 -158 -42.5t-78 -135.5h-233q30 174 160.5 263t318.5 89q131 0 228 -47.5t142.5 -138.5t24.5 -209l-92 -521h141l-34 -190h-205
q-59 0 -89 27.5t-24 83.5l2 18h-8q-157 -149 -356 -149zM272 338q-13 -84 36.5 -135t133.5 -51q72 0 140 28t119.5 84t64.5 129l18 107l-266 -25q-58 -6 -92.5 -12.5t-71 -21t-56 -40t-26.5 -63.5zM340 1200l246 254h266l154 -254h-197l-90 129h-31l-137 -129h-211z" />
    <glyph glyph-name="adieresis.ss01.ss02" horiz-adv-x="1218" 
d="M373 -20q-171 0 -262.5 109t-63.5 271q12 69 48 119.5t93.5 82t126 49t156.5 24.5l342 29l12 67q17 94 -34 147.5t-158 53.5q-102 0 -158 -42.5t-78 -135.5h-233q30 174 160.5 263t318.5 89q131 0 228 -47.5t142.5 -138.5t24.5 -209l-92 -521h141l-34 -190h-205
q-59 0 -89 27.5t-24 83.5l2 18h-8q-157 -149 -356 -149zM272 338q-13 -84 36.5 -135t133.5 -51q72 0 140 28t119.5 84t64.5 129l18 107l-266 -25q-58 -6 -92.5 -12.5t-71 -21t-56 -40t-26.5 -63.5zM381 1223l37 209h207l-37 -209h-207zM782 1223l37 209h207l-37 -209h-207z
" />
    <glyph glyph-name="agrave.ss01.ss02" horiz-adv-x="1218" 
d="M373 -20q-171 0 -262.5 109t-63.5 271q12 69 48 119.5t93.5 82t126 49t156.5 24.5l342 29l12 67q17 94 -34 147.5t-158 53.5q-102 0 -158 -42.5t-78 -135.5h-233q30 174 160.5 263t318.5 89q131 0 228 -47.5t142.5 -138.5t24.5 -209l-92 -521h141l-34 -190h-205
q-59 0 -89 27.5t-24 83.5l2 18h-8q-157 -149 -356 -149zM272 338q-13 -84 36.5 -135t133.5 -51q72 0 140 28t119.5 84t64.5 129l18 107l-266 -25q-58 -6 -92.5 -12.5t-71 -21t-56 -40t-26.5 -63.5zM389 1454h277l174 -254h-197z" />
    <glyph glyph-name="amacron.ss01.ss02" horiz-adv-x="1218" 
d="M373 -20q-171 0 -262.5 109t-63.5 271q12 69 48 119.5t93.5 82t126 49t156.5 24.5l342 29l12 67q17 94 -34 147.5t-158 53.5q-102 0 -158 -42.5t-78 -135.5h-233q30 174 160.5 263t318.5 89q131 0 228 -47.5t142.5 -138.5t24.5 -209l-92 -521h141l-34 -190h-205
q-59 0 -89 27.5t-24 83.5l2 18h-8q-157 -149 -356 -149zM272 338q-13 -84 36.5 -135t133.5 -51q72 0 140 28t119.5 84t64.5 129l18 107l-266 -25q-58 -6 -92.5 -12.5t-71 -21t-56 -40t-26.5 -63.5zM373 1247l26 160h637l-28 -160h-635z" />
    <glyph glyph-name="aogonek.ss01.ss02" horiz-adv-x="1218" 
d="M373 -20q-171 0 -262.5 109t-63.5 271q12 69 48 119.5t93.5 82t126 49t156.5 24.5l342 29l12 67q17 94 -34 147.5t-158 53.5q-102 0 -158 -42.5t-78 -135.5h-233q30 174 160.5 263t318.5 89q131 0 228 -47.5t142.5 -138.5t24.5 -209l-92 -521h141l-34 -190h-129
q-189 -59 -189 -135q0 -47 82 -47h70l-33 -187h-94q-110 0 -166.5 44.5t-56.5 113.5q0 166 213 250q-20 28 -15 72l2 18h-8q-157 -149 -356 -149zM272 338q-13 -84 36.5 -135t133.5 -51q72 0 140 28t119.5 84t64.5 129l18 107l-266 -25q-58 -6 -92.5 -12.5t-71 -21t-56 -40
t-26.5 -63.5z" />
    <glyph glyph-name="aring.ss01.ss02" horiz-adv-x="1218" 
d="M373 -20q-171 0 -262.5 109t-63.5 271q12 69 48 119.5t93.5 82t126 49t156.5 24.5l342 29l12 67q17 94 -34 147.5t-158 53.5q-102 0 -158 -42.5t-78 -135.5h-233q30 174 160.5 263t318.5 89q131 0 228 -47.5t142.5 -138.5t24.5 -209l-92 -521h141l-34 -190h-205
q-59 0 -89 27.5t-24 83.5l2 18h-8q-157 -149 -356 -149zM272 338q-13 -84 36.5 -135t133.5 -51q72 0 140 28t119.5 84t64.5 129l18 107l-266 -25q-58 -6 -92.5 -12.5t-71 -21t-56 -40t-26.5 -63.5zM506 1374q0 85 59 142t148 57q90 0 148.5 -57t58.5 -142
q0 -89 -58.5 -144.5t-148.5 -55.5q-89 0 -148 56t-59 144zM618 1374q0 -43 27.5 -69.5t67.5 -26.5q39 0 66.5 26.5t27.5 69.5q0 37 -27.5 63.5t-66.5 26.5q-40 0 -67.5 -25.5t-27.5 -64.5z" />
    <glyph glyph-name="aringacute.ss01.ss02" horiz-adv-x="1218" 
d="M373 -20q-171 0 -262.5 109t-63.5 271q12 69 48 119.5t93.5 82t126 49t156.5 24.5l342 29l12 67q17 94 -34 147.5t-158 53.5q-102 0 -158 -42.5t-78 -135.5h-233q30 174 160.5 263t318.5 89q131 0 228 -47.5t142.5 -138.5t24.5 -209l-92 -521h141l-34 -190h-205
q-59 0 -89 27.5t-24 83.5l2 18h-8q-157 -149 -356 -149zM272 338q-13 -84 36.5 -135t133.5 -51q72 0 140 28t119.5 84t64.5 129l18 107l-266 -25q-58 -6 -92.5 -12.5t-71 -21t-56 -40t-26.5 -63.5zM461 1352q0 85 59 141.5t148 56.5q90 0 148 -56.5t58 -141.5
q0 -89 -58 -145t-148 -56q-89 0 -148 56.5t-59 144.5zM573 1352q0 -43 28 -70t67 -27t66.5 27t27.5 70q0 37 -27.5 63.5t-66.5 26.5q-40 0 -67.5 -25.5t-27.5 -64.5zM602 1593l256 254h295l-346 -254h-205z" />
    <glyph glyph-name="atilde.ss01.ss02" horiz-adv-x="1218" 
d="M373 -20q-171 0 -262.5 109t-63.5 271q12 69 48 119.5t93.5 82t126 49t156.5 24.5l342 29l12 67q17 94 -34 147.5t-158 53.5q-102 0 -158 -42.5t-78 -135.5h-233q30 174 160.5 263t318.5 89q131 0 228 -47.5t142.5 -138.5t24.5 -209l-92 -521h141l-34 -190h-205
q-59 0 -89 27.5t-24 83.5l2 18h-8q-157 -149 -356 -149zM272 338q-13 -84 36.5 -135t133.5 -51q72 0 140 28t119.5 84t64.5 129l18 107l-266 -25q-58 -6 -92.5 -12.5t-71 -21t-56 -40t-26.5 -63.5zM309 1198q24 111 93.5 185.5t160.5 74.5q46 0 89.5 -18.5t71 -40t58.5 -40
t54 -18.5q78 0 100 109h170q-24 -110 -93.5 -185t-160.5 -75q-46 0 -89 18.5t-70.5 40t-57.5 40t-53 18.5q-81 0 -103 -109h-170z" />
    <glyph glyph-name="a.ss01.ss03" horiz-adv-x="1302" 
d="M535 -20q-161 0 -272 88t-152.5 228.5t-12.5 303.5q38 219 185 362.5t356 143.5q259 0 379 -164l24 143h220l-191 -1085h-219l22 123q-140 -143 -339 -143zM322 582q-11 -48 -9 -97.5t10.5 -96.5t31.5 -88.5t55 -72.5t81 -49t109 -18q140 0 232 98.5t118 249.5
q9 47 9.5 94t-7.5 95t-29.5 88.5t-53.5 72.5t-83 50t-116 18q-135 0 -228.5 -98.5t-119.5 -245.5z" />
    <glyph glyph-name="aacute.ss01.ss03" horiz-adv-x="1302" 
d="M535 -20q-161 0 -272 88t-152.5 228.5t-12.5 303.5q38 219 185 362.5t356 143.5q259 0 379 -164l24 143h220l-191 -1085h-219l22 123q-140 -143 -339 -143zM322 582q-11 -48 -9 -97.5t10.5 -96.5t31.5 -88.5t55 -72.5t81 -49t109 -18q140 0 232 98.5t118 249.5
q9 47 9.5 94t-7.5 95t-29.5 88.5t-53.5 72.5t-83 50t-116 18q-135 0 -228.5 -98.5t-119.5 -245.5zM582 1200l256 254h295l-347 -254h-204z" />
    </font>
</defs>
</svg>
