<?xml version="1.0" standalone="no"?>
<!DOCTYPE svg PUBLIC "-//W3C//DTD SVG 1.1//EN" "http://www.w3.org/Graphics/SVG/1.1/DTD/svg11.dtd" >
<svg xmlns="http://www.w3.org/2000/svg" xmlns:xlink="http://www.w3.org/1999/xlink" version="1.1">
<metadata>
Created by FontForge 20201107 at Tue Sep 17 20:47:59 2024
 By 
(c) 2022, Copyright by Optimo SARL. All rights reserved.
</metadata>
<defs>
<font id="Artex-LightItalic" horiz-adv-x="0" >
  <font-face 
    font-family="Artex Light"
    font-weight="300"
    font-style="italic"
    font-stretch="normal"
    units-per-em="2048"
    panose-1="0 0 0 0 0 0 0 0 0 0"
    ascent="1638"
    descent="-410"
    x-height="1085"
    cap-height="1454"
    bbox="-401 -471 2607 2169"
    underline-thickness="102"
    underline-position="-85"
    slope="-10"
    unicode-range="U+0020-FB02"
  />
<missing-glyph horiz-adv-x="1437" 
d="M242 1087l366 367h90l-82 -82q-98 -28 -171 -101t-101 -173l-102 -101v90zM242 82v90l385 385v-70h20zM242 264v92l649 648v-27q0 -29 -18.5 -58t-40.5 -48.5t-58.5 -49.5t-54.5 -47q-45 -42 -68 -100zM242 449v90l577 577q29 -18 49 -43zM242 631v90l276 278l74 -4
q0 55 37.5 97.5t101.5 42.5h14zM242 815v90l106 105l84 -6zM242 1180v92l184 182h90zM242 1364v90h92zM250 0l489 487h90l-172 -174h-43v-41l-270 -272h-94zM434 0l180 178v-90l-88 -88h-92zM616 0l64 61h90l-61 -61h-93zM723 1384l70 70h90l-70 -72q-32 4 -53 4t-37 -2z
M748 313l512 510v-90l-420 -420h-92zM801 0l59 61h4v5l396 391v-90l-367 -367h-92zM854 512v12q0 23 5 39.5t18.5 32t25 25t38.5 29.5t44 34q3 2 24 17t32 24t31.5 29t33 39t26 47.5t19.5 60.5l109 105v-91zM864 158v90l396 391v-90zM887 1366l88 88h90l-115 -117
q-48 25 -63 29zM983 0l277 274v-92l-185 -182h-92zM1006 1303l151 151h92l-194 -194q-22 25 -49 43zM1092 1208l168 164v-90l-134 -133q-15 38 -34 59zM1149 1081l111 109v-92l-101 -99q0 37 -10 82zM1165 0l95 90v-90h-95z" />
    <glyph glyph-name="f_f" unicode="ff" horiz-adv-x="1433" 
d="M428 1360q17 94 113 94h348l-21 -119h-313l-45 -250h485l49 275q17 94 113 94h348l-20 -119h-314l-45 -250h316l-23 -118h-313l-170 -967h-131l170 967h-486l-170 -967h-131l170 967h-194l22 118h193z" />
    <glyph glyph-name="f_f_i" unicode="ffi" horiz-adv-x="1798" 
d="M428 1360q17 94 113 94h348l-21 -119h-313l-45 -250h485l49 275q17 94 113 94h348l-20 -119h-314l-45 -250h316l-23 -118h-313l-170 -967h-131l170 967h-486l-170 -967h-131l170 967h-194l22 118h193zM1419 0l193 1085h131l-193 -1085h-131zM1636 1239l37 215h131
l-37 -215h-131z" />
    <glyph glyph-name="f_f_l" unicode="ffl" horiz-adv-x="1800" 
d="M428 1360q17 94 113 94h348l-21 -119h-313l-45 -250h485l49 275q17 94 113 94h348l-20 -119h-314l-45 -250h316l-23 -118h-313l-170 -967h-131l170 967h-486l-170 -967h-131l170 967h-194l22 118h193zM1421 0l256 1454h131l-256 -1454h-131z" />
    <glyph glyph-name="f_i" unicode="fi" horiz-adv-x="1181" 
d="M428 1360q17 94 113 94h348l-21 -119h-313l-45 -250h315l-22 -118h-314l-170 -967h-131l170 967h-194l22 118h193zM803 0l192 1085h131l-192 -1085h-131zM1020 1239l37 215h131l-37 -215h-131z" />
    <glyph glyph-name="f_l" unicode="fl" horiz-adv-x="1185" 
d="M428 1360q17 94 113 94h348l-21 -119h-313l-45 -250h315l-22 -118h-314l-170 -967h-131l170 967h-194l22 118h193zM807 0l256 1454h131l-256 -1454h-131z" />
    <glyph glyph-name=".notdef" horiz-adv-x="1437" 
d="M242 1087l366 367h90l-82 -82q-98 -28 -171 -101t-101 -173l-102 -101v90zM242 82v90l385 385v-70h20zM242 264v92l649 648v-27q0 -29 -18.5 -58t-40.5 -48.5t-58.5 -49.5t-54.5 -47q-45 -42 -68 -100zM242 449v90l577 577q29 -18 49 -43zM242 631v90l276 278l74 -4
q0 55 37.5 97.5t101.5 42.5h14zM242 815v90l106 105l84 -6zM242 1180v92l184 182h90zM242 1364v90h92zM250 0l489 487h90l-172 -174h-43v-41l-270 -272h-94zM434 0l180 178v-90l-88 -88h-92zM616 0l64 61h90l-61 -61h-93zM723 1384l70 70h90l-70 -72q-32 4 -53 4t-37 -2z
M748 313l512 510v-90l-420 -420h-92zM801 0l59 61h4v5l396 391v-90l-367 -367h-92zM854 512v12q0 23 5 39.5t18.5 32t25 25t38.5 29.5t44 34q3 2 24 17t32 24t31.5 29t33 39t26 47.5t19.5 60.5l109 105v-91zM864 158v90l396 391v-90zM887 1366l88 88h90l-115 -117
q-48 25 -63 29zM983 0l277 274v-92l-185 -182h-92zM1006 1303l151 151h92l-194 -194q-22 25 -49 43zM1092 1208l168 164v-90l-134 -133q-15 38 -34 59zM1149 1081l111 109v-92l-101 -99q0 37 -10 82zM1165 0l95 90v-90h-95z" />
    <glyph glyph-name=".null" 
 />
    <glyph glyph-name="nonmarkingreturn" horiz-adv-x="682" 
 />
    <glyph glyph-name="space" unicode=" " horiz-adv-x="466" 
 />
    <glyph glyph-name="exclam" unicode="!" horiz-adv-x="516" 
d="M98 0l35 205h131l-35 -205h-131zM160 367l192 1087h131l-192 -1087h-131z" />
    <glyph glyph-name="quotedbl" unicode="&#x22;" horiz-adv-x="753" 
d="M242 983l59 471h141l-104 -471h-96zM571 983l60 471h141l-104 -471h-97z" />
    <glyph glyph-name="numbersign" unicode="#" horiz-adv-x="1257" 
d="M264 1085h242l129 369h110l-129 -369h345l129 369h112l-129 -369h191l-17 -102h-211l-176 -502h215l-16 -102h-236l-133 -379h-110l133 379h-344l-133 -379h-113l133 379h-197l17 102h217l176 502h-221zM403 481h345l176 502h-344z" />
    <glyph glyph-name="dollar" unicode="$" horiz-adv-x="1218" 
d="M406 -211l34 205q-160 36 -259.5 160t-100.5 303h135q1 -163 105.5 -259t261.5 -96q134 0 241.5 62t128.5 174q13 73 -6.5 129t-63.5 92.5t-104 66t-127.5 53.5t-135 49.5t-126.5 61.5t-101.5 82t-59.5 117t-1 162q19 104 90 178.5t170 110t215 35.5l29 159h135l-32 -176
q152 -36 244 -152.5t93 -289.5h-133q-6 161 -99 249.5t-247 88.5q-129 0 -222.5 -61t-111.5 -163q-11 -62 5 -111t52 -81t86.5 -59.5t109.5 -46.5t120.5 -43t119.5 -48t106.5 -62.5t82 -86t45 -118t-3.5 -159.5q-15 -85 -65 -151t-122 -105t-153.5 -58.5t-167.5 -20.5
l-32 -191h-135z" />
    <glyph glyph-name="percent" unicode="%" horiz-adv-x="1892" 
d="M420 639q-133 0 -206 85.5t-73 221.5q0 106 23.5 198t68.5 165t118.5 115t166.5 42q131 0 204 -83.5t73 -221.5q0 -148 -40.5 -264t-127 -187t-207.5 -71zM256 954q0 -100 43 -160.5t127 -60.5t143 63.5t85 156.5t26 202q0 99 -43 158t-129 59q-63 0 -113 -37t-79.5 -98
t-44.5 -133.5t-15 -149.5zM492 0l880 1454h113l-881 -1454h-112zM1161 295q0 106 23.5 198t68.5 165t118.5 115t166.5 42q131 0 204 -83.5t73 -221.5q0 -148 -40.5 -264t-127 -187t-207.5 -71q-133 0 -206 85.5t-73 221.5zM1276 303q0 -100 43 -160.5t127 -60.5t143 63.5
t85 156.5t26 202q0 99 -43 158t-129 59q-63 0 -113 -37t-79.5 -98t-44.5 -133.5t-15 -149.5z" />
    <glyph glyph-name="ampersand" unicode="&#x26;" horiz-adv-x="1452" 
d="M573 0q-227 0 -343.5 114t-82.5 304q12 69 50 128.5t100.5 107.5t124.5 83t147 72q-74 110 -106.5 199t-13.5 184q25 134 132 208.5t253 74.5q166 0 262 -95t69 -245q-10 -60 -46 -113.5t-94.5 -99t-122.5 -81.5t-150 -75l344 -483l78 456h120l-106 -612
q-22 -127 -137 -127h-478zM279 401q-25 -140 64.5 -210t252.5 -70h459l-420 594q-76 -35 -130 -65.5t-105.5 -69t-81.5 -83.5t-39 -96zM580 1165q-12 -70 12 -139.5t92 -167.5q78 35 128 62t103 63.5t83 77.5t38 88q15 88 -42 150.5t-160 62.5q-98 0 -168.5 -53.5
t-85.5 -143.5z" />
    <glyph glyph-name="quotesingle" unicode="'" horiz-adv-x="423" 
d="M242 983l59 471h141l-104 -471h-96z" />
    <glyph glyph-name="parenleft" unicode="(" horiz-adv-x="595" 
d="M225 -330q-194 441 -106 946q84 489 438 940h131q-361 -462 -444 -942q-84 -488 112 -944h-131z" />
    <glyph glyph-name="parenright" unicode=")" horiz-adv-x="595" 
d="M395 1556q195 -442 107 -946q-84 -488 -439 -940h-131q362 464 445 942q84 486 -113 944h131z" />
    <glyph glyph-name="asterisk" unicode="*" horiz-adv-x="997" 
d="M354 778l-75 70l225 223l-246 100l47 95l250 -99l51 287h105l-52 -287l289 99l17 -99l-287 -100l145 -225l-86 -64l-149 230h-4z" />
    <glyph glyph-name="plus" unicode="+" horiz-adv-x="1191" 
d="M479 225l78 443h-440l20 120h441l77 441h121l-78 -441h443l-21 -120h-442l-78 -443h-121z" />
    <glyph glyph-name="comma" unicode="," horiz-adv-x="468" 
d="M-53 -225l192 471h142l-226 -471h-108z" />
    <glyph glyph-name="hyphen" unicode="-" horiz-adv-x="913" 
d="M131 506l21 115h636l-20 -115h-637z" />
    <glyph glyph-name="period" unicode="." horiz-adv-x="434" 
d="M55 0l39 211h129l-37 -211h-131z" />
    <glyph glyph-name="slash" unicode="/" horiz-adv-x="761" 
d="M-12 0l714 1454h136l-713 -1454h-137z" />
    <glyph glyph-name="zero" unicode="0" horiz-adv-x="1318" 
d="M600 -20q-106 0 -188 35t-133 97t-82.5 141.5t-41 175t-5.5 190.5t22 194q25 144 75 262t124.5 209t180 141t232.5 50q92 0 165.5 -26.5t123.5 -72t85 -109.5t52.5 -136.5t23 -156t-0.5 -165t-21 -166.5q-26 -144 -76 -262t-124.5 -209t-179.5 -141.5t-232 -50.5z
M303 791q-11 -64 -16.5 -127.5t-4 -133.5t12 -131.5t34 -118.5t58.5 -97.5t89.5 -64.5t123.5 -24q98 0 180.5 46.5t141 128t97.5 182.5t60 219q12 65 17.5 129t3.5 133t-12.5 130t-34.5 116.5t-60 95t-91.5 63t-125.5 23.5q-96 0 -178 -46t-139 -126.5t-96 -180t-60 -216.5z
" />
    <glyph glyph-name="one" unicode="1" horiz-adv-x="780" 
d="M385 0l236 1335h-379l20 119h418q42 0 63.5 -26t14.5 -68l-240 -1360h-133z" />
    <glyph glyph-name="two" unicode="2" horiz-adv-x="1222" 
d="M66 160q502 322 725 516.5t251 353.5q26 139 -66.5 232.5t-246.5 93.5q-157 0 -260 -86.5t-125 -233.5h-143q18 109 67.5 194t121 138t158.5 80t185 27q103 0 192.5 -33t151 -91.5t89.5 -145t10 -187.5q-31 -177 -240 -373t-694 -491l-6 -39l299 4h493l-22 -119h-967z
" />
    <glyph glyph-name="three" unicode="3" horiz-adv-x="1257" 
d="M569 -20q-232 0 -361 99.5t-126 309.5h135q-3 -297 356 -297q155 0 267 80t135 209q14 79 -6 141t-67 99.5t-111.5 57t-141.5 19.5h-133l21 111h125q95 0 181.5 28t153 89t82.5 145q24 135 -70.5 212t-258.5 77q-161 0 -262.5 -71.5t-129.5 -205.5h-135
q31 189 178.5 290.5t356.5 101.5q141 0 251 -49t166.5 -144t34.5 -217q-15 -84 -69 -151.5t-119 -103.5t-137 -52l-2 -6q132 -38 190 -148.5t35 -243.5q-21 -121 -102 -208.5t-193.5 -129.5t-243.5 -42z" />
    <glyph glyph-name="four" unicode="4" horiz-adv-x="1230" 
d="M836 0l61 346h-827l24 146l889 962h147q42 0 63.5 -26t14.5 -68l-239 -1360h-133zM252 463h666l96 545l61 329h-49l-768 -833z" />
    <glyph glyph-name="five" unicode="5" horiz-adv-x="1261" 
d="M563 -20q-116 0 -208.5 33.5t-151.5 92t-90 136t-31 166.5h127q12 -149 108 -232.5t252 -83.5q168 0 284 96.5t144 251.5q30 168 -57.5 278.5t-265.5 110.5q-134 0 -227 -47.5t-160 -146.5h-76q-21 0 -31.5 15t-5.5 36l164 674q11 43 40.5 68.5t70.5 25.5h784l-23 -119
h-759l-136 -542q137 149 381 149q221 0 345 -145.5t85 -366.5q-35 -196 -185 -323t-378 -127z" />
    <glyph glyph-name="six" unicode="6" horiz-adv-x="1308" 
d="M633 -20q-121 0 -214 36.5t-151.5 103t-92 159.5t-35 206.5t19.5 243.5q22 125 59 234t93 204t127 162.5t164.5 106.5t201.5 39q191 0 311 -110.5t125 -281.5h-135q-38 277 -311 277q-87 0 -162 -35.5t-129.5 -94.5t-98.5 -142t-72.5 -172t-47.5 -191q147 201 430 201
q88 0 162 -21t126 -58t91 -87t57 -108.5t25 -122t-7 -126.5q-34 -190 -182.5 -306.5t-353.5 -116.5zM274 502q-31 -176 72 -292t287 -116q157 0 265.5 89.5t133.5 230.5q15 81 -1 153.5t-58 126.5t-114.5 85.5t-166.5 31.5q-166 0 -279.5 -84.5t-138.5 -224.5z" />
    <glyph glyph-name="seven" unicode="7" horiz-adv-x="1107" 
d="M172 0l829 1335h-759l20 119h901l-22 -115l-826 -1339h-143z" />
    <glyph glyph-name="eight" unicode="8" horiz-adv-x="1271" 
d="M575 -20q-155 0 -273.5 57.5t-175.5 158.5t-36 224q22 121 118 212t243 126l2 6q-115 49 -162 145.5t-27 208.5q19 109 94.5 191.5t183.5 124t230 41.5q128 0 232 -51t158.5 -147t33.5 -216q-21 -114 -104 -193t-197 -108l-2 -4q140 -56 198 -162t35 -234
q-31 -172 -183 -276t-368 -104zM233 424q-25 -145 73.5 -237.5t275.5 -92.5q163 0 275.5 77t135.5 204q26 147 -73.5 236t-274.5 89q-156 0 -272.5 -74t-139.5 -202zM395 1110q-24 -131 64.5 -214t236.5 -83q141 0 243.5 67t123.5 185q23 133 -64.5 214t-242.5 81
q-139 0 -240 -68t-121 -182z" />
    <glyph glyph-name="nine" unicode="9" horiz-adv-x="1308" 
d="M547 -20q-188 0 -304 110t-118 281h135q14 -134 88.5 -205.5t208.5 -71.5q87 0 164 35t135.5 94t106 141.5t79.5 173.5t52 193q-150 -203 -430 -203q-127 0 -225 45t-153 120.5t-76 170.5t-3 197q34 186 180.5 300t353.5 114q125 0 221 -37.5t153 -104.5t90 -159.5
t33 -202t-19 -232.5q-22 -123 -61 -233.5t-99 -207.5t-134 -167t-171 -110.5t-207 -40.5zM344 1047q-19 -108 14 -199.5t117.5 -148t206.5 -56.5q169 0 282 85t138 230q31 175 -70.5 288.5t-290.5 113.5q-160 0 -266 -85.5t-131 -227.5z" />
    <glyph glyph-name="colon" unicode=":" horiz-adv-x="452" 
d="M66 0l36 211h131l-36 -211h-131zM201 772l39 211h131l-39 -211h-131z" />
    <glyph glyph-name="semicolon" unicode=";" horiz-adv-x="448" 
d="M221 772l39 211h129l-37 -211h-131zM-70 -225l193 471h141l-225 -471h-109z" />
    <glyph glyph-name="less" unicode="&#x3c;" horiz-adv-x="1210" 
d="M1049 233l-938 381l41 224l1069 381l-23 -144l-915 -311l-15 -84l805 -311z" />
    <glyph glyph-name="equal" unicode="=" horiz-adv-x="1220" 
d="M170 889l20 121h1004l-20 -121h-1004zM92 446l21 121h1003l-20 -121h-1004z" />
    <glyph glyph-name="greater" unicode="&#x3e;" horiz-adv-x="1208" 
d="M227 1219l934 -381l-39 -224l-1069 -381l25 144l915 311l13 84l-803 313z" />
    <glyph glyph-name="question" unicode="?" horiz-adv-x="1107" 
d="M449 449q12 66 34.5 115.5t62.5 92t80 73t109 75.5q110 72 167.5 135t70.5 139q21 120 -59 197.5t-216 77.5q-156 0 -261 -95.5t-124 -248.5h-139q26 212 168 338.5t356 126.5q129 0 229.5 -51t150.5 -145t30 -210q-32 -188 -272 -336q-60 -38 -95 -64t-72 -62t-57.5 -77
t-29.5 -92l-13 -71h-135zM371 0l35 205h135l-35 -205h-135z" />
    <glyph glyph-name="at" unicode="@" horiz-adv-x="2170" 
d="M846 -369q-138 0 -248.5 31t-185 84.5t-126 130.5t-78 163t-35 189t-2 202.5t25.5 207.5q69 395 323.5 615.5t673.5 220.5q176 0 321 -45.5t245.5 -130t164.5 -204t78.5 -266.5t-12.5 -319q-40 -227 -163 -345t-323 -118h-587q-144 0 -221.5 89t-55.5 220
q21 117 113.5 181t236.5 77l363 31l10 60q11 48 3.5 91.5t-30 75.5t-70.5 51t-118 19q-228 0 -264 -205h-133q26 151 130 233.5t273 82.5q192 0 275.5 -102.5t54.5 -266.5l-94 -526h98q162 0 255 98t124 276q42 241 -23 427.5t-235 293.5t-424 107q-359 0 -578.5 -194
t-279.5 -539q-16 -89 -23 -170t-3 -171t22 -165.5t58 -145.5t100 -118.5t153 -77.5t211 -29h493l-20 -119h-473zM770 350q-15 -88 34.5 -139t153.5 -51h308l69 387l-331 -31q-95 -9 -158.5 -52.5t-75.5 -113.5z" />
    <glyph glyph-name="A" unicode="A" horiz-adv-x="1456" 
d="M-12 0l780 1454h250l268 -1454h-133l-90 506h-666l-268 -506h-141zM461 627h581l-65 362l-59 338h-89l-176 -338z" />
    <glyph glyph-name="B" unicode="B" horiz-adv-x="1259" 
d="M299 1364q7 41 36.5 65.5t70.5 24.5h366q217 0 334.5 -113.5t85.5 -296.5q-19 -103 -88 -185t-184 -114q121 -35 177.5 -142t35.5 -230q-28 -158 -162.5 -265.5t-341.5 -107.5h-572zM213 119h420q146 0 243 79.5t117 192.5q23 124 -55.5 208.5t-216.5 84.5h-408zM334 801
h373q144 0 237 71.5t111 176.5q22 127 -62 206.5t-245 79.5h-322z" />
    <glyph glyph-name="C" unicode="C" horiz-adv-x="1597" 
d="M770 -20q-168 0 -301.5 64.5t-213 175t-109.5 258.5t-1 313q35 197 143 352t276 243.5t368 88.5q259 0 419 -131t201 -351h-143q-38 164 -165 262.5t-326 98.5q-165 0 -302.5 -79t-222 -208t-112.5 -287q-17 -92 -10.5 -178t29.5 -161t68.5 -137.5t104.5 -107.5
t139 -69.5t172 -24.5q189 0 336.5 98.5t229.5 264.5h145q-94 -220 -281 -352.5t-444 -132.5z" />
    <glyph glyph-name="D" unicode="D" horiz-adv-x="1454" 
d="M299 1364q7 41 36.5 65.5t70.5 24.5h339q170 0 303 -57t215 -158.5t112.5 -245t0.5 -311.5q-54 -303 -280.5 -492.5t-546.5 -189.5h-492zM213 119h350q264 0 447.5 159t228.5 412q32 183 -16.5 328.5t-176 231t-315.5 85.5h-303z" />
    <glyph glyph-name="E" unicode="E" horiz-adv-x="1114" 
d="M299 1364q7 41 36.5 65.5t70.5 24.5h763l-20 -119h-719l-98 -544h645l-23 -121h-643l-98 -551h731l-20 -119h-867z" />
    <glyph glyph-name="F" unicode="F" horiz-adv-x="1124" 
d="M299 1364q7 41 35.5 65.5t68.5 24.5h766l-22 -119h-719l-96 -544h643l-21 -121h-643l-118 -670h-136z" />
    <glyph glyph-name="G" unicode="G" horiz-adv-x="1607" 
d="M770 -20q-221 0 -378.5 109.5t-221.5 294.5t-25 407q26 145 95.5 270.5t170.5 217.5t236.5 144t286.5 52q253 0 414.5 -129.5t205.5 -352.5h-143q-42 171 -169.5 266t-321.5 95q-124 0 -234 -45t-191 -123t-136 -182.5t-76 -223.5q-18 -91 -11.5 -177t28.5 -161.5
t66.5 -138.5t104 -108t140.5 -70t175 -25q222 0 381 124.5t197 338.5l10 53h-577l20 119h713l-31 -168q-26 -145 -94.5 -258.5t-166.5 -184.5t-216.5 -107.5t-251.5 -36.5z" />
    <glyph glyph-name="H" unicode="H" horiz-adv-x="1400" 
d="M1018 0l119 670h-826l-118 -670h-136l256 1454h136l-117 -666h825l117 666h133l-256 -1454h-133z" />
    <glyph glyph-name="I" unicode="I" horiz-adv-x="442" 
d="M313 1454h136l-256 -1454h-136z" />
    <glyph glyph-name="J" unicode="J" horiz-adv-x="706" 
d="M-10 0l22 119h332l234 1335h135l-240 -1360q-16 -94 -113 -94h-370z" />
    <glyph glyph-name="K" unicode="K" horiz-adv-x="1245" 
d="M717 733l346 -719v-14h-139l-322 688h-289l-120 -688h-136l256 1454h136l-113 -645h266l557 645h160l-2 -16l-592 -666z" />
    <glyph glyph-name="L" unicode="L" horiz-adv-x="1105" 
d="M57 0l256 1454h136l-236 -1335h733l-22 -119h-867z" />
    <glyph glyph-name="M" unicode="M" horiz-adv-x="1783" 
d="M186 0h-129l242 1364q7 41 36.5 65.5t70.5 24.5h184l139 -946l57 -381h58l663 1327h283l-256 -1454h-129l164 932l69 395h-61l-195 -395l-469 -932h-235l-137 932l-60 395h-63l-70 -395z" />
    <glyph glyph-name="N" unicode="N" horiz-adv-x="1404" 
d="M297 1360q8 45 37 69.5t76 24.5h172l399 -1329h66l61 354l172 975h129l-256 -1454h-264l-295 975l-105 354h-67l-62 -356l-172 -973h-129z" />
    <glyph glyph-name="O" unicode="O" horiz-adv-x="1636" 
d="M770 -20q-220 0 -377.5 108t-222.5 293t-25 410q26 145 94.5 270t169.5 217t236.5 144.5t288.5 52.5q111 0 208 -29t171 -82t130.5 -127t85.5 -164.5t38 -194.5t-13 -216q-25 -145 -94 -270t-170 -216.5t-235.5 -143.5t-284.5 -52zM281 780q-32 -183 17 -337t176 -247.5
t310 -93.5q124 0 233.5 44.5t190.5 122.5t136.5 183t76.5 226q16 110 8.5 209.5t-48.5 185t-103 148t-155 98t-205 35.5q-164 0 -301.5 -78.5t-222.5 -207.5t-113 -288z" />
    <glyph glyph-name="P" unicode="P" horiz-adv-x="1193" 
d="M299 1364q7 41 36.5 65.5t70.5 24.5h370q216 0 328.5 -123t77.5 -325q-31 -172 -169.5 -273.5t-342.5 -101.5h-365l-112 -631h-136zM326 750h364q145 0 241 75t118 199q24 135 -51.5 223t-233.5 88h-334z" />
    <glyph glyph-name="Q" unicode="Q" horiz-adv-x="1636" 
d="M784 102q124 0 233.5 44.5t190.5 122.5t136.5 183t76.5 226q16 110 8.5 209.5t-48.5 185t-103 148t-155 98t-205 35.5q-164 0 -301.5 -78.5t-222.5 -207.5t-113 -288q-32 -183 17 -337t176 -247.5t310 -93.5zM145 791q26 145 94.5 270t169.5 217t236.5 144.5t288.5 52.5
q111 0 208 -29t171 -82t130.5 -127t85.5 -164.5t38 -194.5t-13 -216q-48 -279 -243.5 -468t-474.5 -212l-17 -91h477l-20 -118h-506q-49 0 -71.5 28.5t-14.5 71.5l21 109q-121 10 -222.5 55.5t-173 119.5t-118 173t-56.5 215t10 246z" />
    <glyph glyph-name="R" unicode="R" horiz-adv-x="1286" 
d="M299 1364q7 41 36.5 65.5t70.5 24.5h395q221 0 340.5 -123.5t83.5 -331.5q-26 -148 -132 -241.5t-272 -118.5l283 -639h-156l-270 631h-375l-110 -631h-136zM324 752h407q148 0 243 72t118 198q26 144 -58 228.5t-248 84.5h-360z" />
    <glyph glyph-name="S" unicode="S" horiz-adv-x="1273" 
d="M590 -20q-144 0 -259.5 58t-182.5 167t-68 252h135q1 -164 110 -259.5t281 -95.5q151 0 266 62t136 176q14 78 -7.5 137t-68 96.5t-111 66.5t-137 51.5t-145 46.5t-135.5 57.5t-108.5 77.5t-65 114t-3.5 160q20 110 95 186t178 109t229 33q142 0 254 -54t177.5 -159.5
t66.5 -245.5h-131q-7 162 -108 250t-271 88q-145 0 -244 -59t-117 -162q-12 -68 10.5 -120t70 -86t112 -61.5t137 -51.5t144.5 -50t135 -63t108 -85.5t64 -123t2 -168.5q-16 -89 -68.5 -157t-129.5 -108t-165.5 -59.5t-185.5 -19.5z" />
    <glyph glyph-name="T" unicode="T" horiz-adv-x="1257" 
d="M467 0l235 1335h-475l19 119h1083l-18 -119h-473l-238 -1335h-133z" />
    <glyph glyph-name="U" unicode="U" horiz-adv-x="1386" 
d="M627 -20q-92 0 -168 19t-128 51.5t-90.5 77t-60 94.5t-31.5 105.5t-9 107.5t10 104l159 915h135l-161 -919q-35 -203 58.5 -316t293.5 -113q184 0 307 109.5t158 310.5l162 928h135l-168 -954q-12 -69 -37.5 -136t-74 -138t-113.5 -124t-162.5 -87.5t-214.5 -34.5z" />
    <glyph glyph-name="V" unicode="V" horiz-adv-x="1421" 
d="M244 1454h137l170 -1018l49 -307h66l157 307l529 1018h143l-764 -1454h-233z" />
    <glyph glyph-name="W" unicode="W" horiz-adv-x="2109" 
d="M1219 1327h-54l-553 -1327h-239l-127 1454h135l78 -1005l22 -322h56l131 322l422 1005h243l66 -1005l20 -322h58l131 322l434 1005h141l-639 -1454h-239l-64 983z" />
    <glyph glyph-name="X" unicode="X" horiz-adv-x="1347" 
d="M-12 0l542 737l-270 717h139l240 -655h152l466 655h154l-524 -721l278 -733h-141l-252 672h-145l-486 -672h-153z" />
    <glyph glyph-name="Y" unicode="Y" horiz-adv-x="1259" 
d="M573 600l-329 846v8h143l166 -448l100 -273h13l194 273l330 448h145v-8l-628 -846l-109 -600h-133z" />
    <glyph glyph-name="Z" unicode="Z" horiz-adv-x="1228" 
d="M2 0l27 164l1056 1136l7 35h-834l21 119h991l-25 -162l-1065 -1138l-6 -35h885l-21 -119h-1036z" />
    <glyph glyph-name="bracketleft" unicode="[" horiz-adv-x="593" 
d="M100 -330q-47 0 -70.5 28t-15.5 73l299 1691q16 94 113 94h256l-23 -120h-221l-288 -1645h221l-21 -121h-250z" />
    <glyph glyph-name="backslash" unicode="\" horiz-adv-x="761" 
d="M446 0l-200 1454h133l201 -1454h-134z" />
    <glyph glyph-name="bracketright" unicode="]" horiz-adv-x="595" 
d="M520 1556q47 0 70.5 -27.5t15.5 -72.5l-299 -1692q-16 -94 -112 -94h-256l22 121h221l289 1645h-221l20 120h250z" />
    <glyph glyph-name="asciicircum" unicode="^" horiz-adv-x="954" 
d="M231 915l316 455h151l154 -455h-117l-123 363l-252 -363h-129z" />
    <glyph glyph-name="underscore" unicode="_" horiz-adv-x="1267" 
d="M-8 -125h1046l-18 -108h-1047z" />
    <glyph glyph-name="grave" unicode="`" horiz-adv-x="602" 
d="M494 1200l-232 254h172l182 -254h-122z" />
    <glyph glyph-name="a" unicode="a" horiz-adv-x="1153" 
d="M403 0q-178 0 -272 91.5t-65 250.5q12 68 50.5 118.5t100.5 81.5t135.5 48.5t167.5 25.5l383 33l15 82q24 133 -47 197.5t-214 64.5q-136 0 -222 -60t-109 -175h-140q27 165 159.5 256.5t316.5 91.5q200 0 309 -103.5t76 -283.5l-113 -625q-7 -45 -36.5 -69.5
t-74.5 -24.5h-420zM201 324q-18 -103 44 -154t189 -51h375l76 424l-336 -33q-77 -8 -130 -18.5t-102.5 -30.5t-78 -54t-37.5 -83z" />
    <glyph glyph-name="b" unicode="b" horiz-adv-x="1241" 
d="M156 0q-47 0 -70.5 27.5t-15.5 72.5l237 1354h133l-65 -369h274q173 0 292.5 -77t166.5 -210.5t18 -301.5q-17 -100 -61.5 -187.5t-114.5 -157.5t-174.5 -110.5t-230.5 -40.5h-389zM205 119h354q91 0 168 32.5t130 87.5t88 124.5t48 148.5q10 72 7.5 138t-28.5 124
t-67 101t-107.5 67.5t-150.5 24.5h-293z" />
    <glyph glyph-name="c" unicode="c" horiz-adv-x="1243" 
d="M596 -20q-170 0 -290.5 81.5t-169.5 222.5t-19 314q39 221 193.5 364.5t375.5 143.5q183 0 308.5 -95t164.5 -253h-139q-36 108 -124 171.5t-212 63.5q-171 0 -287.5 -118.5t-148.5 -296.5q-12 -59 -7.5 -118.5t18 -113.5t44.5 -100.5t71.5 -80.5t98 -53.5t125.5 -19.5
q123 0 220 64t155 172h143q-68 -159 -204.5 -253.5t-315.5 -94.5z" />
    <glyph glyph-name="d" unicode="d" horiz-adv-x="1241" 
d="M592 0q-172 0 -291.5 76.5t-167 210t-18.5 301.5q17 100 61.5 187t114.5 157.5t174.5 111.5t230.5 41h357l65 369h131l-237 -1360q-8 -45 -37 -69.5t-76 -24.5h-307zM246 569q-10 -70 -7.5 -135t28.5 -122.5t67.5 -100t109 -67.5t152.5 -25h287l149 848h-350
q-178 0 -292 -115t-144 -283z" />
    <glyph glyph-name="e" unicode="e" horiz-adv-x="1269" 
d="M596 -20q-168 0 -288 79.5t-170.5 220.5t-20.5 316q39 224 193.5 367t375.5 143q112 0 208.5 -41t165.5 -115t97.5 -189.5t3.5 -252.5h-921q-3 -65 8.5 -125t39.5 -113.5t70 -92.5t103.5 -62t136.5 -23q121 0 220 64.5t153 175.5h145q-75 -171 -209.5 -261.5
t-310.5 -90.5zM256 621h784q0 167 -100 269.5t-256 102.5q-159 0 -273 -104.5t-155 -267.5z" />
    <glyph glyph-name="f" unicode="f" horiz-adv-x="817" 
d="M428 1360q17 94 113 94h348l-21 -119h-313l-45 -250h315l-22 -118h-314l-170 -967h-131l170 967h-194l22 118h193z" />
    <glyph glyph-name="g" unicode="g" horiz-adv-x="1241" 
d="M94 -369l23 119h704l43 250h-270q-172 0 -291.5 75t-168.5 209.5t-19 305.5q17 100 62 187.5t115.5 157t175 110t230.5 40.5h396q40 0 62 -26t15 -68l-223 -1261q-9 -49 -40 -74t-74 -25h-740zM248 567q-19 -90 -3.5 -171.5t55 -142.5t116.5 -97.5t180 -36.5h291l147 848
h-352q-91 0 -168 -32.5t-130 -88.5t-87.5 -127t-48.5 -152z" />
    <glyph glyph-name="h" unicode="h" horiz-adv-x="1181" 
d="M936 657q28 152 -42.5 231t-229.5 79h-308l-170 -967h-131l256 1454h131l-65 -369h313q202 0 308 -113.5t71 -309.5l-117 -662h-133z" />
    <glyph glyph-name="i" unicode="i" horiz-adv-x="434" 
d="M55 0l193 1085h131l-193 -1085h-131zM274 1239l37 215h131l-36 -215h-132z" />
    <glyph glyph-name="j" unicode="j" horiz-adv-x="436" 
d="M-289 -369l23 121h280l234 1333h131l-238 -1355q-8 -43 -37.5 -71t-78.5 -28h-314zM272 1239l37 215h131l-37 -215h-131z" />
    <glyph glyph-name="k" unicode="k" horiz-adv-x="1101" 
d="M657 580l263 -570l-2 -10h-144l-235 526h-260l-93 -526h-131l256 1454h131l-141 -805h246l405 436h156l-4 -12l-440 -471z" />
    <glyph glyph-name="l" unicode="l" horiz-adv-x="434" 
d="M186 0h-131l256 1454h131z" />
    <glyph glyph-name="m" unicode="m" horiz-adv-x="1746" 
d="M231 999q14 86 103 86h917q198 0 305.5 -111.5t73.5 -311.5l-114 -662h-132l115 657q26 152 -44 231t-230 79h-203l-170 -967h-131l168 967h-531l-170 -967h-131z" />
    <glyph glyph-name="n" unicode="n" horiz-adv-x="1181" 
d="M229 995q7 41 36.5 65.5t70.5 24.5h352q202 0 309 -113.5t72 -309.5l-119 -662h-131l117 657q27 149 -42.5 229.5t-231.5 80.5h-306l-170 -967h-133z" />
    <glyph glyph-name="o" unicode="o" horiz-adv-x="1280" 
d="M594 -20q-169 0 -289 81t-169 222t-19 315q40 221 194 364.5t379 143.5q169 0 288 -84t166.5 -224.5t18.5 -310.5q-39 -222 -194 -364.5t-375 -142.5zM248 578q-19 -98 -1.5 -186t59.5 -154.5t118 -106t172 -39.5q112 0 205.5 56.5t151 149t77.5 206.5q11 74 7.5 144.5
t-30.5 133t-68.5 109.5t-107 74.5t-145.5 27.5q-117 0 -211.5 -58t-150.5 -150.5t-76 -206.5z" />
    <glyph glyph-name="p" unicode="p" horiz-adv-x="1243" 
d="M229 995q7 41 36.5 65.5t70.5 24.5h315q172 0 291 -75.5t167.5 -209.5t18.5 -306q-17 -99 -61.5 -185.5t-114.5 -157t-174.5 -111t-230.5 -40.5h-359l-65 -369h-133zM209 119h352q91 0 168.5 32.5t130.5 88t88 125t49 149.5q10 71 7.5 136.5t-29 123.5t-67.5 101
t-108 67.5t-151 24.5h-291z" />
    <glyph glyph-name="q" unicode="q" horiz-adv-x="1243" 
d="M797 -369l65 369h-268q-171 0 -290.5 75t-169 209t-19.5 304q18 101 62.5 188.5t115 157.5t175 110.5t230.5 40.5h396q41 0 62.5 -26.5t14.5 -67.5l-241 -1360h-133zM248 567q-19 -90 -3.5 -171.5t55 -142.5t116.5 -97.5t180 -36.5h289l151 848h-354q-91 0 -168 -32.5
t-130 -88.5t-87.5 -127t-48.5 -152z" />
    <glyph glyph-name="r" unicode="r" horiz-adv-x="704" 
d="M229 991q17 94 113 94h371l-23 -118h-332l-172 -967h-131z" />
    <glyph glyph-name="s" unicode="s" horiz-adv-x="1067" 
d="M477 -20q-186 0 -298.5 93.5t-115.5 262.5h130q3 -119 84 -180.5t208 -61.5q114 0 199.5 45.5t101.5 132.5q11 64 -20.5 107t-90 66t-131 41.5t-143.5 43.5t-127.5 61t-84 103.5t-11.5 163.5q20 113 129 180.5t266 67.5q184 0 294 -95.5t112 -252.5h-131
q-6 113 -79.5 173t-205.5 60q-107 0 -176 -39t-82 -112q-9 -50 9 -87t55 -60t87.5 -40.5t106.5 -32.5t112 -32.5t105 -44t84 -62.5t49.5 -93.5t1.5 -131.5q-23 -126 -143.5 -201t-294.5 -75z" />
    <glyph glyph-name="t" unicode="t" horiz-adv-x="782" 
d="M778 1085l-20 -118h-281l-151 -848h282l-22 -119h-316q-40 0 -62 28t-15 70l153 869h-180l20 118h181l49 277h131l-49 -277h280z" />
    <glyph glyph-name="u" unicode="u" horiz-adv-x="1157" 
d="M489 0q-201 0 -306 114t-70 310l118 661h131l-116 -657q-27 -149 42 -229t230 -80h283l172 966h131l-176 -991q-17 -94 -111 -94h-328z" />
    <glyph glyph-name="v" unicode="v" horiz-adv-x="1198" 
d="M395 0l-213 1069l2 16h133l123 -657l60 -305h47l166 305l354 657h137l-2 -16l-590 -1069h-217z" />
    <glyph glyph-name="w" unicode="w" horiz-adv-x="1708" 
d="M1124 123h37l129 305l287 657h137l-4 -16l-479 -1069h-217l-45 657l-21 306h-43l-123 -306l-278 -657h-217l-105 1069l4 16h131l54 -657l26 -305h37l123 305l279 657h225l43 -657z" />
    <glyph glyph-name="x" unicode="x" horiz-adv-x="1196" 
d="M782 541l228 -527v-14h-136l-210 494h-140l-387 -494h-141l2 14l414 527l10 37l-238 495l2 12h133l220 -467h139l383 467h141v-12l-411 -495z" />
    <glyph glyph-name="y" unicode="y" horiz-adv-x="1198" 
d="M43 -369l25 127h284l129 242h-86l-213 1069l2 16h133l123 -657l60 -305h47l166 305l354 657h139l-4 -16l-743 -1354q-27 -47 -58 -65.5t-86 -18.5h-272z" />
    <glyph glyph-name="z" unicode="z" horiz-adv-x="1083" 
d="M0 0l18 102l846 865h-671l22 118h850l-16 -102l-848 -864h708l-22 -119h-887z" />
    <glyph glyph-name="braceleft" unicode="{" horiz-adv-x="663" 
d="M170 -330q-46 0 -70 28.5t-16 72.5l121 667l-111 140l12 75l158 140l119 669q17 94 113 94h256l-21 -120h-221l-113 -635q-4 -21 -7 -31.5t-13 -25t-29 -29.5l-112 -90l-5 -21l74 -98q20 -28 25 -44t0 -42l-111 -629h221l-20 -121h-250z" />
    <glyph glyph-name="bar" unicode="|" horiz-adv-x="587" 
d="M227 -205h-131l293 1659h131z" />
    <glyph glyph-name="braceright" unicode="}" horiz-adv-x="663" 
d="M520 1556q46 0 70 -28t16 -72l-121 -668l111 -139l-12 -76l-158 -139l-119 -670q-17 -94 -112 -94h-256l20 121h221l113 635q4 21 7 31.5t13 25t29 29.5l113 90l4 21l-74 98q-20 28 -25 44t0 42l111 629h-221l20 120h250z" />
    <glyph glyph-name="asciitilde" unicode="~" horiz-adv-x="1245" 
d="M881 584q-60 0 -125.5 19t-113 41.5t-106.5 41.5t-108 19q-143 0 -192 -119h-138q35 107 117.5 175t206.5 68q75 0 158.5 -30.5t159.5 -61t134 -30.5q148 0 193 120h137q-35 -109 -116.5 -176t-206.5 -67z" />
    <glyph glyph-name="uni00A0" unicode="&#xa0;" horiz-adv-x="466" 
 />
    <glyph glyph-name="exclamdown" unicode="&#xa1;" horiz-adv-x="458" 
d="M2 -369l193 1088h133l-193 -1088h-133zM223 881l35 204h131l-35 -204h-131z" />
    <glyph glyph-name="cent" unicode="&#xa2;" horiz-adv-x="1232" 
d="M621 164h-13l-28 -164h-134l33 180q-192 47 -285 213t-53 389q38 210 181.5 352t351.5 154l28 166h134l-31 -172q147 -23 246 -113t133 -227h-140q-36 108 -124 172t-211 64q-171 0 -288 -119t-149 -297q-10 -72 -6 -141.5t31.5 -132t69.5 -110t108.5 -75t147.5 -27.5
q123 0 219.5 64t154.5 172h144q-68 -159 -204.5 -253.5t-315.5 -94.5z" />
    <glyph glyph-name="sterling" unicode="&#xa3;" horiz-adv-x="1189" 
d="M0 0l23 121h206l99 563h-205l20 121h205l39 219q39 218 147.5 334.5t307.5 116.5q169 0 264 -105.5t84 -275.5h-133q6 122 -51.5 194t-180.5 72q-246 0 -299 -305l-43 -250h375l-22 -121h-375l-99 -563h650l-21 -121h-991z" />
    <glyph glyph-name="currency" unicode="&#xa4;" horiz-adv-x="1245" 
d="M653 254q-151 0 -274 90l-105 -104l-94 94l105 104q-90 120 -90 275q0 150 90 270l-105 104l94 95l105 -103q122 88 274 88q153 0 273 -90l104 105l94 -95l-104 -104q90 -120 90 -270q0 -155 -90 -275l104 -104l-94 -94l-104 104q-120 -90 -273 -90zM315 713
q0 -142 99 -241t239 -99q139 0 237.5 99t98.5 241q0 137 -98.5 236.5t-237.5 99.5q-140 0 -239 -99.5t-99 -236.5z" />
    <glyph glyph-name="yen" unicode="&#xa5;" horiz-adv-x="1333" 
d="M246 733h307l-309 713v8h141l303 -721h17l208 273l349 448h149l-2 -8l-561 -713h313l-20 -119h-385l-13 -14l-30 -168h395l-21 -119h-395l-55 -313h-135l57 313h-389l23 119h387l30 168l-6 14h-381z" />
    <glyph glyph-name="brokenbar" unicode="&#xa6;" horiz-adv-x="557" 
d="M319 410l-106 -615h-131l106 615h131zM266 840l109 614h131l-109 -614h-131z" />
    <glyph glyph-name="section" unicode="&#xa7;" horiz-adv-x="1292" 
d="M569 -207q-127 0 -226.5 40.5t-160.5 125.5t-63 203h133q3 -123 86.5 -191.5t236.5 -68.5q114 0 200 44t102 132q10 56 -10 98t-61 68t-96.5 46t-118 36.5t-124.5 34.5t-116 46t-93 65t-55 96.5t-2 136.5q13 78 85.5 139t194.5 100q-82 44 -120 111t-19 172
q20 111 136 179.5t274 68.5q189 0 305 -96.5t121 -256.5h-134q-4 120 -89.5 185t-211.5 65q-107 0 -181.5 -47.5t-88.5 -122.5q-10 -56 15.5 -98.5t74.5 -68.5t113 -51t132 -44t131 -49.5t110 -66.5t69.5 -95.5t9.5 -136.5q-30 -181 -288 -240q96 -44 142 -113t26 -178
q-12 -68 -54.5 -121t-104.5 -84t-133 -47t-147 -16zM330 688q-8 -48 5.5 -86t41 -64t72 -47.5t89.5 -37t102 -32.5q3 -1 5 -1q150 5 242.5 53t107.5 131q8 47 -6 85t-34.5 61.5t-71.5 47.5t-81.5 34t-99.5 31q-24 7 -36 11q-144 -4 -233 -54.5t-103 -131.5z" />
    <glyph glyph-name="dieresis" unicode="&#xa8;" horiz-adv-x="722" 
d="M608 1229l35 196h131l-35 -196h-131zM223 1229l37 196h131l-35 -196h-133z" />
    <glyph glyph-name="copyright" unicode="&#xa9;" horiz-adv-x="1871" 
d="M967 -20q-204 0 -375.5 99.5t-271 271.5t-99.5 378q0 153 58.5 291t158 237.5t238.5 158.5t293 59q153 0 291.5 -59t238.5 -158.5t158.5 -237.5t58.5 -291q0 -207 -99.5 -379t-271.5 -271t-378 -99zM295 729q0 -139 53 -265t143 -217.5t215 -145.5t263 -54
q109 0 211.5 34t185.5 97t145.5 147t96.5 188t34 216q0 184 -90.5 339.5t-245 245t-337.5 89.5q-139 0 -264 -53t-215 -143t-142.5 -215t-52.5 -263zM520 727q0 144 61 254t162 166.5t226 56.5q85 0 157.5 -25.5t123 -68.5t84 -94t50.5 -107h-122q-12 34 -34.5 67
t-57.5 63.5t-87.5 49.5t-113.5 19q-141 0 -236.5 -104t-95.5 -277t95.5 -277t236.5 -104q116 0 190 60.5t103 138.5h122q-17 -56 -50.5 -107t-84 -94t-123 -68.5t-157.5 -25.5q-125 0 -226 56.5t-162 166.5t-61 254z" />
    <glyph glyph-name="ordfeminine" unicode="&#xaa;" horiz-adv-x="677" 
d="M334 854q-89 0 -143 39.5t-54 114.5q0 94 69.5 137t194.5 53l213 16l7 39q10 63 -26 96t-110 33q-71 0 -115 -29.5t-53 -84.5h-110q13 96 91 147t189 51q123 0 189.5 -60t46.5 -165l-59 -326q-10 -61 -74 -61h-256zM248 1016q0 -82 123 -82h192l37 207l-176 -17
q-92 -8 -134 -33t-42 -75z" />
    <glyph glyph-name="guillemotleft" unicode="&#xab;" horiz-adv-x="1064" 
d="M305 145l-172 400l309 397h150l-316 -399l173 -398h-144zM539 545l309 397h149l-315 -399l172 -398h-143z" />
    <glyph glyph-name="logicalnot" unicode="&#xac;" horiz-adv-x="1409" 
d="M1040 444l78 443h-880l20 121h1004l-99 -564h-123z" />
    <glyph glyph-name="uni00AD" unicode="&#xad;" horiz-adv-x="913" 
d="M131 506l21 115h636l-20 -115h-637z" />
    <glyph glyph-name="registered" unicode="&#xae;" horiz-adv-x="1871" 
d="M967 -20q-204 0 -375.5 99.5t-271 271.5t-99.5 378q0 153 58.5 291t158 237.5t238.5 158.5t293 59q153 0 291.5 -59t238.5 -158.5t158.5 -237.5t58.5 -291q0 -207 -99.5 -379t-271.5 -271t-378 -99zM295 729q0 -139 53 -265t143 -217.5t215 -145.5t263 -54
q109 0 211.5 34t185.5 97t145.5 147t96.5 188t34 216q0 184 -90.5 339.5t-245 245t-337.5 89.5q-139 0 -264 -53t-215 -143t-142.5 -215t-52.5 -263zM651 264v856q0 31 19.5 49.5t50.5 18.5h305q140 0 223.5 -69.5t83.5 -205.5q0 -113 -57.5 -181t-161.5 -87l244 -381h-131
l-230 373h-235v-373h-111zM762 733h268q92 0 139.5 46t47.5 134q0 86 -51 132.5t-148 46.5h-256v-359z" />
    <glyph glyph-name="macron" unicode="&#xaf;" horiz-adv-x="798" 
d="M250 1380h594l-19 -106h-594z" />
    <glyph glyph-name="degree" unicode="&#xb0;" horiz-adv-x="1032" 
d="M948 1151q0 -135 -94.5 -230.5t-230.5 -95.5q-135 0 -229.5 95.5t-94.5 230.5t95 229.5t231 94.5q135 0 229 -94.5t94 -229.5zM406 1151q0 -91 63.5 -156t153.5 -65t154.5 64t64.5 157q0 91 -64 155t-153 64q-92 0 -155.5 -63.5t-63.5 -155.5z" />
    <glyph glyph-name="plusminus" unicode="&#xb1;" horiz-adv-x="1206" 
d="M520 434l72 375h-442l22 109h438l72 374h121l-72 -374h445l-23 -109h-440l-72 -375h-121zM33 188l22 109h1004l-23 -109h-1003z" />
    <glyph glyph-name="uni00B2" unicode="&#xb2;" horiz-adv-x="673" 
d="M125 965q284 179 402 277t132 179q12 67 -31 111.5t-120 44.5q-76 0 -127.5 -43t-63.5 -115h-114q20 123 104.5 186.5t206.5 63.5q127 0 203.5 -70.5t56.5 -183.5q-18 -95 -132 -199t-370 -253v-15l174 2h248l-18 -96h-567z" />
    <glyph glyph-name="uni00B3" unicode="&#xb3;" horiz-adv-x="688" 
d="M420 842q-135 0 -209 59.5t-74 175.5h113q0 -74 46 -109.5t126 -35.5q73 0 126 38.5t64 98.5q13 74 -34.5 115t-126.5 41h-74l16 88h68q72 0 134.5 34t72.5 95q11 63 -36 100t-120 37t-123 -35.5t-63 -99.5h-111q19 110 103 167.5t202 57.5q123 0 199.5 -63.5
t58.5 -165.5q-11 -66 -62 -109.5t-114 -56.5v-4q73 -24 104 -82t19 -131q-18 -98 -105 -156.5t-200 -58.5z" />
    <glyph glyph-name="acute" unicode="&#xb4;" horiz-adv-x="614" 
d="M219 1200l266 254h187l-322 -254h-131z" />
    <glyph glyph-name="uni00B5" unicode="&#xb5;" horiz-adv-x="1167" 
d="M543 -20q-117 0 -202 41.5t-128 117.5l-90 -508h-131l258 1454h131l-119 -675q-25 -142 42.5 -230t217.5 -88q146 0 244.5 86.5t128.5 255.5l117 651h131l-117 -659q-38 -213 -166 -329.5t-317 -116.5z" />
    <glyph glyph-name="paragraph" unicode="&#xb6;" horiz-adv-x="1343" 
d="M1204 1456h135l-321 -1825h-135zM141 838q0 129 39.5 239.5t116.5 195t199.5 133t277.5 48.5h238l-322 -1823h-135l135 758h-59q-230 0 -360 127t-130 322z" />
    <glyph glyph-name="periodcentered" unicode="&#xb7;" horiz-adv-x="434" 
d="M133 440l39 211h129l-37 -211h-131z" />
    <glyph glyph-name="cedilla" unicode="&#xb8;" horiz-adv-x="583" 
d="M-16 -207l90 209l108 -2l-78 -135l-2 -12h41q85 0 136 -42.5t51 -109.5q0 -85 -61 -128.5t-150 -43.5h-195l15 74h161q127 0 127 96q0 35 -26 57.5t-84 22.5h-123z" />
    <glyph glyph-name="uni00B9" unicode="&#xb9;" horiz-adv-x="446" 
d="M301 854l123 707h-211l16 96h258q28 0 44.5 -19t11.5 -45l-131 -739h-111z" />
    <glyph glyph-name="ordmasculine" unicode="&#xba;" horiz-adv-x="741" 
d="M453 842q-150 0 -230.5 97.5t-54.5 244.5q22 122 113.5 202t222.5 80q148 0 230.5 -96.5t56.5 -245.5q-22 -124 -114.5 -203t-223.5 -79zM276 1169q-19 -102 31.5 -171.5t151.5 -69.5q85 0 145 59t74 146q18 102 -27.5 173.5t-150.5 71.5q-88 0 -148 -60t-76 -149z" />
    <glyph glyph-name="guillemotright" unicode="&#xbb;" horiz-adv-x="1064" 
d="M354 942l172 -399l-309 -398h-149l315 400l-172 397h143zM473 145l315 400l-172 397h144l172 -399l-309 -398h-150z" />
    <glyph glyph-name="onequarter" unicode="&#xbc;" horiz-adv-x="1462" 
d="M264 651l123 707h-211l17 96h258q28 0 44 -18.5t11 -44.5l-131 -740h-111zM197 0l880 1454h113l-881 -1454h-112zM756 182l16 103l461 518h119q25 0 42 -17.5t11 -46.5l-129 -739h-111l33 182h-442zM895 279h319l46 251l34 172h-32l-365 -407z" />
    <glyph glyph-name="onehalf" unicode="&#xbd;" horiz-adv-x="1527" 
d="M264 651l123 707h-211l17 96h258q28 0 44 -18.5t11 -44.5l-131 -740h-111zM197 0l880 1454h113l-881 -1454h-112zM811 0l16 111q284 180 402.5 277.5t132.5 178.5q12 67 -31.5 111.5t-120.5 44.5q-76 0 -127 -43t-63 -115h-115q20 123 104.5 186.5t207.5 63.5
q127 0 203.5 -70.5t56.5 -183.5q-18 -95 -132 -199t-370 -253v-15l174 2h248l-19 -96h-567z" />
    <glyph glyph-name="threequarters" unicode="&#xbe;" horiz-adv-x="1701" 
d="M383 639q-135 0 -209 59.5t-74 175.5h113q0 -74 46 -109.5t126 -35.5q73 0 126 38.5t64 98.5q13 74 -34.5 115t-126.5 41h-74l16 88h68q72 0 134.5 34t72.5 95q11 63 -36 100t-120 37t-123 -35.5t-63 -99.5h-111q19 110 103 167.5t202 57.5q123 0 199.5 -63.5
t58.5 -165.5q-11 -66 -62 -109.5t-114 -56.5v-4q73 -24 104 -82t19 -131q-18 -98 -105 -156.5t-200 -58.5zM438 0l881 1454h113l-881 -1454h-113zM995 182l17 103l461 518h118q28 0 43.5 -19t10.5 -45l-129 -739h-111l33 182h-443zM1135 279h319l45 251l35 172h-33
l-364 -407z" />
    <glyph glyph-name="questiondown" unicode="&#xbf;" horiz-adv-x="1107" 
d="M662 637q-12 -66 -34.5 -115.5t-63 -92t-80 -73t-109.5 -75.5q-110 -71 -167.5 -135t-70.5 -140q-21 -120 59 -197t216 -77q156 0 261 95.5t124 248.5h139q-26 -212 -168 -338.5t-356 -126.5q-129 0 -229.5 51t-150.5 144.5t-30 209.5q32 188 272 336q60 38 95 64t72 62
t57.5 77t29.5 92l13 72h135zM569 881l35 204h135l-34 -204h-136z" />
    <glyph glyph-name="Agrave" unicode="&#xc0;" horiz-adv-x="1456" 
d="M-12 0l780 1454h250l268 -1454h-133l-90 506h-666l-268 -506h-141zM461 627h581l-65 362l-59 338h-89l-176 -338zM633 1802h164l186 -241h-115z" />
    <glyph glyph-name="Aacute" unicode="&#xc1;" horiz-adv-x="1456" 
d="M-12 0l780 1454h250l268 -1454h-133l-90 506h-666l-268 -506h-141zM461 627h581l-65 362l-59 338h-89l-176 -338zM842 1561l256 241h182l-313 -241h-125z" />
    <glyph glyph-name="Acircumflex" unicode="&#xc2;" horiz-adv-x="1456" 
d="M-12 0l780 1454h250l268 -1454h-133l-90 506h-666l-268 -506h-141zM461 627h581l-65 362l-59 338h-89l-176 -338zM610 1561l256 241h166l164 -241h-127l-117 153h-28l-179 -153h-135z" />
    <glyph glyph-name="Atilde" unicode="&#xc3;" horiz-adv-x="1456" 
d="M-12 0l780 1454h250l268 -1454h-133l-90 506h-666l-268 -506h-141zM461 627h581l-65 362l-59 338h-89l-176 -338zM551 1569q25 101 85 166t146 65q45 0 89.5 -21t74 -46.5t65.5 -46.5t66 -21q47 0 77.5 31t49.5 100h113q-23 -100 -84 -165.5t-146 -65.5q-46 0 -90.5 21
t-73.5 46.5t-64.5 46.5t-65.5 21q-49 0 -79.5 -31t-49.5 -100h-113z" />
    <glyph glyph-name="Adieresis" unicode="&#xc4;" horiz-adv-x="1456" 
d="M-12 0l780 1454h250l268 -1454h-133l-90 506h-666l-268 -506h-141zM461 627h581l-65 362l-59 338h-89l-176 -338zM657 1583l37 197h131l-34 -197h-134zM1042 1583l35 197h131l-34 -197h-132z" />
    <glyph glyph-name="Aring" unicode="&#xc5;" horiz-adv-x="1456" 
d="M-12 0l780 1454h250l268 -1454h-133l-90 506h-666l-268 -506h-141zM461 627h581l-65 362l-59 338h-89l-176 -338zM750 1731q0 78 53.5 130t134.5 52q82 0 136 -52t54 -130q0 -82 -54.5 -133.5t-135.5 -51.5t-134.5 51.5t-53.5 133.5zM829 1731q0 -51 31.5 -81t77.5 -30
q47 0 79 30t32 81q0 44 -32 74t-79 30t-78 -29t-31 -75z" />
    <glyph glyph-name="AE" unicode="&#xc6;" horiz-adv-x="1966" 
d="M-10 0l782 1454h1251l-20 -119h-719l-98 -544h645l-23 -121h-643l-98 -551h731l-20 -119h-867l88 506h-604l-268 -506h-137zM459 627h563l125 706h-313z" />
    <glyph glyph-name="Ccedilla" unicode="&#xc7;" horiz-adv-x="1597" 
d="M571 -471l15 74h162q126 0 126 96q0 35 -26 57.5t-84 22.5h-123l-10 14l82 189q-206 14 -349.5 127.5t-199.5 291.5t-19 387q25 146 93.5 271.5t169 218t236 145t288.5 52.5q259 0 419 -131t201 -351h-143q-38 164 -165 262.5t-326 98.5q-165 0 -302.5 -79t-222 -208
t-112.5 -287q-17 -92 -10.5 -178t29.5 -161t68.5 -137.5t104.5 -107.5t139 -69.5t172 -24.5q189 0 336.5 98.5t229.5 264.5h145q-89 -209 -263.5 -340t-412.5 -143l-67 -117l-2 -12h41q85 0 135.5 -42.5t50.5 -109.5q0 -85 -61 -128.5t-150 -43.5h-195z" />
    <glyph glyph-name="Egrave" unicode="&#xc8;" horiz-adv-x="1114" 
d="M299 1364q7 41 36.5 65.5t70.5 24.5h763l-20 -119h-719l-98 -544h645l-23 -121h-643l-98 -551h731l-20 -119h-867zM489 1802h164l187 -241h-115z" />
    <glyph glyph-name="Eacute" unicode="&#xc9;" horiz-adv-x="1114" 
d="M299 1364q7 41 36.5 65.5t70.5 24.5h763l-20 -119h-719l-98 -544h645l-23 -121h-643l-98 -551h731l-20 -119h-867zM696 1561l256 241h183l-314 -241h-125z" />
    <glyph glyph-name="Ecircumflex" unicode="&#xca;" horiz-adv-x="1114" 
d="M299 1364q7 41 36.5 65.5t70.5 24.5h763l-20 -119h-719l-98 -544h645l-23 -121h-643l-98 -551h731l-20 -119h-867zM467 1561l256 241h166l164 -241h-127l-117 153h-29l-178 -153h-135z" />
    <glyph glyph-name="Edieresis" unicode="&#xcb;" horiz-adv-x="1114" 
d="M299 1364q7 41 36.5 65.5t70.5 24.5h763l-20 -119h-719l-98 -544h645l-23 -121h-643l-98 -551h731l-20 -119h-867zM514 1583l37 197h131l-35 -197h-133zM899 1583l35 197h131l-35 -197h-131z" />
    <glyph glyph-name="Igrave" unicode="&#xcc;" horiz-adv-x="442" 
d="M313 1454h136l-256 -1454h-136zM121 1802h164l186 -241h-115z" />
    <glyph glyph-name="Iacute" unicode="&#xcd;" horiz-adv-x="442" 
d="M313 1454h136l-256 -1454h-136zM330 1561l256 241h182l-313 -241h-125z" />
    <glyph glyph-name="Icircumflex" unicode="&#xce;" horiz-adv-x="442" 
d="M313 1454h136l-256 -1454h-136zM100 1561l256 241h166l164 -241h-127l-117 153h-28l-178 -153h-136z" />
    <glyph glyph-name="Idieresis" unicode="&#xcf;" horiz-adv-x="442" 
d="M313 1454h136l-256 -1454h-136zM147 1583l37 197h131l-34 -197h-134zM532 1583l35 197h131l-34 -197h-132z" />
    <glyph glyph-name="Eth" unicode="&#xd0;" horiz-adv-x="1564" 
d="M410 1364q8 41 36.5 65.5t69.5 24.5h340q170 0 303 -57t215 -158.5t112.5 -245t0.5 -311.5q-54 -303 -281 -492.5t-547 -189.5h-491l117 664h-172l24 124h170zM324 119h350q264 0 447.5 159t228.5 412q32 183 -16.5 328.5t-176 231t-315.5 85.5h-303l-97 -547h408
l-25 -124h-405z" />
    <glyph glyph-name="Ntilde" unicode="&#xd1;" horiz-adv-x="1404" 
d="M297 1360q8 45 37 69.5t76 24.5h172l399 -1329h66l61 354l172 975h129l-256 -1454h-264l-295 975l-105 354h-67l-62 -356l-172 -973h-129zM510 1569q25 101 85 166t146 65q45 0 89.5 -21t74 -46.5t65.5 -46.5t66 -21q47 0 77.5 31t49.5 100h113q-23 -100 -83.5 -165.5
t-145.5 -65.5q-46 0 -90.5 21t-74 46.5t-65 46.5t-65.5 21q-49 0 -79.5 -31t-49.5 -100h-113z" />
    <glyph glyph-name="Ograve" unicode="&#xd2;" horiz-adv-x="1636" 
d="M770 -20q-220 0 -377.5 108t-222.5 293t-25 410q26 145 94.5 270t169.5 217t236.5 144.5t288.5 52.5q111 0 208 -29t171 -82t130.5 -127t85.5 -164.5t38 -194.5t-13 -216q-25 -145 -94 -270t-170 -216.5t-235.5 -143.5t-284.5 -52zM281 780q-32 -183 17 -337t176 -247.5
t310 -93.5q124 0 233.5 44.5t190.5 122.5t136.5 183t76.5 226q16 110 8.5 209.5t-48.5 185t-103 148t-155 98t-205 35.5q-164 0 -301.5 -78.5t-222.5 -207.5t-113 -288zM686 1800h164l186 -241h-114z" />
    <glyph glyph-name="Oacute" unicode="&#xd3;" horiz-adv-x="1636" 
d="M770 -20q-220 0 -377.5 108t-222.5 293t-25 410q26 145 94.5 270t169.5 217t236.5 144.5t288.5 52.5q111 0 208 -29t171 -82t130.5 -127t85.5 -164.5t38 -194.5t-13 -216q-25 -145 -94 -270t-170 -216.5t-235.5 -143.5t-284.5 -52zM281 780q-32 -183 17 -337t176 -247.5
t310 -93.5q124 0 233.5 44.5t190.5 122.5t136.5 183t76.5 226q16 110 8.5 209.5t-48.5 185t-103 148t-155 98t-205 35.5q-164 0 -301.5 -78.5t-222.5 -207.5t-113 -288zM895 1559l256 241h182l-313 -241h-125z" />
    <glyph glyph-name="Ocircumflex" unicode="&#xd4;" horiz-adv-x="1636" 
d="M770 -20q-220 0 -377.5 108t-222.5 293t-25 410q26 145 94.5 270t169.5 217t236.5 144.5t288.5 52.5q111 0 208 -29t171 -82t130.5 -127t85.5 -164.5t38 -194.5t-13 -216q-25 -145 -94 -270t-170 -216.5t-235.5 -143.5t-284.5 -52zM281 780q-32 -183 17 -337t176 -247.5
t310 -93.5q124 0 233.5 44.5t190.5 122.5t136.5 183t76.5 226q16 110 8.5 209.5t-48.5 185t-103 148t-155 98t-205 35.5q-164 0 -301.5 -78.5t-222.5 -207.5t-113 -288zM666 1559l256 241h165l164 -241h-127l-116 153h-29l-178 -153h-135z" />
    <glyph glyph-name="Otilde" unicode="&#xd5;" horiz-adv-x="1636" 
d="M770 -20q-220 0 -377.5 108t-222.5 293t-25 410q26 145 94.5 270t169.5 217t236.5 144.5t288.5 52.5q111 0 208 -29t171 -82t130.5 -127t85.5 -164.5t38 -194.5t-13 -216q-25 -145 -94 -270t-170 -216.5t-235.5 -143.5t-284.5 -52zM281 780q-32 -183 17 -337t176 -247.5
t310 -93.5q124 0 233.5 44.5t190.5 122.5t136.5 183t76.5 226q16 110 8.5 209.5t-48.5 185t-103 148t-155 98t-205 35.5q-164 0 -301.5 -78.5t-222.5 -207.5t-113 -288zM606 1567q25 100 85.5 165.5t146.5 65.5q45 0 89.5 -21t74 -46.5t65.5 -46.5t66 -21q47 0 77.5 31
t49.5 100h112q-23 -100 -83.5 -165.5t-145.5 -65.5q-46 0 -90.5 21t-74 46.5t-65 46.5t-65.5 21q-49 0 -79.5 -31t-49.5 -100h-113z" />
    <glyph glyph-name="Odieresis" unicode="&#xd6;" horiz-adv-x="1636" 
d="M770 -20q-220 0 -377.5 108t-222.5 293t-25 410q26 145 94.5 270t169.5 217t236.5 144.5t288.5 52.5q111 0 208 -29t171 -82t130.5 -127t85.5 -164.5t38 -194.5t-13 -216q-25 -145 -94 -270t-170 -216.5t-235.5 -143.5t-284.5 -52zM281 780q-32 -183 17 -337t176 -247.5
t310 -93.5q124 0 233.5 44.5t190.5 122.5t136.5 183t76.5 226q16 110 8.5 209.5t-48.5 185t-103 148t-155 98t-205 35.5q-164 0 -301.5 -78.5t-222.5 -207.5t-113 -288zM713 1581l37 197h131l-35 -197h-133zM1098 1581l35 197h131l-35 -197h-131z" />
    <glyph glyph-name="multiply" unicode="&#xd7;" horiz-adv-x="1073" 
d="M135 283l-76 84l430 366l-294 359l92 79l295 -360l424 360l71 -86l-424 -360l293 -356l-90 -82l-295 358z" />
    <glyph glyph-name="Oslash" unicode="&#xd8;" horiz-adv-x="1636" 
d="M770 -20q-241 0 -405 129l-177 -191h-153l246 270q-95 112 -131.5 269t-4.5 336q35 193 142 347t276 244.5t371 90.5q238 0 405 -132l179 193h153l-248 -272q93 -114 128 -269t3 -333q-25 -145 -94 -270t-170 -216.5t-235.5 -143.5t-284.5 -52zM281 780q-25 -141 0 -267
t96 -220l874 952q-135 109 -333 109q-164 0 -301.5 -78.5t-222.5 -207.5t-113 -288zM455 211q135 -109 329 -109q163 0 300 77.5t222.5 206.5t114.5 290q25 139 1 265t-93 220z" />
    <glyph glyph-name="Ugrave" unicode="&#xd9;" horiz-adv-x="1386" 
d="M627 -20q-92 0 -168 19t-128 51.5t-90.5 77t-60 94.5t-31.5 105.5t-9 107.5t10 104l159 915h135l-161 -919q-35 -203 58.5 -316t293.5 -113q184 0 307 109.5t158 310.5l162 928h135l-168 -954q-12 -69 -37.5 -136t-74 -138t-113.5 -124t-162.5 -87.5t-214.5 -34.5z
M596 1802h164l186 -241h-115z" />
    <glyph glyph-name="Uacute" unicode="&#xda;" horiz-adv-x="1386" 
d="M627 -20q-92 0 -168 19t-128 51.5t-90.5 77t-60 94.5t-31.5 105.5t-9 107.5t10 104l159 915h135l-161 -919q-35 -203 58.5 -316t293.5 -113q184 0 307 109.5t158 310.5l162 928h135l-168 -954q-12 -69 -37.5 -136t-74 -138t-113.5 -124t-162.5 -87.5t-214.5 -34.5z
M803 1561l256 241h182l-313 -241h-125z" />
    <glyph glyph-name="Ucircumflex" unicode="&#xdb;" horiz-adv-x="1386" 
d="M627 -20q-92 0 -168 19t-128 51.5t-90.5 77t-60 94.5t-31.5 105.5t-9 107.5t10 104l159 915h135l-161 -919q-35 -203 58.5 -316t293.5 -113q184 0 307 109.5t158 310.5l162 928h135l-168 -954q-12 -69 -37.5 -136t-74 -138t-113.5 -124t-162.5 -87.5t-214.5 -34.5z
M573 1561l256 241h166l164 -241h-127l-117 153h-28l-178 -153h-136z" />
    <glyph glyph-name="Udieresis" unicode="&#xdc;" horiz-adv-x="1386" 
d="M627 -20q-92 0 -168 19t-128 51.5t-90.5 77t-60 94.5t-31.5 105.5t-9 107.5t10 104l159 915h135l-161 -919q-35 -203 58.5 -316t293.5 -113q184 0 307 109.5t158 310.5l162 928h135l-168 -954q-12 -69 -37.5 -136t-74 -138t-113.5 -124t-162.5 -87.5t-214.5 -34.5z
M621 1583l36 197h131l-34 -197h-133zM1006 1583l34 197h131l-34 -197h-131z" />
    <glyph glyph-name="Yacute" unicode="&#xdd;" horiz-adv-x="1259" 
d="M573 600l-329 846v8h143l166 -448l100 -273h13l194 273l330 448h145v-8l-628 -846l-109 -600h-133zM741 1561l256 241h183l-314 -241h-125z" />
    <glyph glyph-name="Thorn" unicode="&#xde;" horiz-adv-x="1196" 
d="M57 0l258 1454h136l-56 -315h326q219 0 330 -125.5t75 -325.5q-29 -170 -169 -271.5t-343 -101.5h-366l-55 -315h-136zM270 434h365q145 0 240.5 75.5t117.5 199.5q25 136 -51 222.5t-233 86.5h-336z" />
    <glyph glyph-name="germandbls" unicode="&#xdf;" horiz-adv-x="1220" 
d="M231 991q43 241 162.5 362.5t337.5 121.5q107 0 193 -34.5t137 -92.5t72.5 -132.5t7.5 -154.5q-18 -103 -88.5 -184t-180.5 -111q125 -35 184.5 -143.5t33.5 -255.5q-31 -169 -166.5 -268t-333.5 -99h-244l23 119h221q149 0 247.5 70.5t120.5 193.5q25 137 -39.5 223
t-224.5 86h-223l18 119h170q145 0 238.5 71.5t114.5 182.5q23 125 -52 211t-227 86q-305 0 -368 -358l-179 -1004h-131z" />
    <glyph glyph-name="agrave" unicode="&#xe0;" horiz-adv-x="1153" 
d="M403 0q-178 0 -272 91.5t-65 250.5q12 68 50.5 118.5t100.5 81.5t135.5 48.5t167.5 25.5l383 33l15 82q24 133 -47 197.5t-214 64.5q-136 0 -222 -60t-109 -175h-140q27 165 159.5 256.5t316.5 91.5q200 0 309 -103.5t76 -283.5l-113 -625q-7 -45 -36.5 -69.5
t-74.5 -24.5h-420zM201 324q-18 -103 44 -154t189 -51h375l76 424l-336 -33q-77 -8 -130 -18.5t-102.5 -30.5t-78 -54t-37.5 -83zM451 1454h172l182 -254h-123z" />
    <glyph glyph-name="aacute" unicode="&#xe1;" horiz-adv-x="1153" 
d="M403 0q-178 0 -272 91.5t-65 250.5q12 68 50.5 118.5t100.5 81.5t135.5 48.5t167.5 25.5l383 33l15 82q24 133 -47 197.5t-214 64.5q-136 0 -222 -60t-109 -175h-140q27 165 159.5 256.5t316.5 91.5q200 0 309 -103.5t76 -283.5l-113 -625q-7 -45 -36.5 -69.5
t-74.5 -24.5h-420zM201 324q-18 -103 44 -154t189 -51h375l76 424l-336 -33q-77 -8 -130 -18.5t-102.5 -30.5t-78 -54t-37.5 -83zM555 1200l266 254h187l-322 -254h-131z" />
    <glyph glyph-name="acircumflex" unicode="&#xe2;" horiz-adv-x="1153" 
d="M403 0q-178 0 -272 91.5t-65 250.5q12 68 50.5 118.5t100.5 81.5t135.5 48.5t167.5 25.5l383 33l15 82q24 133 -47 197.5t-214 64.5q-136 0 -222 -60t-109 -175h-140q27 165 159.5 256.5t316.5 91.5q200 0 309 -103.5t76 -283.5l-113 -625q-7 -45 -36.5 -69.5
t-74.5 -24.5h-420zM201 324q-18 -103 44 -154t189 -51h375l76 424l-336 -33q-77 -8 -130 -18.5t-102.5 -30.5t-78 -54t-37.5 -83zM379 1200l256 254h166l164 -254h-125l-119 166h-27l-180 -166h-135z" />
    <glyph glyph-name="atilde" unicode="&#xe3;" horiz-adv-x="1153" 
d="M403 0q-178 0 -272 91.5t-65 250.5q12 68 50.5 118.5t100.5 81.5t135.5 48.5t167.5 25.5l383 33l15 82q24 133 -47 197.5t-214 64.5q-136 0 -222 -60t-109 -175h-140q27 165 159.5 256.5t316.5 91.5q200 0 309 -103.5t76 -283.5l-113 -625q-7 -45 -36.5 -69.5
t-74.5 -24.5h-420zM201 324q-18 -103 44 -154t189 -51h375l76 424l-336 -33q-77 -8 -130 -18.5t-102.5 -30.5t-78 -54t-37.5 -83zM305 1208q23 101 84 167.5t146 66.5q46 0 91 -21t74 -46.5t65 -46.5t66 -21q46 0 76.5 31t48.5 100h113q-23 -100 -83.5 -167t-145.5 -67
q-45 0 -89.5 21t-74 46.5t-65.5 46.5t-66 21q-48 0 -79 -31t-48 -100h-113z" />
    <glyph glyph-name="adieresis" unicode="&#xe4;" horiz-adv-x="1153" 
d="M403 0q-178 0 -272 91.5t-65 250.5q12 68 50.5 118.5t100.5 81.5t135.5 48.5t167.5 25.5l383 33l15 82q24 133 -47 197.5t-214 64.5q-136 0 -222 -60t-109 -175h-140q27 165 159.5 256.5t316.5 91.5q200 0 309 -103.5t76 -283.5l-113 -625q-7 -45 -36.5 -69.5
t-74.5 -24.5h-420zM201 324q-18 -103 44 -154t189 -51h375l76 424l-336 -33q-77 -8 -130 -18.5t-102.5 -30.5t-78 -54t-37.5 -83zM428 1229l37 196h131l-35 -196h-133zM813 1229l35 196h131l-35 -196h-131z" />
    <glyph glyph-name="aring" unicode="&#xe5;" horiz-adv-x="1153" 
d="M403 0q-178 0 -272 91.5t-65 250.5q12 68 50.5 118.5t100.5 81.5t135.5 48.5t167.5 25.5l383 33l15 82q24 133 -47 197.5t-214 64.5q-136 0 -222 -60t-109 -175h-140q27 165 159.5 256.5t316.5 91.5q200 0 309 -103.5t76 -283.5l-113 -625q-7 -45 -36.5 -69.5
t-74.5 -24.5h-420zM201 324q-18 -103 44 -154t189 -51h375l76 424l-336 -33q-77 -8 -130 -18.5t-102.5 -30.5t-78 -54t-37.5 -83zM522 1366q0 78 54 131t135 53t134.5 -53t53.5 -131q0 -82 -53.5 -133t-134.5 -51t-135 51t-54 133zM602 1366q0 -49 31.5 -79t77.5 -30
t77 29.5t31 79.5q0 44 -31.5 75.5t-76.5 31.5q-46 0 -77.5 -30t-31.5 -77z" />
    <glyph glyph-name="ae" unicode="&#xe6;" horiz-adv-x="2045" 
d="M403 0q-178 0 -272 91.5t-65 250.5q12 68 50.5 118.5t100.5 81.5t135.5 48.5t167.5 25.5l383 33l15 82q24 133 -47 197.5t-214 64.5q-136 0 -222 -60t-109 -175h-140q27 165 159.5 256.5t316.5 91.5q140 0 238 -51.5t134 -147.5q78 94 188 146.5t240 52.5
q112 0 208.5 -41t165.5 -115t97.5 -189.5t3.5 -252.5h-921q-3 -65 8.5 -125t39.5 -113.5t70 -92.5t103.5 -62t136.5 -23q121 0 220 64.5t153 175.5h145q-75 -171 -209.5 -261.5t-310.5 -90.5q-141 0 -249.5 57.5t-170.5 161.5l-18 -105q-16 -94 -111 -94h-420zM201 324
q-18 -103 44 -154t189 -51h375l76 424l-336 -33q-77 -8 -130 -18.5t-102.5 -30.5t-78 -54t-37.5 -83zM1032 621h785q0 167 -100.5 269.5t-256.5 102.5q-159 0 -273 -104.5t-155 -267.5z" />
    <glyph glyph-name="ccedilla" unicode="&#xe7;" horiz-adv-x="1243" 
d="M395 -471l15 74h161q127 0 127 96q0 35 -26 57.5t-84 22.5h-123l-10 14l82 189q-230 23 -346.5 195.5t-73.5 418.5q26 145 101.5 259.5t197.5 182.5t270 68q183 0 308.5 -95t164.5 -253h-139q-36 108 -124 171.5t-212 63.5q-171 0 -287.5 -118.5t-148.5 -296.5
q-12 -59 -7.5 -118.5t18 -113.5t44.5 -100.5t71.5 -80.5t98 -53.5t125.5 -19.5q123 0 220 64t155 172h143q-63 -148 -187 -241t-286 -105l-68 -117l-2 -12h41q85 0 136 -42.5t51 -109.5q0 -85 -61 -128.5t-150 -43.5h-195z" />
    <glyph glyph-name="egrave" unicode="&#xe8;" horiz-adv-x="1269" 
d="M596 -20q-168 0 -288 79.5t-170.5 220.5t-20.5 316q39 224 193.5 367t375.5 143q112 0 208.5 -41t165.5 -115t97.5 -189.5t3.5 -252.5h-921q-3 -65 8.5 -125t39.5 -113.5t70 -92.5t103.5 -62t136.5 -23q121 0 220 64.5t153 175.5h145q-75 -171 -209.5 -261.5
t-310.5 -90.5zM256 621h784q0 167 -100 269.5t-256 102.5q-159 0 -273 -104.5t-155 -267.5zM489 1454h173l182 -254h-123z" />
    <glyph glyph-name="eacute" unicode="&#xe9;" horiz-adv-x="1269" 
d="M596 -20q-168 0 -288 79.5t-170.5 220.5t-20.5 316q39 224 193.5 367t375.5 143q112 0 208.5 -41t165.5 -115t97.5 -189.5t3.5 -252.5h-921q-3 -65 8.5 -125t39.5 -113.5t70 -92.5t103.5 -62t136.5 -23q121 0 220 64.5t153 175.5h145q-75 -171 -209.5 -261.5
t-310.5 -90.5zM256 621h784q0 167 -100 269.5t-256 102.5q-159 0 -273 -104.5t-155 -267.5zM594 1200l266 254h187l-322 -254h-131z" />
    <glyph glyph-name="ecircumflex" unicode="&#xea;" horiz-adv-x="1269" 
d="M596 -20q-168 0 -288 79.5t-170.5 220.5t-20.5 316q39 224 193.5 367t375.5 143q112 0 208.5 -41t165.5 -115t97.5 -189.5t3.5 -252.5h-921q-3 -65 8.5 -125t39.5 -113.5t70 -92.5t103.5 -62t136.5 -23q121 0 220 64.5t153 175.5h145q-75 -171 -209.5 -261.5
t-310.5 -90.5zM256 621h784q0 167 -100 269.5t-256 102.5q-159 0 -273 -104.5t-155 -267.5zM420 1200l256 254h166l164 -254h-125l-119 166h-27l-180 -166h-135z" />
    <glyph glyph-name="edieresis" unicode="&#xeb;" horiz-adv-x="1269" 
d="M596 -20q-168 0 -288 79.5t-170.5 220.5t-20.5 316q39 224 193.5 367t375.5 143q112 0 208.5 -41t165.5 -115t97.5 -189.5t3.5 -252.5h-921q-3 -65 8.5 -125t39.5 -113.5t70 -92.5t103.5 -62t136.5 -23q121 0 220 64.5t153 175.5h145q-75 -171 -209.5 -261.5
t-310.5 -90.5zM256 621h784q0 167 -100 269.5t-256 102.5q-159 0 -273 -104.5t-155 -267.5zM467 1229l37 196h131l-35 -196h-133zM852 1229l35 196h131l-35 -196h-131z" />
    <glyph glyph-name="igrave" unicode="&#xec;" horiz-adv-x="434" 
d="M55 0l193 1085h131l-193 -1085h-131zM104 1454h172l183 -254h-123z" />
    <glyph glyph-name="iacute" unicode="&#xed;" horiz-adv-x="434" 
d="M55 0l193 1085h131l-193 -1085h-131zM209 1200l266 254h187l-322 -254h-131z" />
    <glyph glyph-name="icircumflex" unicode="&#xee;" horiz-adv-x="434" 
d="M55 0l193 1085h131l-193 -1085h-131zM33 1200l256 254h166l163 -254h-124l-119 166h-27l-180 -166h-135z" />
    <glyph glyph-name="idieresis" unicode="&#xef;" horiz-adv-x="434" 
d="M55 0l193 1085h131l-193 -1085h-131zM82 1229l37 196h131l-35 -196h-133zM467 1229l35 196h131l-35 -196h-131z" />
    <glyph glyph-name="eth" unicode="&#xf0;" horiz-adv-x="1280" 
d="M596 -20q-171 0 -291.5 84t-168 225.5t-17.5 312.5q38 217 191.5 360.5t373.5 143.5q225 0 358 -172q-54 163 -147 293l-516 -70l16 94l432 58q-77 83 -157 141v4h161q76 -61 130 -129l245 33l-16 -92l-168 -23q104 -163 138 -356t3 -365q-42 -243 -192 -392.5
t-375 -149.5zM250 582q-10 -72 -7.5 -142t29.5 -133t68.5 -111t108.5 -76t149 -28q174 0 287 118t147 304q10 72 8.5 140.5t-27 130t-65.5 108t-108 73.5t-154 27q-168 0 -286.5 -118.5t-149.5 -292.5z" />
    <glyph glyph-name="ntilde" unicode="&#xf1;" horiz-adv-x="1181" 
d="M229 995q7 41 36.5 65.5t70.5 24.5h352q202 0 309 -113.5t72 -309.5l-119 -662h-131l117 657q27 149 -42.5 229.5t-231.5 80.5h-306l-170 -967h-133zM301 1208q23 101 83.5 167.5t145.5 66.5q46 0 91 -21t74.5 -46.5t65.5 -46.5t66 -21q46 0 76.5 31t48.5 100h113
q-23 -100 -83.5 -167t-145.5 -67q-45 0 -89.5 21t-74 46.5t-65.5 46.5t-66 21q-48 0 -79 -31t-48 -100h-113z" />
    <glyph glyph-name="ograve" unicode="&#xf2;" horiz-adv-x="1280" 
d="M594 -20q-169 0 -289 81t-169 222t-19 315q40 221 194 364.5t379 143.5q169 0 288 -84t166.5 -224.5t18.5 -310.5q-39 -222 -194 -364.5t-375 -142.5zM248 578q-19 -98 -1.5 -186t59.5 -154.5t118 -106t172 -39.5q112 0 205.5 56.5t151 149t77.5 206.5q11 74 7.5 144.5
t-30.5 133t-68.5 109.5t-107 74.5t-145.5 27.5q-117 0 -211.5 -58t-150.5 -150.5t-76 -206.5zM510 1454h172l182 -254h-123z" />
    <glyph glyph-name="oacute" unicode="&#xf3;" horiz-adv-x="1280" 
d="M594 -20q-169 0 -289 81t-169 222t-19 315q40 221 194 364.5t379 143.5q169 0 288 -84t166.5 -224.5t18.5 -310.5q-39 -222 -194 -364.5t-375 -142.5zM248 578q-19 -98 -1.5 -186t59.5 -154.5t118 -106t172 -39.5q112 0 205.5 56.5t151 149t77.5 206.5q11 74 7.5 144.5
t-30.5 133t-68.5 109.5t-107 74.5t-145.5 27.5q-117 0 -211.5 -58t-150.5 -150.5t-76 -206.5zM614 1200l267 254h186l-322 -254h-131z" />
    <glyph glyph-name="ocircumflex" unicode="&#xf4;" horiz-adv-x="1280" 
d="M594 -20q-169 0 -289 81t-169 222t-19 315q40 221 194 364.5t379 143.5q169 0 288 -84t166.5 -224.5t18.5 -310.5q-39 -222 -194 -364.5t-375 -142.5zM248 578q-19 -98 -1.5 -186t59.5 -154.5t118 -106t172 -39.5q112 0 205.5 56.5t151 149t77.5 206.5q11 74 7.5 144.5
t-30.5 133t-68.5 109.5t-107 74.5t-145.5 27.5q-117 0 -211.5 -58t-150.5 -150.5t-76 -206.5zM440 1200l256 254h166l164 -254h-125l-119 166h-26l-181 -166h-135z" />
    <glyph glyph-name="otilde" unicode="&#xf5;" horiz-adv-x="1280" 
d="M594 -20q-169 0 -289 81t-169 222t-19 315q40 221 194 364.5t379 143.5q169 0 288 -84t166.5 -224.5t18.5 -310.5q-39 -222 -194 -364.5t-375 -142.5zM248 578q-19 -98 -1.5 -186t59.5 -154.5t118 -106t172 -39.5q112 0 205.5 56.5t151 149t77.5 206.5q11 74 7.5 144.5
t-30.5 133t-68.5 109.5t-107 74.5t-145.5 27.5q-117 0 -211.5 -58t-150.5 -150.5t-76 -206.5zM365 1208q23 101 83.5 167.5t145.5 66.5q46 0 91 -21t74.5 -46.5t65.5 -46.5t66 -21q46 0 76.5 31t48.5 100h112q-23 -100 -83.5 -167t-145.5 -67q-45 0 -89.5 21t-74 46.5
t-65.5 46.5t-66 21q-48 0 -79 -31t-48 -100h-112z" />
    <glyph glyph-name="odieresis" unicode="&#xf6;" horiz-adv-x="1280" 
d="M594 -20q-169 0 -289 81t-169 222t-19 315q40 221 194 364.5t379 143.5q169 0 288 -84t166.5 -224.5t18.5 -310.5q-39 -222 -194 -364.5t-375 -142.5zM248 578q-19 -98 -1.5 -186t59.5 -154.5t118 -106t172 -39.5q112 0 205.5 56.5t151 149t77.5 206.5q11 74 7.5 144.5
t-30.5 133t-68.5 109.5t-107 74.5t-145.5 27.5q-117 0 -211.5 -58t-150.5 -150.5t-76 -206.5zM487 1229l37 196h131l-34 -196h-134zM872 1229l35 196h131l-34 -196h-132z" />
    <glyph glyph-name="divide" unicode="&#xf7;" horiz-adv-x="1191" 
d="M117 668l20 120h1004l-21 -120h-1003zM494 303l32 189h121l-33 -189h-120zM610 965l33 188h121l-33 -188h-121z" />
    <glyph glyph-name="oslash" unicode="&#xf8;" horiz-adv-x="1280" 
d="M594 -20q-180 0 -307 94l-140 -156h-143l207 229q-68 85 -92.5 200.5t-1.5 248.5q40 223 193.5 366.5t379.5 143.5q179 0 303 -94l142 155h143l-209 -231q68 -85 92.5 -201.5t1.5 -247.5q-39 -222 -194 -364.5t-375 -142.5zM248 578q-35 -190 51 -330l610 672
q-89 73 -223 73q-117 0 -211.5 -58t-150.5 -150.5t-76 -206.5zM371 166q90 -74 225 -74q169 0 286.5 118.5t147.5 295.5q32 192 -49 330z" />
    <glyph glyph-name="ugrave" unicode="&#xf9;" horiz-adv-x="1157" 
d="M489 0q-201 0 -306 114t-70 310l118 661h131l-116 -657q-27 -149 42 -229t230 -80h283l172 966h131l-176 -991q-17 -94 -111 -94h-328zM457 1454h172l182 -254h-123z" />
    <glyph glyph-name="uacute" unicode="&#xfa;" horiz-adv-x="1157" 
d="M489 0q-201 0 -306 114t-70 310l118 661h131l-116 -657q-27 -149 42 -229t230 -80h283l172 966h131l-176 -991q-17 -94 -111 -94h-328zM561 1200l266 254h187l-322 -254h-131z" />
    <glyph glyph-name="ucircumflex" unicode="&#xfb;" horiz-adv-x="1157" 
d="M489 0q-201 0 -306 114t-70 310l118 661h131l-116 -657q-27 -149 42 -229t230 -80h283l172 966h131l-176 -991q-17 -94 -111 -94h-328zM385 1200l256 254h166l164 -254h-125l-119 166h-27l-180 -166h-135z" />
    <glyph glyph-name="udieresis" unicode="&#xfc;" horiz-adv-x="1157" 
d="M489 0q-201 0 -306 114t-70 310l118 661h131l-116 -657q-27 -149 42 -229t230 -80h283l172 966h131l-176 -991q-17 -94 -111 -94h-328zM434 1229l37 196h131l-35 -196h-133zM819 1229l35 196h131l-35 -196h-131z" />
    <glyph glyph-name="yacute" unicode="&#xfd;" horiz-adv-x="1198" 
d="M43 -369l25 127h284l129 242h-86l-213 1069l2 16h133l123 -657l60 -305h47l166 305l354 657h139l-4 -16l-743 -1354q-27 -47 -58 -65.5t-86 -18.5h-272zM590 1200l266 254h186l-321 -254h-131z" />
    <glyph glyph-name="thorn" unicode="&#xfe;" horiz-adv-x="1243" 
d="M-10 -369l321 1823h133l-65 -369h297q164 0 278 -79t158 -212t16 -296q-17 -99 -61.5 -187t-112.5 -158.5t-167 -111.5t-216 -41h-383l-65 -369h-133zM209 119h352q91 0 168.5 32.5t130.5 88.5t88 126t49 150q21 120 -7.5 220.5t-116 165.5t-224.5 65h-291z" />
    <glyph glyph-name="ydieresis" unicode="&#xff;" horiz-adv-x="1198" 
d="M43 -369l25 127h284l129 242h-86l-213 1069l2 16h133l123 -657l60 -305h47l166 305l354 657h139l-4 -16l-743 -1354q-27 -47 -58 -65.5t-86 -18.5h-272zM463 1229l37 196h131l-35 -196h-133zM848 1229l35 196h131l-35 -196h-131z" />
    <glyph glyph-name="Amacron" unicode="&#x100;" horiz-adv-x="1456" 
d="M-12 0l780 1454h250l268 -1454h-133l-90 506h-666l-268 -506h-141zM461 627h581l-65 362l-59 338h-89l-176 -338zM625 1622l18 107h594l-18 -107h-594z" />
    <glyph glyph-name="amacron" unicode="&#x101;" horiz-adv-x="1153" 
d="M403 0q-178 0 -272 91.5t-65 250.5q12 68 50.5 118.5t100.5 81.5t135.5 48.5t167.5 25.5l383 33l15 82q24 133 -47 197.5t-214 64.5q-136 0 -222 -60t-109 -175h-140q27 165 159.5 256.5t316.5 91.5q200 0 309 -103.5t76 -283.5l-113 -625q-7 -45 -36.5 -69.5
t-74.5 -24.5h-420zM201 324q-18 -103 44 -154t189 -51h375l76 424l-336 -33q-77 -8 -130 -18.5t-102.5 -30.5t-78 -54t-37.5 -83zM395 1274l19 106h594l-19 -106h-594z" />
    <glyph glyph-name="Abreve" unicode="&#x102;" horiz-adv-x="1456" 
d="M-12 0l780 1454h250l268 -1454h-133l-90 506h-666l-268 -506h-141zM461 627h581l-65 362l-59 338h-89l-176 -338zM770 1802q-4 -83 40 -121.5t118 -38.5q158 0 200 160h113q-25 -131 -111 -192.5t-215 -61.5q-122 0 -195.5 68t-60.5 186h111z" />
    <glyph glyph-name="abreve" unicode="&#x103;" horiz-adv-x="1153" 
d="M403 0q-178 0 -272 91.5t-65 250.5q12 68 50.5 118.5t100.5 81.5t135.5 48.5t167.5 25.5l383 33l15 82q24 133 -47 197.5t-214 64.5q-136 0 -222 -60t-109 -175h-140q27 165 159.5 256.5t316.5 91.5q200 0 309 -103.5t76 -283.5l-113 -625q-7 -45 -36.5 -69.5
t-74.5 -24.5h-420zM201 324q-18 -103 44 -154t189 -51h375l76 424l-336 -33q-77 -8 -130 -18.5t-102.5 -30.5t-78 -54t-37.5 -83zM545 1454q-4 -83 39.5 -124.5t115.5 -41.5q160 0 203 166h113q-25 -131 -112.5 -195.5t-215.5 -64.5q-121 0 -194 71t-60 189h111z" />
    <glyph glyph-name="Aogonek" unicode="&#x104;" horiz-adv-x="1456" 
d="M-12 0l780 1454h250l268 -1454q-213 -92 -213 -188q0 -62 103 -62h63l-22 -119h-68q-98 0 -146.5 39.5t-48.5 98.5q0 153 195 251l-86 486h-666l-268 -506h-141zM461 627h581l-65 362l-59 338h-89l-176 -338z" />
    <glyph glyph-name="aogonek" unicode="&#x105;" horiz-adv-x="1153" 
d="M784 -369q-98 0 -146 39.5t-48 98.5q0 136 160 231h-344q-183 0 -276 92.5t-64 251.5q12 68 51 118t102 81t135.5 48t165.5 25l383 33l15 82q24 133 -46.5 197.5t-214.5 64.5q-136 0 -222 -60t-109 -175h-140q27 165 160 256.5t318 91.5q199 0 307.5 -103.5t75.5 -283.5
l-113 -625q-7 -37 -33 -69t-57.5 -55.5t-62.5 -46t-51.5 -51t-20.5 -60.5q0 -62 102 -62h63l-22 -119h-68zM203 328q-19 -108 43.5 -158.5t187.5 -50.5h375l76 422l-336 -31q-73 -7 -125.5 -17.5t-102.5 -30t-80 -53.5t-38 -81z" />
    <glyph glyph-name="Cacute" unicode="&#x106;" horiz-adv-x="1597" 
d="M770 -20q-168 0 -301.5 64.5t-213 175t-109.5 258.5t-1 313q35 197 143 352t276 243.5t368 88.5q259 0 419 -131t201 -351h-143q-38 164 -165 262.5t-326 98.5q-165 0 -302.5 -79t-222 -208t-112.5 -287q-17 -92 -10.5 -178t29.5 -161t68.5 -137.5t104.5 -107.5
t139 -69.5t172 -24.5q189 0 336.5 98.5t229.5 264.5h145q-94 -220 -281 -352.5t-444 -132.5zM877 1561l256 241h182l-314 -241h-124z" />
    <glyph glyph-name="cacute" unicode="&#x107;" horiz-adv-x="1243" 
d="M596 -20q-170 0 -290.5 81.5t-169.5 222.5t-19 314q39 221 193.5 364.5t375.5 143.5q183 0 308.5 -95t164.5 -253h-139q-36 108 -124 171.5t-212 63.5q-171 0 -287.5 -118.5t-148.5 -296.5q-12 -59 -7.5 -118.5t18 -113.5t44.5 -100.5t71.5 -80.5t98 -53.5t125.5 -19.5
q123 0 220 64t155 172h143q-68 -159 -204.5 -253.5t-315.5 -94.5zM596 1200l266 254h187l-322 -254h-131z" />
    <glyph glyph-name="Ccircumflex" unicode="&#x108;" horiz-adv-x="1597" 
d="M770 -20q-168 0 -301.5 64.5t-213 175t-109.5 258.5t-1 313q35 197 143 352t276 243.5t368 88.5q259 0 419 -131t201 -351h-143q-38 164 -165 262.5t-326 98.5q-165 0 -302.5 -79t-222 -208t-112.5 -287q-17 -92 -10.5 -178t29.5 -161t68.5 -137.5t104.5 -107.5
t139 -69.5t172 -24.5q189 0 336.5 98.5t229.5 264.5h145q-94 -220 -281 -352.5t-444 -132.5zM647 1561l256 241h166l164 -241h-127l-117 153h-28l-179 -153h-135z" />
    <glyph glyph-name="ccircumflex" unicode="&#x109;" horiz-adv-x="1243" 
d="M596 -20q-170 0 -290.5 81.5t-169.5 222.5t-19 314q39 221 193.5 364.5t375.5 143.5q183 0 308.5 -95t164.5 -253h-139q-36 108 -124 171.5t-212 63.5q-171 0 -287.5 -118.5t-148.5 -296.5q-12 -59 -7.5 -118.5t18 -113.5t44.5 -100.5t71.5 -80.5t98 -53.5t125.5 -19.5
q123 0 220 64t155 172h143q-68 -159 -204.5 -253.5t-315.5 -94.5zM420 1200l256 254h166l164 -254h-125l-119 166h-27l-180 -166h-135z" />
    <glyph glyph-name="Cdotaccent" unicode="&#x10a;" horiz-adv-x="1597" 
d="M770 -20q-168 0 -301.5 64.5t-213 175t-109.5 258.5t-1 313q35 197 143 352t276 243.5t368 88.5q259 0 419 -131t201 -351h-143q-38 164 -165 262.5t-326 98.5q-165 0 -302.5 -79t-222 -208t-112.5 -287q-17 -92 -10.5 -178t29.5 -161t68.5 -137.5t104.5 -107.5
t139 -69.5t172 -24.5q189 0 336.5 98.5t229.5 264.5h145q-94 -220 -281 -352.5t-444 -132.5zM879 1579l36 207h146l-37 -207h-145z" />
    <glyph glyph-name="cdotaccent" unicode="&#x10b;" horiz-adv-x="1243" 
d="M596 -20q-170 0 -290.5 81.5t-169.5 222.5t-19 314q39 221 193.5 364.5t375.5 143.5q183 0 308.5 -95t164.5 -253h-139q-36 108 -124 171.5t-212 63.5q-171 0 -287.5 -118.5t-148.5 -296.5q-12 -59 -7.5 -118.5t18 -113.5t44.5 -100.5t71.5 -80.5t98 -53.5t125.5 -19.5
q123 0 220 64t155 172h143q-68 -159 -204.5 -253.5t-315.5 -94.5zM662 1239l36 215h131l-36 -215h-131z" />
    <glyph glyph-name="Ccaron" unicode="&#x10c;" horiz-adv-x="1597" 
d="M770 -20q-168 0 -301.5 64.5t-213 175t-109.5 258.5t-1 313q35 197 143 352t276 243.5t368 88.5q259 0 419 -131t201 -351h-143q-38 164 -165 262.5t-326 98.5q-165 0 -302.5 -79t-222 -208t-112.5 -287q-17 -92 -10.5 -178t29.5 -161t68.5 -137.5t104.5 -107.5
t139 -69.5t172 -24.5q189 0 336.5 98.5t229.5 264.5h145q-94 -220 -281 -352.5t-444 -132.5zM700 1802h127l119 -153h29l176 153h135l-254 -241h-166z" />
    <glyph glyph-name="ccaron" unicode="&#x10d;" horiz-adv-x="1243" 
d="M596 -20q-170 0 -290.5 81.5t-169.5 222.5t-19 314q39 221 193.5 364.5t375.5 143.5q183 0 308.5 -95t164.5 -253h-139q-36 108 -124 171.5t-212 63.5q-171 0 -287.5 -118.5t-148.5 -296.5q-12 -59 -7.5 -118.5t18 -113.5t44.5 -100.5t71.5 -80.5t98 -53.5t125.5 -19.5
q123 0 220 64t155 172h143q-68 -159 -204.5 -253.5t-315.5 -94.5zM475 1454h125l121 -166h27l176 166h137l-254 -254h-166z" />
    <glyph glyph-name="Dcaron" unicode="&#x10e;" horiz-adv-x="1454" 
d="M299 1364q7 41 36.5 65.5t70.5 24.5h339q170 0 303 -57t215 -158.5t112.5 -245t0.5 -311.5q-54 -303 -280.5 -492.5t-546.5 -189.5h-492zM213 119h350q264 0 447.5 159t228.5 412q32 183 -16.5 328.5t-176 231t-315.5 85.5h-303zM520 1802h127l119 -153h29l176 153h135
l-254 -241h-166z" />
    <glyph glyph-name="dcaron" unicode="&#x10f;" horiz-adv-x="1241" 
d="M592 0q-172 0 -291.5 76.5t-167 210t-18.5 301.5q17 100 61.5 187t114.5 157.5t174.5 111.5t230.5 41h357l65 369h131l-237 -1360q-8 -45 -37 -69.5t-76 -24.5h-307zM246 569q-10 -70 -7.5 -135t28.5 -122.5t67.5 -100t109 -67.5t152.5 -25h287l149 848h-350
q-178 0 -292 -115t-144 -283zM1298 1139l95 315h145l-141 -315h-99z" />
    <glyph glyph-name="Dcroat" unicode="&#x110;" horiz-adv-x="1564" 
d="M410 1364q8 41 36.5 65.5t69.5 24.5h340q170 0 303 -57t215 -158.5t112.5 -245t0.5 -311.5q-54 -303 -281 -492.5t-547 -189.5h-491l117 664h-172l24 124h170zM324 119h350q264 0 447.5 159t228.5 412q32 183 -16.5 328.5t-176 231t-315.5 85.5h-303l-97 -547h408
l-25 -124h-405z" />
    <glyph glyph-name="dcroat" unicode="&#x111;" horiz-adv-x="1241" 
d="M592 0q-172 0 -291.5 76.5t-167 210t-18.5 301.5q17 100 61.5 187t114.5 157.5t174.5 111.5t230.5 41h357l20 111h-287l19 107h287l26 151h131l-26 -151h174l-19 -107h-174l-192 -1102q-8 -45 -37 -69.5t-76 -24.5h-307zM246 569q-10 -70 -7.5 -135t28.5 -122.5
t67.5 -100t109 -67.5t152.5 -25h287l149 848h-350q-178 0 -292 -115t-144 -283z" />
    <glyph glyph-name="Emacron" unicode="&#x112;" horiz-adv-x="1114" 
d="M299 1364q7 41 36.5 65.5t70.5 24.5h763l-20 -119h-719l-98 -544h645l-23 -121h-643l-98 -551h731l-20 -119h-867zM444 1642l21 115h676l-21 -115h-676z" />
    <glyph glyph-name="emacron" unicode="&#x113;" horiz-adv-x="1269" 
d="M596 -20q-168 0 -288 79.5t-170.5 220.5t-20.5 316q39 224 193.5 367t375.5 143q112 0 208.5 -41t165.5 -115t97.5 -189.5t3.5 -252.5h-921q-3 -65 8.5 -125t39.5 -113.5t70 -92.5t103.5 -62t136.5 -23q121 0 220 64.5t153 175.5h145q-75 -171 -209.5 -261.5
t-310.5 -90.5zM256 621h784q0 167 -100 269.5t-256 102.5q-159 0 -273 -104.5t-155 -267.5zM434 1274l19 106h594l-19 -106h-594z" />
    <glyph glyph-name="Ebreve" unicode="&#x114;" horiz-adv-x="1114" 
d="M299 1364q7 41 36.5 65.5t70.5 24.5h763l-20 -119h-719l-98 -544h645l-23 -121h-643l-98 -551h731l-20 -119h-867zM627 1802q-4 -83 39.5 -121.5t117.5 -38.5q159 0 201 160h113q-25 -131 -111 -192.5t-215 -61.5q-122 0 -195.5 68t-60.5 186h111z" />
    <glyph glyph-name="ebreve" unicode="&#x115;" horiz-adv-x="1269" 
d="M596 -20q-168 0 -288 79.5t-170.5 220.5t-20.5 316q39 224 193.5 367t375.5 143q112 0 208.5 -41t165.5 -115t97.5 -189.5t3.5 -252.5h-921q-3 -65 8.5 -125t39.5 -113.5t70 -92.5t103.5 -62t136.5 -23q121 0 220 64.5t153 175.5h145q-75 -171 -209.5 -261.5
t-310.5 -90.5zM256 621h784q0 167 -100 269.5t-256 102.5q-159 0 -273 -104.5t-155 -267.5zM584 1454q-4 -83 39.5 -124.5t115.5 -41.5q160 0 203 166h113q-25 -131 -112.5 -195.5t-215.5 -64.5q-121 0 -194 71t-60 189h111z" />
    <glyph glyph-name="Edotaccent" unicode="&#x116;" horiz-adv-x="1114" 
d="M299 1364q7 41 36.5 65.5t70.5 24.5h763l-20 -119h-719l-98 -544h645l-23 -121h-643l-98 -551h731l-20 -119h-867zM698 1579l37 207h146l-37 -207h-146z" />
    <glyph glyph-name="edotaccent" unicode="&#x117;" horiz-adv-x="1269" 
d="M596 -20q-168 0 -288 79.5t-170.5 220.5t-20.5 316q39 224 193.5 367t375.5 143q112 0 208.5 -41t165.5 -115t97.5 -189.5t3.5 -252.5h-921q-3 -65 8.5 -125t39.5 -113.5t70 -92.5t103.5 -62t136.5 -23q121 0 220 64.5t153 175.5h145q-75 -171 -209.5 -261.5
t-310.5 -90.5zM256 621h784q0 167 -100 269.5t-256 102.5q-159 0 -273 -104.5t-155 -267.5zM659 1239l37 215h131l-36 -215h-132z" />
    <glyph glyph-name="Eogonek" unicode="&#x118;" horiz-adv-x="1114" 
d="M299 1364q7 41 36.5 65.5t70.5 24.5h763l-20 -119h-719l-98 -544h645l-23 -121h-643l-98 -551h731l-20 -119q-213 -92 -213 -188q0 -62 102 -62h64l-23 -119h-68q-98 0 -146 39.5t-48 98.5q0 134 158 231h-693z" />
    <glyph glyph-name="eogonek" unicode="&#x119;" horiz-adv-x="1267" 
d="M801 -369q-98 0 -146.5 39.5t-48.5 98.5q0 130 148 241q-71 -30 -160 -30q-168 0 -288.5 80.5t-170 222t-18.5 315.5q39 222 194 365t375 143q112 0 208.5 -41t165.5 -115t97.5 -189.5t3.5 -252.5h-919q-4 -83 16 -157t62.5 -132.5t114 -92.5t163.5 -34q120 0 218.5 64
t154.5 176h145q-37 -83 -83 -142t-128 -129q-95 -83 -136.5 -137.5t-41.5 -111.5q0 -62 100 -62h64l-21 -119h-69zM258 621h782q0 167 -100 269.5t-256 102.5q-158 0 -273 -105.5t-153 -266.5z" />
    <glyph glyph-name="Ecaron" unicode="&#x11a;" horiz-adv-x="1114" 
d="M299 1364q7 41 36.5 65.5t70.5 24.5h763l-20 -119h-719l-98 -544h645l-23 -121h-643l-98 -551h731l-20 -119h-867zM520 1802h127l119 -153h29l176 153h135l-254 -241h-166z" />
    <glyph glyph-name="ecaron" unicode="&#x11b;" horiz-adv-x="1269" 
d="M596 -20q-168 0 -288 79.5t-170.5 220.5t-20.5 316q39 224 193.5 367t375.5 143q112 0 208.5 -41t165.5 -115t97.5 -189.5t3.5 -252.5h-921q-3 -65 8.5 -125t39.5 -113.5t70 -92.5t103.5 -62t136.5 -23q121 0 220 64.5t153 175.5h145q-75 -171 -209.5 -261.5
t-310.5 -90.5zM256 621h784q0 167 -100 269.5t-256 102.5q-159 0 -273 -104.5t-155 -267.5zM473 1454h125l121 -166h26l177 166h137l-254 -254h-166z" />
    <glyph glyph-name="Gcircumflex" unicode="&#x11c;" horiz-adv-x="1607" 
d="M770 -20q-221 0 -378.5 109.5t-221.5 294.5t-25 407q26 145 95.5 270.5t170.5 217.5t236.5 144t286.5 52q253 0 414.5 -129.5t205.5 -352.5h-143q-42 171 -169.5 266t-321.5 95q-124 0 -234 -45t-191 -123t-136 -182.5t-76 -223.5q-18 -91 -11.5 -177t28.5 -161.5
t66.5 -138.5t104 -108t140.5 -70t175 -25q222 0 381 124.5t197 338.5l10 53h-577l20 119h713l-31 -168q-26 -145 -94.5 -258.5t-166.5 -184.5t-216.5 -107.5t-251.5 -36.5zM649 1561l256 241h166l164 -241h-127l-117 153h-28l-179 -153h-135z" />
    <glyph glyph-name="gcircumflex" unicode="&#x11d;" horiz-adv-x="1241" 
d="M94 -369l23 119h704l43 250h-270q-172 0 -291.5 75t-168.5 209.5t-19 305.5q17 100 62 187.5t115.5 157t175 110t230.5 40.5h396q40 0 62 -26t15 -68l-223 -1261q-9 -49 -40 -74t-74 -25h-740zM248 567q-19 -90 -3.5 -171.5t55 -142.5t116.5 -97.5t180 -36.5h291l147 848
h-352q-91 0 -168 -32.5t-130 -88.5t-87.5 -127t-48.5 -152zM506 1200l256 254h166l164 -254h-125l-119 166h-27l-180 -166h-135z" />
    <glyph glyph-name="Gbreve" unicode="&#x11e;" horiz-adv-x="1607" 
d="M770 -20q-221 0 -378.5 109.5t-221.5 294.5t-25 407q26 145 95.5 270.5t170.5 217.5t236.5 144t286.5 52q253 0 414.5 -129.5t205.5 -352.5h-143q-42 171 -169.5 266t-321.5 95q-124 0 -234 -45t-191 -123t-136 -182.5t-76 -223.5q-18 -91 -11.5 -177t28.5 -161.5
t66.5 -138.5t104 -108t140.5 -70t175 -25q222 0 381 124.5t197 338.5l10 53h-577l20 119h713l-31 -168q-26 -145 -94.5 -258.5t-166.5 -184.5t-216.5 -107.5t-251.5 -36.5zM809 1802q-4 -83 40 -121.5t118 -38.5q158 0 200 160h113q-25 -131 -111 -192.5t-215 -61.5
q-122 0 -195.5 68t-60.5 186h111z" />
    <glyph glyph-name="gbreve" unicode="&#x11f;" horiz-adv-x="1241" 
d="M94 -369l23 119h704l43 250h-270q-172 0 -291.5 75t-168.5 209.5t-19 305.5q17 100 62 187.5t115.5 157t175 110t230.5 40.5h396q40 0 62 -26t15 -68l-223 -1261q-9 -49 -40 -74t-74 -25h-740zM248 567q-19 -90 -3.5 -171.5t55 -142.5t116.5 -97.5t180 -36.5h291l147 848
h-352q-91 0 -168 -32.5t-130 -88.5t-87.5 -127t-48.5 -152zM670 1454q-4 -83 39.5 -124.5t115.5 -41.5q160 0 203 166h113q-25 -131 -112.5 -195.5t-215.5 -64.5q-121 0 -194 71t-60 189h111z" />
    <glyph glyph-name="Gdotaccent" unicode="&#x120;" horiz-adv-x="1607" 
d="M770 -20q-221 0 -378.5 109.5t-221.5 294.5t-25 407q26 145 95.5 270.5t170.5 217.5t236.5 144t286.5 52q253 0 414.5 -129.5t205.5 -352.5h-143q-42 171 -169.5 266t-321.5 95q-124 0 -234 -45t-191 -123t-136 -182.5t-76 -223.5q-18 -91 -11.5 -177t28.5 -161.5
t66.5 -138.5t104 -108t140.5 -70t175 -25q222 0 381 124.5t197 338.5l10 53h-577l20 119h713l-31 -168q-26 -145 -94.5 -258.5t-166.5 -184.5t-216.5 -107.5t-251.5 -36.5zM881 1579l37 207h145l-37 -207h-145z" />
    <glyph glyph-name="gdotaccent" unicode="&#x121;" horiz-adv-x="1241" 
d="M94 -369l23 119h704l43 250h-270q-172 0 -291.5 75t-168.5 209.5t-19 305.5q17 100 62 187.5t115.5 157t175 110t230.5 40.5h396q40 0 62 -26t15 -68l-223 -1261q-9 -49 -40 -74t-74 -25h-740zM248 567q-19 -90 -3.5 -171.5t55 -142.5t116.5 -97.5t180 -36.5h291l147 848
h-352q-91 0 -168 -32.5t-130 -88.5t-87.5 -127t-48.5 -152zM745 1239l37 215h131l-36 -215h-132z" />
    <glyph glyph-name="uni0122" unicode="&#x122;" horiz-adv-x="1607" 
d="M770 -20q-221 0 -378.5 109.5t-221.5 294.5t-25 407q26 145 95.5 270.5t170.5 217.5t236.5 144t286.5 52q253 0 414.5 -129.5t205.5 -352.5h-143q-42 171 -169.5 266t-321.5 95q-124 0 -234 -45t-191 -123t-136 -182.5t-76 -223.5q-18 -91 -11.5 -177t28.5 -161.5
t66.5 -138.5t104 -108t140.5 -70t175 -25q222 0 381 124.5t197 338.5l10 53h-577l20 119h713l-31 -168q-26 -145 -94.5 -258.5t-166.5 -184.5t-216.5 -107.5t-251.5 -36.5zM569 -430l121 336h139l-159 -336h-101z" />
    <glyph glyph-name="uni0123" unicode="&#x123;" horiz-adv-x="1241" 
d="M94 -369l23 119h704l43 250h-270q-172 0 -291.5 75t-168.5 209.5t-19 305.5q17 100 62 187.5t115.5 157t175 110t230.5 40.5h396q40 0 62 -26t15 -68l-223 -1261q-9 -49 -40 -74t-74 -25h-740zM248 567q-19 -90 -3.5 -171.5t55 -142.5t116.5 -97.5t180 -36.5h291l147 848
h-352q-91 0 -168 -32.5t-130 -88.5t-87.5 -127t-48.5 -152zM717 1200l264 254h121l-209 -254h-176z" />
    <glyph glyph-name="Hcircumflex" unicode="&#x124;" horiz-adv-x="1400" 
d="M1018 0l119 670h-826l-118 -670h-136l256 1454h136l-117 -666h825l117 666h133l-256 -1454h-133zM580 1561l256 241h165l164 -241h-127l-116 153h-29l-178 -153h-135z" />
    <glyph glyph-name="hcircumflex" unicode="&#x125;" horiz-adv-x="1181" 
d="M936 657q28 152 -42.5 231t-229.5 79h-308l-170 -967h-131l256 1454h131l-65 -369h313q202 0 308 -113.5t71 -309.5l-117 -662h-133zM92 1548l256 254h166l164 -254h-125l-119 166h-26l-181 -166h-135z" />
    <glyph glyph-name="Hbar" unicode="&#x126;" horiz-adv-x="1400" 
d="M1018 0l119 670h-826l-118 -670h-136l191 1081h-117l21 109h114l47 264h136l-48 -264h826l47 264h133l-47 -264h123l-21 -109h-121l-190 -1081h-133zM332 788h825l51 293h-825z" />
    <glyph glyph-name="hbar" unicode="&#x127;" horiz-adv-x="1181" 
d="M936 657q28 152 -42.5 231t-229.5 79h-308l-170 -967h-131l211 1196h-172l19 107h172l26 151h131l-26 -151h289l-19 -107h-289l-20 -111h313q202 0 308 -113.5t71 -309.5l-117 -662h-133z" />
    <glyph glyph-name="Itilde" unicode="&#x128;" horiz-adv-x="442" 
d="M313 1454h136l-256 -1454h-136zM41 1569q25 101 85 166t146 65q45 0 89.5 -21t74 -46.5t65.5 -46.5t66 -21q47 0 77.5 31t49.5 100h113q-23 -100 -83.5 -165.5t-145.5 -65.5q-46 0 -90.5 21t-74 46.5t-65 46.5t-65.5 21q-49 0 -79.5 -31t-49.5 -100h-113z" />
    <glyph glyph-name="itilde" unicode="&#x129;" horiz-adv-x="434" 
d="M55 0l193 1085h131l-193 -1085h-131zM-41 1208q23 101 83.5 167.5t145.5 66.5q46 0 91 -21t74.5 -46.5t65.5 -46.5t66 -21q46 0 76.5 31t48.5 100h113q-23 -100 -83.5 -167t-145.5 -67q-45 0 -89.5 21t-74 46.5t-65.5 46.5t-66 21q-48 0 -79 -31t-48 -100h-113z" />
    <glyph glyph-name="Imacron" unicode="&#x12a;" horiz-adv-x="442" 
d="M313 1454h136l-256 -1454h-136zM115 1622l18 107h594l-18 -107h-594z" />
    <glyph glyph-name="imacron" unicode="&#x12b;" horiz-adv-x="434" 
d="M55 0l193 1085h131l-193 -1085h-131zM49 1274l19 106h594l-19 -106h-594z" />
    <glyph glyph-name="Ibreve" unicode="&#x12c;" horiz-adv-x="442" 
d="M313 1454h136l-256 -1454h-136zM258 1802q-4 -83 40 -121.5t118 -38.5q158 0 200 160h113q-25 -131 -111 -192.5t-215 -61.5q-122 0 -195.5 68t-60.5 186h111z" />
    <glyph glyph-name="ibreve" unicode="&#x12d;" horiz-adv-x="434" 
d="M55 0l193 1085h131l-193 -1085h-131zM199 1454q-4 -83 39.5 -124.5t115.5 -41.5q160 0 203 166h113q-25 -131 -112.5 -195.5t-215.5 -64.5q-121 0 -194 71t-60 189h111z" />
    <glyph glyph-name="Iogonek" unicode="&#x12e;" horiz-adv-x="442" 
d="M313 1454h136l-256 -1454q-213 -92 -213 -188q0 -62 102 -62h63l-22 -119h-68q-98 0 -146 39.5t-48 98.5q0 82 55 146.5t145 107.5z" />
    <glyph glyph-name="iogonek" unicode="&#x12f;" horiz-adv-x="434" 
d="M274 1239l37 215h131l-36 -215h-132zM-145 -231q0 82 54.5 146.5t149.5 109.5l189 1060h131l-193 -1085q-213 -92 -213 -188q0 -62 103 -62h63l-22 -119h-68q-98 0 -146 39.5t-48 98.5z" />
    <glyph glyph-name="Idotaccent" unicode="&#x130;" horiz-adv-x="442" 
d="M313 1454h136l-256 -1454h-136zM330 1579l37 207h145l-37 -207h-145z" />
    <glyph glyph-name="dotlessi" unicode="&#x131;" horiz-adv-x="434" 
d="M55 0l193 1085h131l-193 -1085h-131z" />
    <glyph glyph-name="IJ" unicode="&#x132;" horiz-adv-x="1167" 
d="M313 1454h136l-256 -1454h-136zM451 0l22 119h332l233 1335h136l-240 -1360q-16 -94 -113 -94h-370z" />
    <glyph glyph-name="ij" unicode="&#x133;" horiz-adv-x="870" 
d="M55 0l193 1085h131l-193 -1085h-131zM145 -369l23 121h281l233 1333h131l-238 -1355q-8 -43 -37.5 -71t-78.5 -28h-314zM274 1239l37 215h131l-36 -215h-132zM707 1239l36 215h131l-36 -215h-131z" />
    <glyph glyph-name="Jcircumflex" unicode="&#x134;" horiz-adv-x="706" 
d="M-10 0l22 119h332l234 1335h135l-240 -1360q-16 -94 -113 -94h-370zM365 1561l256 241h165l164 -241h-127l-116 153h-29l-178 -153h-135z" />
    <glyph glyph-name="jcircumflex" unicode="&#x135;" horiz-adv-x="436" 
d="M-289 -369l23 121h280l234 1333h131l-238 -1355q-8 -43 -37.5 -71t-78.5 -28h-314zM31 1200l256 254h166l163 -254h-124l-119 166h-27l-180 -166h-135z" />
    <glyph glyph-name="uni0136" unicode="&#x136;" horiz-adv-x="1245" 
d="M717 733l346 -719v-14h-139l-322 688h-289l-120 -688h-136l256 1454h136l-113 -645h266l557 645h160l-2 -16l-592 -666zM322 -430l120 336h140l-160 -336h-100z" />
    <glyph glyph-name="uni0137" unicode="&#x137;" horiz-adv-x="1101" 
d="M657 580l263 -570l-2 -10h-144l-235 526h-260l-93 -526h-131l256 1454h131l-141 -805h246l405 436h156l-4 -12l-440 -471zM274 -430l121 336h140l-160 -336h-101z" />
    <glyph glyph-name="Lacute" unicode="&#x139;" horiz-adv-x="1105" 
d="M57 0l256 1454h136l-236 -1335h733l-22 -119h-867zM330 1561l256 241h182l-313 -241h-125z" />
    <glyph glyph-name="lacute" unicode="&#x13a;" horiz-adv-x="434" 
d="M186 0h-131l256 1454h131zM326 1561l256 241h182l-313 -241h-125z" />
    <glyph glyph-name="uni013B" unicode="&#x13b;" horiz-adv-x="1105" 
d="M57 0l256 1454h136l-236 -1335h733l-22 -119h-867zM289 -430l121 336h139l-160 -336h-100z" />
    <glyph glyph-name="uni013C" unicode="&#x13c;" horiz-adv-x="434" 
d="M186 0h-131l256 1454h131zM-82 -430l121 336h139l-160 -336h-100z" />
    <glyph glyph-name="Lcaron" unicode="&#x13d;" horiz-adv-x="1105" 
d="M57 0l256 1454h136l-236 -1335h733l-22 -119h-867zM705 1139l94 315h145l-141 -315h-98z" />
    <glyph glyph-name="lcaron" unicode="&#x13e;" horiz-adv-x="434" 
d="M186 0h-131l256 1454h131zM492 1139l94 315h145l-141 -315h-98z" />
    <glyph glyph-name="Ldot" unicode="&#x13f;" horiz-adv-x="1105" 
d="M57 0l256 1454h136l-236 -1335h733l-22 -119h-867zM758 670l37 211h131l-39 -211h-129z" />
    <glyph glyph-name="ldot" unicode="&#x140;" horiz-adv-x="587" 
d="M186 0h-131l256 1454h131zM457 608l39 211h129l-37 -211h-131z" />
    <glyph glyph-name="Lslash" unicode="&#x141;" horiz-adv-x="1179" 
d="M131 0l127 717l-145 -49l20 114l143 49l111 623h135l-100 -575l409 139l-20 -115l-410 -139l-114 -645h733l-23 -119h-866z" />
    <glyph glyph-name="lslash" unicode="&#x142;" horiz-adv-x="690" 
d="M315 0h-131l119 674l-203 -103l23 134l203 102l114 647h131l-100 -573l205 104l-25 -133l-205 -104z" />
    <glyph glyph-name="Nacute" unicode="&#x143;" horiz-adv-x="1404" 
d="M297 1360q8 45 37 69.5t76 24.5h172l399 -1329h66l61 354l172 975h129l-256 -1454h-264l-295 975l-105 354h-67l-62 -356l-172 -973h-129zM799 1561l256 241h182l-313 -241h-125z" />
    <glyph glyph-name="nacute" unicode="&#x144;" horiz-adv-x="1181" 
d="M229 995q7 41 36.5 65.5t70.5 24.5h352q202 0 309 -113.5t72 -309.5l-119 -662h-131l117 657q27 149 -42.5 229.5t-231.5 80.5h-306l-170 -967h-133zM551 1200l266 254h187l-322 -254h-131z" />
    <glyph glyph-name="uni0145" unicode="&#x145;" horiz-adv-x="1404" 
d="M297 1360q8 45 37 69.5t76 24.5h172l399 -1329h66l61 354l172 975h129l-256 -1454h-264l-295 975l-105 354h-67l-62 -356l-172 -973h-129zM391 -430l121 336h139l-159 -336h-101z" />
    <glyph glyph-name="uni0146" unicode="&#x146;" horiz-adv-x="1181" 
d="M229 995q7 41 36.5 65.5t70.5 24.5h352q202 0 309 -113.5t72 -309.5l-119 -662h-131l117 657q27 149 -42.5 229.5t-231.5 80.5h-306l-170 -967h-133zM309 -430l121 336h139l-159 -336h-101z" />
    <glyph glyph-name="Ncaron" unicode="&#x147;" horiz-adv-x="1404" 
d="M297 1360q8 45 37 69.5t76 24.5h172l399 -1329h66l61 354l172 975h129l-256 -1454h-264l-295 975l-105 354h-67l-62 -356l-172 -973h-129zM623 1802h127l118 -153h29l176 153h135l-254 -241h-166z" />
    <glyph glyph-name="ncaron" unicode="&#x148;" horiz-adv-x="1181" 
d="M229 995q7 41 36.5 65.5t70.5 24.5h352q202 0 309 -113.5t72 -309.5l-119 -662h-131l117 657q27 149 -42.5 229.5t-231.5 80.5h-306l-170 -967h-133zM430 1454h125l121 -166h26l177 166h137l-254 -254h-166z" />
    <glyph glyph-name="Eng" unicode="&#x14a;" horiz-adv-x="1404" 
d="M627 -369l22 129h334l41 240h-133l-297 975l-105 354h-65l-64 -356l-170 -973h-131l240 1364q7 41 36.5 65.5t70.5 24.5h176l295 -975l104 -354h68l61 354l170 975h131l-305 -1728q-17 -95 -111 -95h-368z" />
    <glyph glyph-name="eng" unicode="&#x14b;" horiz-adv-x="1181" 
d="M688 1085q201 0 308.5 -114.5t72.5 -308.5l-166 -936q-17 -95 -112 -95h-316l23 121h276l162 905q27 149 -42.5 229.5t-231.5 80.5h-304l-172 -967h-133l176 995q7 41 36.5 65.5t70.5 24.5h352z" />
    <glyph glyph-name="Omacron" unicode="&#x14c;" horiz-adv-x="1636" 
d="M770 -20q-220 0 -377.5 108t-222.5 293t-25 410q26 145 94.5 270t169.5 217t236.5 144.5t288.5 52.5q111 0 208 -29t171 -82t130.5 -127t85.5 -164.5t38 -194.5t-13 -216q-25 -145 -94 -270t-170 -216.5t-235.5 -143.5t-284.5 -52zM281 780q-32 -183 17 -337t176 -247.5
t310 -93.5q124 0 233.5 44.5t190.5 122.5t136.5 183t76.5 226q16 110 8.5 209.5t-48.5 185t-103 148t-155 98t-205 35.5q-164 0 -301.5 -78.5t-222.5 -207.5t-113 -288zM643 1640l21 115h675l-20 -115h-676z" />
    <glyph glyph-name="omacron" unicode="&#x14d;" horiz-adv-x="1280" 
d="M594 -20q-169 0 -289 81t-169 222t-19 315q40 221 194 364.5t379 143.5q169 0 288 -84t166.5 -224.5t18.5 -310.5q-39 -222 -194 -364.5t-375 -142.5zM248 578q-19 -98 -1.5 -186t59.5 -154.5t118 -106t172 -39.5q112 0 205.5 56.5t151 149t77.5 206.5q11 74 7.5 144.5
t-30.5 133t-68.5 109.5t-107 74.5t-145.5 27.5q-117 0 -211.5 -58t-150.5 -150.5t-76 -206.5zM455 1274l18 106h594l-18 -106h-594z" />
    <glyph glyph-name="Obreve" unicode="&#x14e;" horiz-adv-x="1636" 
d="M770 -20q-220 0 -377.5 108t-222.5 293t-25 410q26 145 94.5 270t169.5 217t236.5 144.5t288.5 52.5q111 0 208 -29t171 -82t130.5 -127t85.5 -164.5t38 -194.5t-13 -216q-25 -145 -94 -270t-170 -216.5t-235.5 -143.5t-284.5 -52zM281 780q-32 -183 17 -337t176 -247.5
t310 -93.5q124 0 233.5 44.5t190.5 122.5t136.5 183t76.5 226q16 110 8.5 209.5t-48.5 185t-103 148t-155 98t-205 35.5q-164 0 -301.5 -78.5t-222.5 -207.5t-113 -288zM823 1800q-4 -83 40 -121.5t118 -38.5q159 0 201 160h112q-25 -131 -111 -192.5t-214 -61.5
q-122 0 -195.5 68t-60.5 186h110z" />
    <glyph glyph-name="obreve" unicode="&#x14f;" horiz-adv-x="1280" 
d="M594 -20q-169 0 -289 81t-169 222t-19 315q40 221 194 364.5t379 143.5q169 0 288 -84t166.5 -224.5t18.5 -310.5q-39 -222 -194 -364.5t-375 -142.5zM248 578q-19 -98 -1.5 -186t59.5 -154.5t118 -106t172 -39.5q112 0 205.5 56.5t151 149t77.5 206.5q11 74 7.5 144.5
t-30.5 133t-68.5 109.5t-107 74.5t-145.5 27.5q-117 0 -211.5 -58t-150.5 -150.5t-76 -206.5zM604 1454q-4 -83 39.5 -124.5t116.5 -41.5q160 0 203 166h112q-25 -131 -112 -195.5t-215 -64.5q-121 0 -194 71t-60 189h110z" />
    <glyph glyph-name="Ohungarumlaut" unicode="&#x150;" horiz-adv-x="1636" 
d="M770 -20q-220 0 -377.5 108t-222.5 293t-25 410q26 145 94.5 270t169.5 217t236.5 144.5t288.5 52.5q111 0 208 -29t171 -82t130.5 -127t85.5 -164.5t38 -194.5t-13 -216q-25 -145 -94 -270t-170 -216.5t-235.5 -143.5t-284.5 -52zM281 780q-32 -183 17 -337t176 -247.5
t310 -93.5q124 0 233.5 44.5t190.5 122.5t136.5 183t76.5 226q16 110 8.5 209.5t-48.5 185t-103 148t-155 98t-205 35.5q-164 0 -301.5 -78.5t-222.5 -207.5t-113 -288zM709 1550l221 250h178l-277 -250h-122zM1094 1550l221 250h178l-276 -250h-123z" />
    <glyph glyph-name="ohungarumlaut" unicode="&#x151;" horiz-adv-x="1280" 
d="M594 -20q-169 0 -289 81t-169 222t-19 315q40 221 194 364.5t379 143.5q169 0 288 -84t166.5 -224.5t18.5 -310.5q-39 -222 -194 -364.5t-375 -142.5zM248 578q-19 -98 -1.5 -186t59.5 -154.5t118 -106t172 -39.5q112 0 205.5 56.5t151 149t77.5 206.5q11 74 7.5 144.5
t-30.5 133t-68.5 109.5t-107 74.5t-145.5 27.5q-117 0 -211.5 -58t-150.5 -150.5t-76 -206.5zM489 1208l207 246h178l-260 -246h-125zM868 1208l207 246h176l-260 -246h-123z" />
    <glyph glyph-name="OE" unicode="&#x152;" horiz-adv-x="1996" 
d="M754 0q-124 0 -224 26t-167.5 70t-115.5 107.5t-72.5 134t-34 153.5t-5.5 163t19 165q52 294 249 464.5t533 170.5h1116l-20 -119h-721l-97 -544h646l-21 -121h-647l-96 -551h733l-23 -119h-1052zM289 795q-119 -676 497 -676h175l217 1216h-240q-275 0 -439.5 -141.5
t-209.5 -398.5z" />
    <glyph glyph-name="oe" unicode="&#x153;" horiz-adv-x="2195" 
d="M594 -20q-169 0 -289 81t-169 222t-19 315q40 221 194 364.5t379 143.5q157 0 270.5 -73t169.5 -199q77 126 202 199t280 73q112 0 208.5 -41t165.5 -115t97.5 -189.5t3.5 -252.5h-920l-2 -8q-2 -81 19 -153t63.5 -129.5t114 -91.5t162.5 -34q120 0 218.5 64.5
t153.5 175.5h146q-75 -171 -209.5 -261.5t-310.5 -90.5q-159 0 -275.5 72t-171.5 200q-77 -126 -202.5 -199t-278.5 -73zM248 578q-19 -98 -1.5 -186t59.5 -154.5t118 -106t172 -39.5q170 0 286.5 119t145.5 295l4 20q0 1 3 18t3 23q5 83 -13.5 158t-60 135.5t-113.5 96.5
t-165 36q-117 0 -211.5 -58t-150.5 -150.5t-76 -206.5zM1182 621h784q0 167 -100 269.5t-256 102.5q-159 0 -273 -104.5t-155 -267.5z" />
    <glyph glyph-name="Racute" unicode="&#x154;" horiz-adv-x="1286" 
d="M299 1364q7 41 36.5 65.5t70.5 24.5h395q221 0 340.5 -123.5t83.5 -331.5q-26 -148 -132 -241.5t-272 -118.5l283 -639h-156l-270 631h-375l-110 -631h-136zM324 752h407q148 0 243 72t118 198q26 144 -58 228.5t-248 84.5h-360zM694 1561l256 241h183l-314 -241h-125z
" />
    <glyph glyph-name="racute" unicode="&#x155;" horiz-adv-x="704" 
d="M229 991q17 94 113 94h371l-23 -118h-332l-172 -967h-131zM375 1200l266 254h186l-321 -254h-131z" />
    <glyph glyph-name="uni0156" unicode="&#x156;" horiz-adv-x="1286" 
d="M299 1364q7 41 36.5 65.5t70.5 24.5h395q221 0 340.5 -123.5t83.5 -331.5q-26 -148 -132 -241.5t-272 -118.5l283 -639h-156l-270 631h-375l-110 -631h-136zM324 752h407q148 0 243 72t118 198q26 144 -58 228.5t-248 84.5h-360zM344 -430l121 336h139l-160 -336h-100z
" />
    <glyph glyph-name="uni0157" unicode="&#x157;" horiz-adv-x="704" 
d="M229 991q17 94 113 94h371l-23 -118h-332l-172 -967h-131zM-80 -430l121 336h139l-160 -336h-100z" />
    <glyph glyph-name="Rcaron" unicode="&#x158;" horiz-adv-x="1286" 
d="M299 1364q7 41 36.5 65.5t70.5 24.5h395q221 0 340.5 -123.5t83.5 -331.5q-26 -148 -132 -241.5t-272 -118.5l283 -639h-156l-270 631h-375l-110 -631h-136zM324 752h407q148 0 243 72t118 198q26 144 -58 228.5t-248 84.5h-360zM516 1802h127l119 -153h29l176 153h135
l-254 -241h-166z" />
    <glyph glyph-name="rcaron" unicode="&#x159;" horiz-adv-x="704" 
d="M229 991q17 94 113 94h371l-23 -118h-332l-172 -967h-131zM254 1454h125l121 -166h26l176 166h138l-254 -254h-166z" />
    <glyph glyph-name="Sacute" unicode="&#x15a;" horiz-adv-x="1273" 
d="M590 -20q-144 0 -259.5 58t-182.5 167t-68 252h135q1 -164 110 -259.5t281 -95.5q151 0 266 62t136 176q14 78 -7.5 137t-68 96.5t-111 66.5t-137 51.5t-145 46.5t-135.5 57.5t-108.5 77.5t-65 114t-3.5 160q20 110 95 186t178 109t229 33q142 0 254 -54t177.5 -159.5
t66.5 -245.5h-131q-7 162 -108 250t-271 88q-145 0 -244 -59t-117 -162q-12 -68 10.5 -120t70 -86t112 -61.5t137 -51.5t144.5 -50t135 -63t108 -85.5t64 -123t2 -168.5q-16 -89 -68.5 -157t-129.5 -108t-165.5 -59.5t-185.5 -19.5zM674 1561l256 241h182l-313 -241h-125z
" />
    <glyph glyph-name="sacute" unicode="&#x15b;" horiz-adv-x="1067" 
d="M477 -20q-186 0 -298.5 93.5t-115.5 262.5h130q3 -119 84 -180.5t208 -61.5q114 0 199.5 45.5t101.5 132.5q11 64 -20.5 107t-90 66t-131 41.5t-143.5 43.5t-127.5 61t-84 103.5t-11.5 163.5q20 113 129 180.5t266 67.5q184 0 294 -95.5t112 -252.5h-131
q-6 113 -79.5 173t-205.5 60q-107 0 -176 -39t-82 -112q-9 -50 9 -87t55 -60t87.5 -40.5t106.5 -32.5t112 -32.5t105 -44t84 -62.5t49.5 -93.5t1.5 -131.5q-23 -126 -143.5 -201t-294.5 -75zM463 1200l266 254h186l-321 -254h-131z" />
    <glyph glyph-name="Scircumflex" unicode="&#x15c;" horiz-adv-x="1273" 
d="M590 -20q-144 0 -259.5 58t-182.5 167t-68 252h135q1 -164 110 -259.5t281 -95.5q151 0 266 62t136 176q14 78 -7.5 137t-68 96.5t-111 66.5t-137 51.5t-145 46.5t-135.5 57.5t-108.5 77.5t-65 114t-3.5 160q20 110 95 186t178 109t229 33q142 0 254 -54t177.5 -159.5
t66.5 -245.5h-131q-7 162 -108 250t-271 88q-145 0 -244 -59t-117 -162q-12 -68 10.5 -120t70 -86t112 -61.5t137 -51.5t144.5 -50t135 -63t108 -85.5t64 -123t2 -168.5q-16 -89 -68.5 -157t-129.5 -108t-165.5 -59.5t-185.5 -19.5zM444 1561l256 241h166l164 -241h-127
l-117 153h-28l-178 -153h-136z" />
    <glyph glyph-name="scircumflex" unicode="&#x15d;" horiz-adv-x="1067" 
d="M477 -20q-186 0 -298.5 93.5t-115.5 262.5h130q3 -119 84 -180.5t208 -61.5q114 0 199.5 45.5t101.5 132.5q11 64 -20.5 107t-90 66t-131 41.5t-143.5 43.5t-127.5 61t-84 103.5t-11.5 163.5q20 113 129 180.5t266 67.5q184 0 294 -95.5t112 -252.5h-131
q-6 113 -79.5 173t-205.5 60q-107 0 -176 -39t-82 -112q-9 -50 9 -87t55 -60t87.5 -40.5t106.5 -32.5t112 -32.5t105 -44t84 -62.5t49.5 -93.5t1.5 -131.5q-23 -126 -143.5 -201t-294.5 -75zM287 1200l256 254h166l163 -254h-124l-119 166h-27l-180 -166h-135z" />
    <glyph glyph-name="Scedilla" unicode="&#x15e;" horiz-adv-x="1273" 
d="M391 -471l15 74h161q127 0 127 96q0 35 -26 57.5t-84 22.5h-123l-10 14l81 189q-199 19 -325 147.5t-127 327.5h135q1 -164 110 -259.5t281 -95.5q151 0 266 62t136 176q14 78 -7.5 137t-68 96.5t-111 66.5t-137 51.5t-145 46.5t-135.5 57.5t-108.5 77.5t-65 114
t-3.5 160q20 110 95 186t178 109t229 33q142 0 254 -54t177.5 -159.5t66.5 -245.5h-131q-7 162 -108 250t-271 88q-145 0 -244 -59t-117 -162q-12 -69 10 -122t69.5 -87t112 -61.5t137 -51t145 -49t135.5 -62.5t108 -85t64 -122.5t2 -168.5q-15 -83 -62.5 -148t-117 -105
t-150 -62t-170.5 -27l-68 -117l-2 -12h41q85 0 136 -42.5t51 -109.5q0 -85 -61 -128.5t-150 -43.5h-195z" />
    <glyph glyph-name="scedilla" unicode="&#x15f;" horiz-adv-x="1067" 
d="M274 -471l15 74h162q127 0 127 96q0 35 -26.5 57.5t-84.5 22.5h-123l-10 14l82 189q-160 15 -255 107.5t-98 246.5h130q3 -119 84 -180.5t208 -61.5q114 0 199.5 45.5t101.5 132.5q11 64 -20.5 107t-90 66t-131 41.5t-143.5 43.5t-127.5 61t-84 103.5t-11.5 163.5
q20 113 129 180.5t266 67.5q184 0 294 -95.5t112 -252.5h-131q-6 113 -79.5 173t-205.5 60q-107 0 -176 -39t-82 -112q-9 -50 9 -87.5t55 -61t87 -41.5t106.5 -34t112.5 -33.5t104.5 -44.5t83.5 -62.5t49.5 -91.5t2.5 -128q-21 -119 -128.5 -192t-264.5 -82l-67 -117l-2 -12
h41q85 0 135.5 -42.5t50.5 -109.5q0 -85 -61 -128.5t-150 -43.5h-195z" />
    <glyph glyph-name="Scaron" unicode="&#x160;" horiz-adv-x="1273" 
d="M590 -20q-144 0 -259.5 58t-182.5 167t-68 252h135q1 -164 110 -259.5t281 -95.5q151 0 266 62t136 176q14 78 -7.5 137t-68 96.5t-111 66.5t-137 51.5t-145 46.5t-135.5 57.5t-108.5 77.5t-65 114t-3.5 160q20 110 95 186t178 109t229 33q142 0 254 -54t177.5 -159.5
t66.5 -245.5h-131q-7 162 -108 250t-271 88q-145 0 -244 -59t-117 -162q-12 -68 10.5 -120t70 -86t112 -61.5t137 -51.5t144.5 -50t135 -63t108 -85.5t64 -123t2 -168.5q-16 -89 -68.5 -157t-129.5 -108t-165.5 -59.5t-185.5 -19.5zM498 1802h127l118 -153h29l176 153h135
l-254 -241h-165z" />
    <glyph glyph-name="scaron" unicode="&#x161;" horiz-adv-x="1067" 
d="M477 -20q-186 0 -298.5 93.5t-115.5 262.5h130q3 -119 84 -180.5t208 -61.5q114 0 199.5 45.5t101.5 132.5q11 64 -20.5 107t-90 66t-131 41.5t-143.5 43.5t-127.5 61t-84 103.5t-11.5 163.5q20 113 129 180.5t266 67.5q184 0 294 -95.5t112 -252.5h-131
q-6 113 -79.5 173t-205.5 60q-107 0 -176 -39t-82 -112q-9 -50 9 -87t55 -60t87.5 -40.5t106.5 -32.5t112 -32.5t105 -44t84 -62.5t49.5 -93.5t1.5 -131.5q-23 -126 -143.5 -201t-294.5 -75zM342 1454h125l121 -166h26l177 166h137l-254 -254h-166z" />
    <glyph glyph-name="uni0162" unicode="&#x162;" horiz-adv-x="1257" 
d="M467 0l235 1335h-475l19 119h1083l-18 -119h-473l-238 -1335h-10l-78 -135l-2 -12h41q85 0 135.5 -42.5t50.5 -109.5q0 -85 -61 -128.5t-150 -43.5h-194l14 74h162q127 0 127 96q0 35 -26.5 57.5t-84.5 22.5h-123l-10 14l90 207h-14z" />
    <glyph glyph-name="uni0163" unicode="&#x163;" horiz-adv-x="782" 
d="M778 1085l-20 -118h-281l-151 -848h282l-22 -119h-170l-78 -135l-2 -12h41q85 0 135.5 -42.5t50.5 -109.5q0 -85 -61 -128.5t-150 -43.5h-194l14 74h162q127 0 127 96q0 35 -26.5 57.5t-84.5 22.5h-123l-10 14l90 207h-37q-40 0 -62 28t-15 70l153 869h-180l20 118h181
l49 277h131l-49 -277h280z" />
    <glyph glyph-name="Tcaron" unicode="&#x164;" horiz-adv-x="1257" 
d="M467 0l235 1335h-475l19 119h1083l-18 -119h-473l-238 -1335h-133zM563 1802h127l119 -153h29l176 153h135l-254 -241h-166z" />
    <glyph glyph-name="tcaron" unicode="&#x165;" horiz-adv-x="782" 
d="M778 1085l-20 -118h-281l-151 -848h282l-22 -119h-316q-40 0 -62 28t-15 70l153 869h-180l20 118h181l49 277h131l-49 -277h280zM645 1241l94 315h146l-142 -315h-98z" />
    <glyph glyph-name="Tbar" unicode="&#x166;" horiz-adv-x="1257" 
d="M467 0l117 664h-289l22 124h289l96 547h-475l19 119h1083l-18 -119h-473l-97 -547h289l-22 -124h-289l-119 -664h-133z" />
    <glyph glyph-name="tbar" unicode="&#x167;" horiz-adv-x="782" 
d="M778 1085l-20 -118h-281l-65 -371h280l-18 -107h-283l-65 -370h282l-22 -119h-316q-40 0 -62 28t-15 70l69 391h-180l18 107h181l65 371h-180l20 118h181l49 277h131l-49 -277h280z" />
    <glyph glyph-name="Utilde" unicode="&#x168;" horiz-adv-x="1386" 
d="M627 -20q-92 0 -168 19t-128 51.5t-90.5 77t-60 94.5t-31.5 105.5t-9 107.5t10 104l159 915h135l-161 -919q-35 -203 58.5 -316t293.5 -113q184 0 307 109.5t158 310.5l162 928h135l-168 -954q-12 -69 -37.5 -136t-74 -138t-113.5 -124t-162.5 -87.5t-214.5 -34.5z
M514 1569q25 101 85 166t146 65q45 0 89.5 -21t74 -46.5t65.5 -46.5t66 -21q47 0 77.5 31t49.5 100h113q-23 -100 -83.5 -165.5t-145.5 -65.5q-46 0 -90.5 21t-74 46.5t-65 46.5t-65.5 21q-49 0 -79.5 -31t-49.5 -100h-113z" />
    <glyph glyph-name="utilde" unicode="&#x169;" horiz-adv-x="1157" 
d="M489 0q-201 0 -306 114t-70 310l118 661h131l-116 -657q-27 -149 42 -229t230 -80h283l172 966h131l-176 -991q-17 -94 -111 -94h-328zM311 1208q23 101 84 167.5t146 66.5q46 0 91 -21t74.5 -46.5t65.5 -46.5t66 -21q46 0 76.5 31t48.5 100h112q-23 -100 -83.5 -167
t-145.5 -67q-45 0 -89.5 21t-74 46.5t-65.5 46.5t-66 21q-48 0 -79 -31t-48 -100h-113z" />
    <glyph glyph-name="Umacron" unicode="&#x16a;" horiz-adv-x="1386" 
d="M627 -20q-92 0 -168 19t-128 51.5t-90.5 77t-60 94.5t-31.5 105.5t-9 107.5t10 104l159 915h135l-161 -919q-35 -203 58.5 -316t293.5 -113q184 0 307 109.5t158 310.5l162 928h135l-168 -954q-12 -69 -37.5 -136t-74 -138t-113.5 -124t-162.5 -87.5t-214.5 -34.5z
M588 1622l18 107h594l-18 -107h-594z" />
    <glyph glyph-name="umacron" unicode="&#x16b;" horiz-adv-x="1157" 
d="M489 0q-201 0 -306 114t-70 310l118 661h131l-116 -657q-27 -149 42 -229t230 -80h283l172 966h131l-176 -991q-17 -94 -111 -94h-328zM401 1274l19 106h594l-19 -106h-594z" />
    <glyph glyph-name="Ubreve" unicode="&#x16c;" horiz-adv-x="1386" 
d="M627 -20q-92 0 -168 19t-128 51.5t-90.5 77t-60 94.5t-31.5 105.5t-9 107.5t10 104l159 915h135l-161 -919q-35 -203 58.5 -316t293.5 -113q184 0 307 109.5t158 310.5l162 928h135l-168 -954q-12 -69 -37.5 -136t-74 -138t-113.5 -124t-162.5 -87.5t-214.5 -34.5z
M733 1802q-4 -83 40 -121.5t118 -38.5q159 0 201 160h112q-25 -131 -111 -192.5t-214 -61.5q-122 0 -195.5 68t-60.5 186h110z" />
    <glyph glyph-name="ubreve" unicode="&#x16d;" horiz-adv-x="1157" 
d="M489 0q-201 0 -306 114t-70 310l118 661h131l-116 -657q-27 -149 42 -229t230 -80h283l172 966h131l-176 -991q-17 -94 -111 -94h-328zM551 1454q-4 -83 39.5 -124.5t116.5 -41.5q159 0 202 166h113q-25 -131 -112.5 -195.5t-215.5 -64.5q-121 0 -194 71t-60 189h111z
" />
    <glyph glyph-name="Uring" unicode="&#x16e;" horiz-adv-x="1386" 
d="M627 -20q-92 0 -168 19t-128 51.5t-90.5 77t-60 94.5t-31.5 105.5t-9 107.5t10 104l159 915h135l-161 -919q-35 -203 58.5 -316t293.5 -113q184 0 307 109.5t158 310.5l162 928h135l-168 -954q-12 -69 -37.5 -136t-74 -138t-113.5 -124t-162.5 -87.5t-214.5 -34.5z
M711 1731q0 78 53.5 130t134.5 52q82 0 136.5 -52t54.5 -130q0 -82 -55 -133.5t-136 -51.5t-134.5 51.5t-53.5 133.5zM791 1731q0 -51 31 -81t77 -30q47 0 79 30t32 81q0 44 -32 74t-79 30t-77.5 -28.5t-30.5 -75.5z" />
    <glyph glyph-name="uring" unicode="&#x16f;" horiz-adv-x="1157" 
d="M489 0q-201 0 -306 114t-70 310l118 661h131l-116 -657q-27 -149 42 -229t230 -80h283l172 966h131l-176 -991q-17 -94 -111 -94h-328zM528 1366q0 78 54 131t135 53t134.5 -53t53.5 -131q0 -82 -53.5 -133t-134.5 -51t-135 51t-54 133zM608 1366q0 -49 31.5 -79
t77.5 -30t77 29.5t31 79.5q0 44 -31.5 75.5t-76.5 31.5q-46 0 -77.5 -30t-31.5 -77z" />
    <glyph glyph-name="Uhungarumlaut" unicode="&#x170;" horiz-adv-x="1386" 
d="M627 -20q-92 0 -168 19t-128 51.5t-90.5 77t-60 94.5t-31.5 105.5t-9 107.5t10 104l159 915h135l-161 -919q-35 -203 58.5 -316t293.5 -113q184 0 307 109.5t158 310.5l162 928h135l-168 -954q-12 -69 -37.5 -136t-74 -138t-113.5 -124t-162.5 -87.5t-214.5 -34.5z
M618 1552l222 250h178l-277 -250h-123zM1004 1552l221 250h178l-277 -250h-122z" />
    <glyph glyph-name="uhungarumlaut" unicode="&#x171;" horiz-adv-x="1157" 
d="M489 0q-201 0 -306 114t-70 310l118 661h131l-116 -657q-27 -149 42 -229t230 -80h283l172 966h131l-176 -991q-17 -94 -111 -94h-328zM434 1208l207 246h178l-260 -246h-125zM813 1208l207 246h176l-260 -246h-123z" />
    <glyph glyph-name="Uogonek" unicode="&#x172;" horiz-adv-x="1386" 
d="M573 -369q-98 0 -146 39.5t-48 98.5q0 128 137 219q-83 12 -148.5 43t-106.5 73.5t-70 96t-38.5 110t-12 115.5t9.5 113l159 915h135l-161 -919q-35 -203 58.5 -316t293.5 -113q184 0 307 109.5t158 310.5l162 928h135l-168 -954q-11 -66 -35 -130.5t-69.5 -134
t-106 -122.5t-151.5 -89.5t-199 -41.5q-170 -84 -170 -170q0 -62 102 -62h64l-23 -119h-68z" />
    <glyph glyph-name="uogonek" unicode="&#x173;" horiz-adv-x="1157" 
d="M502 -369q-98 0 -146.5 39.5t-48.5 98.5q0 139 160 231q-192 8 -289.5 120.5t-64.5 303.5l118 661h131l-116 -657q-27 -149 42 -229t230 -80h283l172 966h131l-176 -991q-17 -94 -111 -94h-178q-213 -92 -213 -188q0 -62 102 -62h64l-23 -119h-67z" />
    <glyph glyph-name="Wcircumflex" unicode="&#x174;" horiz-adv-x="2109" 
d="M1219 1327h-54l-553 -1327h-239l-127 1454h135l78 -1005l22 -322h56l131 322l422 1005h243l66 -1005l20 -322h58l131 322l434 1005h141l-639 -1454h-239l-64 983zM930 1561l256 241h166l164 -241h-127l-117 153h-29l-178 -153h-135z" />
    <glyph glyph-name="wcircumflex" unicode="&#x175;" horiz-adv-x="1708" 
d="M1124 123h37l129 305l287 657h137l-4 -16l-479 -1069h-217l-45 657l-21 306h-43l-123 -306l-278 -657h-217l-105 1069l4 16h131l54 -657l26 -305h37l123 305l279 657h225l43 -657zM670 1200l256 254h166l163 -254h-125l-118 166h-27l-180 -166h-135z" />
    <glyph glyph-name="Ycircumflex" unicode="&#x176;" horiz-adv-x="1259" 
d="M573 600l-329 846v8h143l166 -448l100 -273h13l194 273l330 448h145v-8l-628 -846l-109 -600h-133zM512 1561l256 241h166l164 -241h-127l-117 153h-29l-178 -153h-135z" />
    <glyph glyph-name="ycircumflex" unicode="&#x177;" horiz-adv-x="1198" 
d="M43 -369l25 127h284l129 242h-86l-213 1069l2 16h133l123 -657l60 -305h47l166 305l354 657h139l-4 -16l-743 -1354q-27 -47 -58 -65.5t-86 -18.5h-272zM414 1200l256 254h166l163 -254h-125l-118 166h-27l-180 -166h-135z" />
    <glyph glyph-name="Ydieresis" unicode="&#x178;" horiz-adv-x="1259" 
d="M573 600l-329 846v8h143l166 -448l100 -273h13l194 273l330 448h145v-8l-628 -846l-109 -600h-133zM559 1583l37 197h131l-35 -197h-133zM944 1583l35 197h131l-35 -197h-131z" />
    <glyph glyph-name="Zacute" unicode="&#x179;" horiz-adv-x="1228" 
d="M2 0l27 164l1056 1136l7 35h-834l21 119h991l-25 -162l-1065 -1138l-6 -35h885l-21 -119h-1036zM725 1561l256 241h182l-313 -241h-125z" />
    <glyph glyph-name="zacute" unicode="&#x17a;" horiz-adv-x="1083" 
d="M0 0l18 102l846 865h-671l22 118h850l-16 -102l-848 -864h708l-22 -119h-887zM526 1200l267 254h186l-322 -254h-131z" />
    <glyph glyph-name="Zdotaccent" unicode="&#x17b;" horiz-adv-x="1228" 
d="M2 0l27 164l1056 1136l7 35h-834l21 119h991l-25 -162l-1065 -1138l-6 -35h885l-21 -119h-1036zM725 1579l37 207h145l-37 -207h-145z" />
    <glyph glyph-name="zdotaccent" unicode="&#x17c;" horiz-adv-x="1083" 
d="M0 0l18 102l846 865h-671l22 118h850l-16 -102l-848 -864h708l-22 -119h-887zM592 1239l37 215h131l-37 -215h-131z" />
    <glyph glyph-name="Zcaron" unicode="&#x17d;" horiz-adv-x="1228" 
d="M2 0l27 164l1056 1136l7 35h-834l21 119h991l-25 -162l-1065 -1138l-6 -35h885l-21 -119h-1036zM547 1802h127l119 -153h28l176 153h136l-254 -241h-166z" />
    <glyph glyph-name="zcaron" unicode="&#x17e;" horiz-adv-x="1083" 
d="M0 0l18 102l846 865h-671l22 118h850l-16 -102l-848 -864h708l-22 -119h-887zM406 1454h124l121 -166h27l176 166h137l-254 -254h-166z" />
    <glyph glyph-name="uni018F" unicode="&#x18f;" horiz-adv-x="1630" 
d="M762 -20q-147 0 -271 52.5t-212 149t-128 245t-18 329.5h1288q14 166 -41 301t-177.5 216t-293.5 81q-89 0 -170.5 -23t-140.5 -59t-110.5 -85.5t-84.5 -96.5t-59 -97h-145q42 98 109.5 183.5t157 153t206 106.5t243.5 39q114 0 213 -29t174 -82t132 -127t86.5 -164.5
t38.5 -194.5t-13 -216q-25 -145 -94 -270t-170 -216.5t-235.5 -143.5t-284.5 -52zM260 637q1 -162 67 -284t182.5 -186.5t266.5 -64.5q235 0 404.5 151t222.5 384h-1143z" />
    <glyph glyph-name="uni0191" unicode="&#x191;" horiz-adv-x="903" 
d="M-401 -369l20 121h324l391 1110h-184l22 121h203l135 383q31 88 121 88h346l-21 -121h-323l-123 -350h301l-23 -121h-321l-401 -1143q-31 -88 -121 -88h-346z" />
    <glyph glyph-name="florin" unicode="&#x192;" horiz-adv-x="903" 
d="M-401 -369l20 121h324l391 1110h-184l22 121h203l135 383q31 88 121 88h346l-21 -121h-323l-123 -350h301l-23 -121h-321l-401 -1143q-31 -88 -121 -88h-346z" />
    <glyph glyph-name="Aringacute" unicode="&#x1fa;" horiz-adv-x="1456" 
d="M-12 0l780 1454h250l268 -1454h-133l-90 506h-666l-268 -506h-141zM461 627h581l-65 362l-59 338h-89l-176 -338zM711 1686q0 78 53.5 131t134.5 53t134.5 -53t53.5 -131q0 -82 -53.5 -133.5t-134.5 -51.5t-134.5 51.5t-53.5 133.5zM791 1686q0 -50 31 -79.5t77 -29.5
t77.5 30t31.5 79q0 44 -31.5 75t-77.5 31t-77 -29.5t-31 -76.5zM870 1915l267 254h186l-322 -254h-131z" />
    <glyph glyph-name="aringacute" unicode="&#x1fb;" horiz-adv-x="1153" 
d="M403 0q-178 0 -272 91.5t-65 250.5q12 68 50.5 118.5t100.5 81.5t135.5 48.5t167.5 25.5l383 33l15 82q24 133 -47 197.5t-214 64.5q-136 0 -222 -60t-109 -175h-140q27 165 159.5 256.5t316.5 91.5q200 0 309 -103.5t76 -283.5l-113 -625q-7 -45 -36.5 -69.5
t-74.5 -24.5h-420zM201 324q-18 -103 44 -154t189 -51h375l76 424l-336 -33q-77 -8 -130 -18.5t-102.5 -30.5t-78 -54t-37.5 -83zM479 1337q0 78 54 131.5t135 53.5t134.5 -53t53.5 -132q0 -82 -53.5 -133t-134.5 -51t-135 51t-54 133zM559 1337q0 -49 31.5 -78.5
t77.5 -29.5t77 29.5t31 78.5q0 45 -31 76t-77 31t-77.5 -30t-31.5 -77zM641 1567l266 254h187l-322 -254h-131z" />
    <glyph glyph-name="AEacute" unicode="&#x1fc;" horiz-adv-x="1966" 
d="M-10 0l782 1454h1251l-20 -119h-719l-98 -544h645l-23 -121h-643l-98 -551h731l-20 -119h-867l88 506h-604l-268 -506h-137zM459 627h563l125 706h-313zM1286 1561l256 241h182l-313 -241h-125z" />
    <glyph glyph-name="aeacute" unicode="&#x1fd;" horiz-adv-x="2045" 
d="M403 0q-178 0 -272 91.5t-65 250.5q12 68 50.5 118.5t100.5 81.5t135.5 48.5t167.5 25.5l383 33l15 82q24 133 -47 197.5t-214 64.5q-136 0 -222 -60t-109 -175h-140q27 165 159.5 256.5t316.5 91.5q140 0 238 -51.5t134 -147.5q78 94 188 146.5t240 52.5
q112 0 208.5 -41t165.5 -115t97.5 -189.5t3.5 -252.5h-921q-3 -65 8.5 -125t39.5 -113.5t70 -92.5t103.5 -62t136.5 -23q121 0 220 64.5t153 175.5h145q-75 -171 -209.5 -261.5t-310.5 -90.5q-141 0 -249.5 57.5t-170.5 161.5l-18 -105q-16 -94 -111 -94h-420zM201 324
q-18 -103 44 -154t189 -51h375l76 424l-336 -33q-77 -8 -130 -18.5t-102.5 -30.5t-78 -54t-37.5 -83zM1010 1200l266 254h186l-321 -254h-131zM1032 621h785q0 167 -100.5 269.5t-256.5 102.5q-159 0 -273 -104.5t-155 -267.5z" />
    <glyph glyph-name="Oslashacute" unicode="&#x1fe;" horiz-adv-x="1636" 
d="M770 -20q-241 0 -405 129l-177 -191h-153l246 270q-95 112 -131.5 269t-4.5 336q35 193 142 347t276 244.5t371 90.5q238 0 405 -132l179 193h153l-248 -272q93 -114 128 -269t3 -333q-25 -145 -94 -270t-170 -216.5t-235.5 -143.5t-284.5 -52zM281 780q-25 -141 0 -267
t96 -220l874 952q-135 109 -333 109q-164 0 -301.5 -78.5t-222.5 -207.5t-113 -288zM455 211q135 -109 329 -109q163 0 300 77.5t222.5 206.5t114.5 290q25 139 1 265t-93 220zM895 1559l256 241h182l-313 -241h-125z" />
    <glyph glyph-name="oslashacute" unicode="&#x1ff;" horiz-adv-x="1280" 
d="M594 -20q-180 0 -307 94l-140 -156h-143l207 229q-68 85 -92.5 200.5t-1.5 248.5q40 223 193.5 366.5t379.5 143.5q179 0 303 -94l142 155h143l-209 -231q68 -85 92.5 -201.5t1.5 -247.5q-39 -222 -194 -364.5t-375 -142.5zM248 578q-35 -190 51 -330l610 672
q-89 73 -223 73q-117 0 -211.5 -58t-150.5 -150.5t-76 -206.5zM371 166q90 -74 225 -74q169 0 286.5 118.5t147.5 295.5q32 192 -49 330zM633 1200l266 254h186l-321 -254h-131z" />
    <glyph glyph-name="uni0218" unicode="&#x218;" horiz-adv-x="1273" 
d="M590 -20q-144 0 -259.5 58t-182.5 167t-68 252h135q1 -164 110 -259.5t281 -95.5q151 0 266 62t136 176q14 78 -7.5 137t-68 96.5t-111 66.5t-137 51.5t-145 46.5t-135.5 57.5t-108.5 77.5t-65 114t-3.5 160q20 110 95 186t178 109t229 33q142 0 254 -54t177.5 -159.5
t66.5 -245.5h-131q-7 162 -108 250t-271 88q-145 0 -244 -59t-117 -162q-12 -68 10.5 -120t70 -86t112 -61.5t137 -51.5t144.5 -50t135 -63t108 -85.5t64 -123t2 -168.5q-16 -89 -68.5 -157t-129.5 -108t-165.5 -59.5t-185.5 -19.5zM391 -430l121 336h139l-159 -336h-101z
" />
    <glyph glyph-name="uni0219" unicode="&#x219;" horiz-adv-x="1067" 
d="M477 -20q-186 0 -298.5 93.5t-115.5 262.5h130q3 -119 84 -180.5t208 -61.5q114 0 199.5 45.5t101.5 132.5q11 64 -20.5 107t-90 66t-131 41.5t-143.5 43.5t-127.5 61t-84 103.5t-11.5 163.5q20 113 129 180.5t266 67.5q184 0 294 -95.5t112 -252.5h-131
q-6 113 -79.5 173t-205.5 60q-107 0 -176 -39t-82 -112q-9 -50 9 -87t55 -60t87.5 -40.5t106.5 -32.5t112 -32.5t105 -44t84 -62.5t49.5 -93.5t1.5 -131.5q-23 -126 -143.5 -201t-294.5 -75zM274 -430l121 336h140l-160 -336h-101z" />
    <glyph glyph-name="uni021A" unicode="&#x21a;" horiz-adv-x="1257" 
d="M467 0l235 1335h-475l19 119h1083l-18 -119h-473l-238 -1335h-133zM330 -430l121 336h139l-160 -336h-100z" />
    <glyph glyph-name="uni021B" unicode="&#x21b;" horiz-adv-x="782" 
d="M778 1085l-20 -118h-281l-151 -848h282l-22 -119h-316q-40 0 -62 28t-15 70l153 869h-180l20 118h181l49 277h131l-49 -277h280zM158 -430l121 336h139l-160 -336h-100z" />
    <glyph glyph-name="uni0237" unicode="&#x237;" horiz-adv-x="436" 
d="M-289 -369l23 121h280l234 1333h131l-238 -1355q-8 -43 -37.5 -71t-78.5 -28h-314z" />
    <glyph glyph-name="uni0259" unicode="&#x259;" horiz-adv-x="1269" 
d="M674 1106q167 0 287.5 -80t171 -221t20.5 -316q-39 -223 -193.5 -366t-375.5 -143q-112 0 -208.5 41t-165.5 115t-97.5 189.5t-3.5 252.5h921q4 82 -16 155t-62.5 132t-114.5 93.5t-165 34.5q-121 0 -220 -64t-153 -175h-145q75 171 209.5 261.5t310.5 90.5zM229 465
q0 -167 100.5 -270t256.5 -103q159 0 273 105t155 268h-785z" />
    <glyph glyph-name="uni02BC" unicode="&#x2bc;" horiz-adv-x="512" 
d="M227 983l152 471h143l-184 -471h-111z" />
    <glyph glyph-name="circumflex" unicode="&#x2c6;" horiz-adv-x="790" 
d="M680 1200l-119 166h-26l-181 -166h-135l256 254h166l164 -254h-125z" />
    <glyph glyph-name="caron" unicode="&#x2c7;" horiz-adv-x="790" 
d="M711 1454h137l-254 -254h-166l-166 254h125l121 -166h27z" />
    <glyph glyph-name="breve" unicode="&#x2d8;" horiz-adv-x="786" 
d="M516 1194q-121 0 -194 71t-60 189h111q-4 -83 39.5 -124.5t115.5 -41.5q160 0 203 166h113q-25 -131 -112.5 -195.5t-215.5 -64.5z" />
    <glyph glyph-name="dotaccent" unicode="&#x2d9;" horiz-adv-x="350" 
d="M221 1219l39 215h143l-36 -215h-146z" />
    <glyph glyph-name="ring" unicode="&#x2da;" horiz-adv-x="589" 
d="M440 1182q-81 0 -134.5 51t-53.5 133q0 78 53.5 131t134.5 53t135 -53t54 -131q0 -82 -54 -133t-135 -51zM332 1366q0 -50 31 -79.5t77 -29.5t77.5 30t31.5 79q0 44 -31.5 75.5t-77.5 31.5t-77 -30t-31 -77z" />
    <glyph glyph-name="ogonek" unicode="&#x2db;" horiz-adv-x="559" 
d="M131 -403q-82 0 -124 40t-42 103q0 67 41.5 133t136.5 147l88 -20q-147 -116 -147 -211q0 -76 106 -76h121l-20 -116h-160z" />
    <glyph glyph-name="tilde" unicode="&#x2dc;" horiz-adv-x="929" 
d="M221 1210q23 101 84 167.5t146 66.5q46 0 91 -21t74.5 -46.5t65.5 -46.5t66 -21q46 0 75.5 30.5t48.5 100.5h113q-23 -100 -83.5 -167t-145.5 -67q-45 0 -89.5 21t-74 46.5t-65.5 46.5t-66 21q-48 0 -79 -31t-48 -100h-113z" />
    <glyph glyph-name="hungarumlaut" unicode="&#x2dd;" horiz-adv-x="931" 
d="M604 1208l207 246h178l-260 -246h-125zM219 1208l207 246h178l-260 -246h-125z" />
    <glyph glyph-name="gravecomb" unicode="&#x300;" 
d="M494 1200l-232 254h172l182 -254h-122z" />
    <glyph glyph-name="acutecomb" unicode="&#x301;" 
d="M219 1200l266 254h187l-322 -254h-131z" />
    <glyph glyph-name="uni0302" unicode="&#x302;" 
d="M680 1200l-119 166h-26l-181 -166h-135l256 254h166l164 -254h-125z" />
    <glyph glyph-name="tildecomb" unicode="&#x303;" 
d="M221 1210q23 101 84 167.5t146 66.5q46 0 91 -21t74.5 -46.5t65.5 -46.5t66 -21q46 0 75.5 30.5t48.5 100.5h113q-23 -100 -83.5 -167t-145.5 -67q-45 0 -89.5 21t-74 46.5t-65.5 46.5t-66 21q-48 0 -79 -31t-48 -100h-113z" />
    <glyph glyph-name="uni0304" unicode="&#x304;" 
d="M250 1380h594l-19 -106h-594z" />
    <glyph glyph-name="uni0306" unicode="&#x306;" 
d="M516 1194q-121 0 -194 71t-60 189h111q-4 -83 39.5 -124.5t115.5 -41.5q160 0 203 166h113q-25 -131 -112.5 -195.5t-215.5 -64.5z" />
    <glyph glyph-name="uni0307" unicode="&#x307;" 
d="M225 1239l37 215h131l-37 -215h-131z" />
    <glyph glyph-name="uni0308" unicode="&#x308;" 
d="M608 1229l35 196h131l-35 -196h-131zM223 1229l37 196h131l-35 -196h-133z" />
    <glyph glyph-name="uni030A" unicode="&#x30a;" 
d="M440 1182q-81 0 -134.5 51t-53.5 133q0 78 53.5 131t134.5 53t135 -53t54 -131q0 -82 -54 -133t-135 -51zM332 1366q0 -50 31 -79.5t77 -29.5t77.5 30t31.5 79q0 44 -31.5 75.5t-77.5 31.5t-77 -30t-31 -77z" />
    <glyph glyph-name="uni030B" unicode="&#x30b;" 
d="M598 1208l207 246h176l-260 -246h-123zM219 1208l207 246h178l-260 -246h-125z" />
    <glyph glyph-name="uni030C" unicode="&#x30c;" 
d="M711 1454h137l-254 -254h-166l-166 254h125l121 -166h27z" />
    <glyph glyph-name="uni0312" unicode="&#x312;" 
d="M219 1200l264 254h121l-209 -254h-176z" />
    <glyph glyph-name="uni0326" unicode="&#x326;" 
d="M-70 -430l121 336h139l-159 -336h-101z" />
    <glyph glyph-name="uni0327" unicode="&#x327;" 
d="M-76 -471l15 74h161q127 0 127 96q0 35 -26 57.5t-84 22.5h-123l-10 14l90 209l108 -2l-78 -135l-2 -12h41q85 0 136 -42.5t51 -109.5q0 -85 -61 -128.5t-150 -43.5h-195z" />
    <glyph glyph-name="uni0328" unicode="&#x328;" 
d="M164 -369q-98 0 -146.5 39.5t-48.5 98.5q0 88 65 157.5t177 114.5l90 -41q-213 -92 -213 -188q0 -62 102 -62h64l-23 -119h-67z" />
    <glyph glyph-name="uni0337" unicode="&#x337;" 
d="M109 571l22 134l553 280l-25 -133z" />
    <glyph glyph-name="uni0338" unicode="&#x338;" 
d="M-8 -82l231 258l899 991h144l-230 -254l-41 -47l-698 -768l-162 -180h-143z" />
    <glyph glyph-name="uni03A9" unicode="&#x3a9;" horiz-adv-x="1677" 
d="M43 0l23 129h372q-176 108 -249 287t-35 399q23 128 84 243.5t157 210t237 150.5t308 56q114 0 212.5 -29.5t172.5 -83t130.5 -127.5t85.5 -163.5t38 -191t-12 -208.5q-33 -181 -132 -321t-237 -222h307l-22 -129h-615l19 111q198 19 351 177t194 390q17 87 11 171
t-27.5 159t-66 138.5t-103.5 109.5t-140.5 72t-177.5 26q-104 0 -197 -30t-165 -83t-129 -125t-93.5 -155.5t-52.5 -174.5q-13 -89 -9.5 -175t32 -167t74 -146.5t116.5 -114t158 -70.5l-19 -113h-600z" />
    <glyph glyph-name="pi" unicode="&#x3c0;" horiz-adv-x="1411" 
d="M899 0q-43 0 -64.5 29t-15.5 69l152 869h-496l-168 -967h-131l168 967h-180l22 118h1219l-21 -118h-280l-150 -848h281l-23 -119h-313z" />
    <glyph glyph-name="Wgrave" unicode="&#x1e80;" horiz-adv-x="2109" 
d="M1219 1327h-54l-553 -1327h-239l-127 1454h135l78 -1005l22 -322h56l131 322l422 1005h243l66 -1005l20 -322h58l131 322l434 1005h141l-639 -1454h-239l-64 983zM952 1802h164l187 -241h-115z" />
    <glyph glyph-name="wgrave" unicode="&#x1e81;" horiz-adv-x="1708" 
d="M1124 123h37l129 305l287 657h137l-4 -16l-479 -1069h-217l-45 657l-21 306h-43l-123 -306l-278 -657h-217l-105 1069l4 16h131l54 -657l26 -305h37l123 305l279 657h225l43 -657zM741 1454h172l183 -254h-123z" />
    <glyph glyph-name="Wacute" unicode="&#x1e82;" horiz-adv-x="2109" 
d="M1219 1327h-54l-553 -1327h-239l-127 1454h135l78 -1005l22 -322h56l131 322l422 1005h243l66 -1005l20 -322h58l131 322l434 1005h141l-639 -1454h-239l-64 983zM1159 1561l256 241h182l-313 -241h-125z" />
    <glyph glyph-name="wacute" unicode="&#x1e83;" horiz-adv-x="1708" 
d="M1124 123h37l129 305l287 657h137l-4 -16l-479 -1069h-217l-45 657l-21 306h-43l-123 -306l-278 -657h-217l-105 1069l4 16h131l54 -657l26 -305h37l123 305l279 657h225l43 -657zM846 1200l266 254h186l-321 -254h-131z" />
    <glyph glyph-name="Wdieresis" unicode="&#x1e84;" horiz-adv-x="2109" 
d="M1219 1327h-54l-553 -1327h-239l-127 1454h135l78 -1005l22 -322h56l131 322l422 1005h243l66 -1005l20 -322h58l131 322l434 1005h141l-639 -1454h-239l-64 983zM977 1583l37 197h131l-35 -197h-133zM1362 1583l35 197h131l-35 -197h-131z" />
    <glyph glyph-name="wdieresis" unicode="&#x1e85;" horiz-adv-x="1708" 
d="M1124 123h37l129 305l287 657h137l-4 -16l-479 -1069h-217l-45 657l-21 306h-43l-123 -306l-278 -657h-217l-105 1069l4 16h131l54 -657l26 -305h37l123 305l279 657h225l43 -657zM717 1229l37 196h131l-35 -196h-133zM1102 1229l35 196h131l-35 -196h-131z" />
    <glyph glyph-name="uni1E9E" unicode="&#x1e9e;" horiz-adv-x="1261" 
d="M299 1364q7 41 36.5 65.5t70.5 24.5h827l-27 -166l-461 -487q200 -12 310 -132.5t78 -299.5q-28 -156 -162 -262.5t-342 -106.5h-234l23 119h215q148 0 245 78t115 186q23 129 -50.5 215t-237.5 86h-138l19 117l463 493l8 41h-629l-235 -1335h-136z" />
    <glyph glyph-name="uni1EBC" unicode="&#x1ebc;" horiz-adv-x="1114" 
d="M299 1364q7 41 36.5 65.5t70.5 24.5h763l-20 -119h-719l-98 -544h645l-23 -121h-643l-98 -551h731l-20 -119h-867zM408 1569q25 101 85 166t146 65q45 0 89.5 -21t74 -46.5t65.5 -46.5t66 -21q47 0 77.5 31t49.5 100h113q-23 -100 -84 -165.5t-146 -65.5q-46 0 -90.5 21
t-74 46.5t-65 46.5t-65.5 21q-49 0 -79.5 -31t-49.5 -100h-112z" />
    <glyph glyph-name="uni1EBD" unicode="&#x1ebd;" horiz-adv-x="1269" 
d="M596 -20q-168 0 -288 79.5t-170.5 220.5t-20.5 316q39 224 193.5 367t375.5 143q112 0 208.5 -41t165.5 -115t97.5 -189.5t3.5 -252.5h-921q-3 -65 8.5 -125t39.5 -113.5t70 -92.5t103.5 -62t136.5 -23q121 0 220 64.5t153 175.5h145q-75 -171 -209.5 -261.5
t-310.5 -90.5zM256 621h784q0 167 -100 269.5t-256 102.5q-159 0 -273 -104.5t-155 -267.5zM344 1208q23 101 83.5 167.5t145.5 66.5q46 0 91 -21t74.5 -46.5t65.5 -46.5t66 -21q46 0 76.5 31t48.5 100h113q-23 -100 -83.5 -167t-145.5 -67q-45 0 -89.5 21t-74 46.5
t-65.5 46.5t-66 21q-48 0 -79 -31t-48 -100h-113z" />
    <glyph glyph-name="Ygrave" unicode="&#x1ef2;" horiz-adv-x="1259" 
d="M573 600l-329 846v8h143l166 -448l100 -273h13l194 273l330 448h145v-8l-628 -846l-109 -600h-133zM532 1802h164l187 -241h-115z" />
    <glyph glyph-name="ygrave" unicode="&#x1ef3;" horiz-adv-x="1198" 
d="M43 -369l25 127h284l129 242h-86l-213 1069l2 16h133l123 -657l60 -305h47l166 305l354 657h139l-4 -16l-743 -1354q-27 -47 -58 -65.5t-86 -18.5h-272zM485 1454h172l183 -254h-123z" />
    <glyph glyph-name="uni1EF8" unicode="&#x1ef8;" horiz-adv-x="1259" 
d="M573 600l-329 846v8h143l166 -448l100 -273h13l194 273l330 448h145v-8l-628 -846l-109 -600h-133zM453 1569q25 101 85 166t146 65q45 0 89.5 -21t74 -46.5t65.5 -46.5t66 -21q47 0 77.5 31t49.5 100h113q-23 -100 -84 -165.5t-146 -65.5q-46 0 -90.5 21t-74 46.5
t-65 46.5t-65.5 21q-49 0 -79.5 -31t-49.5 -100h-112z" />
    <glyph glyph-name="uni1EF9" unicode="&#x1ef9;" horiz-adv-x="1198" 
d="M43 -369l25 127h284l129 242h-86l-213 1069l2 16h133l123 -657l60 -305h47l166 305l354 657h139l-4 -16l-743 -1354q-27 -47 -58 -65.5t-86 -18.5h-272zM340 1208q23 101 83.5 167.5t145.5 66.5q46 0 91 -21t74.5 -46.5t65.5 -46.5t66 -21q46 0 76.5 31t48.5 100h113
q-23 -100 -84 -167t-146 -67q-45 0 -89.5 21t-73.5 46.5t-65 46.5t-66 21q-48 0 -79 -31t-48 -100h-113z" />
    <glyph glyph-name="uni2002" unicode="&#x2002;" horiz-adv-x="1024" 
 />
    <glyph glyph-name="uni2003" unicode="&#x2003;" horiz-adv-x="2048" 
 />
    <glyph glyph-name="uni2004" unicode="&#x2004;" horiz-adv-x="681" 
 />
    <glyph glyph-name="uni2005" unicode="&#x2005;" horiz-adv-x="512" 
 />
    <glyph glyph-name="uni2009" unicode="&#x2009;" horiz-adv-x="256" 
 />
    <glyph glyph-name="uni200A" unicode="&#x200a;" horiz-adv-x="86" 
 />
    <glyph glyph-name="uni200B" unicode="&#x200b;" 
 />
    <glyph glyph-name="endash" unicode="&#x2013;" horiz-adv-x="1267" 
d="M104 506l21 115h1046l-20 -115h-1047z" />
    <glyph glyph-name="emdash" unicode="&#x2014;" horiz-adv-x="1964" 
d="M145 506l21 115h1661l-21 -115h-1661z" />
    <glyph glyph-name="quoteleft" unicode="&#x2018;" horiz-adv-x="507" 
d="M227 983l183 471h106l-147 -471h-142z" />
    <glyph glyph-name="quoteright" unicode="&#x2019;" horiz-adv-x="512" 
d="M227 983l152 471h143l-184 -471h-111z" />
    <glyph glyph-name="quotesinglbase" unicode="&#x201a;" horiz-adv-x="512" 
d="M14 -225l152 471h143l-184 -471h-111z" />
    <glyph glyph-name="quotedblleft" unicode="&#x201c;" horiz-adv-x="860" 
d="M227 983l183 471h106l-147 -471h-142zM580 983l182 471h106l-147 -471h-141z" />
    <glyph glyph-name="quotedblright" unicode="&#x201d;" horiz-adv-x="864" 
d="M227 983l152 471h143l-184 -471h-111zM580 983l151 471h143l-184 -471h-110z" />
    <glyph glyph-name="quotedblbase" unicode="&#x201e;" horiz-adv-x="864" 
d="M14 -225l152 471h143l-184 -471h-111zM367 -225l151 471h144l-185 -471h-110z" />
    <glyph glyph-name="dagger" unicode="&#x2020;" horiz-adv-x="1263" 
d="M434 -205l201 1139h-402l21 125h403l70 395h131l-70 -395h402l-21 -125h-403l-201 -1139h-131z" />
    <glyph glyph-name="daggerdbl" unicode="&#x2021;" horiz-adv-x="1282" 
d="M444 -205l115 645h-403l22 125h402l65 369h-401l20 125h404l69 395h131l-69 -395h401l-20 -125h-404l-65 -369h403l-22 -125h-402l-115 -645h-131z" />
    <glyph glyph-name="bullet" unicode="&#x2022;" horiz-adv-x="708" 
d="M365 401q-82 0 -139.5 56.5t-57.5 138.5t57.5 138.5t139.5 56.5t138 -56.5t56 -138.5t-56 -138.5t-138 -56.5z" />
    <glyph glyph-name="ellipsis" unicode="&#x2026;" horiz-adv-x="1159" 
d="M55 0l39 211h129l-37 -211h-131zM418 0l39 211h129l-37 -211h-131zM780 0l39 211h129l-37 -211h-131z" />
    <glyph glyph-name="uni202F" unicode="&#x202f;" horiz-adv-x="256" 
 />
    <glyph glyph-name="perthousand" unicode="&#x2030;" horiz-adv-x="2684" 
d="M420 639q-133 0 -206 85.5t-73 221.5q0 106 23.5 198t68.5 165t118.5 115t166.5 42q131 0 204 -83.5t73 -221.5q0 -148 -40.5 -264t-127 -187t-207.5 -71zM256 954q0 -100 43 -160.5t127 -60.5t143 63.5t85 156.5t26 202q0 99 -43 158t-129 59q-63 0 -113 -37t-79.5 -98
t-44.5 -133.5t-15 -149.5zM492 0l880 1454h113l-881 -1454h-112zM1161 295q0 106 23.5 198t68.5 165t118.5 115t166.5 42q131 0 204 -83.5t73 -221.5q0 -148 -40.5 -264t-127 -187t-207.5 -71q-133 0 -206 85.5t-73 221.5zM1276 303q0 -100 43 -160.5t127 -60.5t143 63.5
t85 156.5t26 202q0 99 -43 158t-129 59q-63 0 -113 -37t-79.5 -98t-44.5 -133.5t-15 -149.5zM1954 295q0 106 23.5 198t68.5 165t118.5 115t166.5 42q131 0 203.5 -83.5t72.5 -221.5q0 -148 -40.5 -264t-127 -187t-207.5 -71q-133 0 -205.5 85.5t-72.5 221.5zM2068 303
q0 -100 43 -160.5t127 -60.5t143 63.5t85 156.5t26 202q0 99 -43 158t-129 59q-63 0 -113 -37t-79.5 -98t-44.5 -133.5t-15 -149.5z" />
    <glyph glyph-name="guilsinglleft" unicode="&#x2039;" horiz-adv-x="659" 
d="M305 145l-172 400l309 397h150l-316 -399l173 -398h-144z" />
    <glyph glyph-name="guilsinglright" unicode="&#x203a;" horiz-adv-x="659" 
d="M354 942l172 -399l-309 -398h-149l315 400l-172 397h143z" />
    <glyph glyph-name="fraction" unicode="&#x2044;" horiz-adv-x="395" 
d="M-250 0l881 1454h112l-880 -1454h-113z" />
    <glyph glyph-name="uni2070" unicode="&#x2070;" horiz-adv-x="757" 
d="M457 842q-133 0 -206 85.5t-73 221.5q0 106 23.5 198t68.5 165t118.5 115t166.5 42q131 0 203.5 -83.5t72.5 -221.5q0 -148 -40.5 -264t-126.5 -187t-207 -71zM293 1157q0 -100 43 -160.5t127 -60.5t143 63.5t85 156.5t26 202q0 99 -43 158t-129 59q-63 0 -113 -37
t-79.5 -98t-44.5 -133.5t-15 -149.5z" />
    <glyph glyph-name="uni2074" unicode="&#x2074;" horiz-adv-x="679" 
d="M535 854l32 182h-442l16 103l461 518h119q28 0 43 -19t10 -45l-129 -739h-110zM264 1133h320l45 251l35 172h-33l-365 -407z" />
    <glyph glyph-name="uni2075" unicode="&#x2075;" horiz-adv-x="710" 
d="M432 842q-132 0 -207 67.5t-75 171.5h106q7 -71 56.5 -111t125.5 -40q80 0 138.5 46.5t70.5 119.5q14 85 -31 138.5t-131 53.5q-125 0 -190 -96h-72q-16 0 -23.5 10t-4.5 23l92 366q8 29 28.5 47.5t46.5 18.5h455l-18 -96h-422l-66 -258q72 67 201 67q127 0 198.5 -79
t49.5 -204q-19 -108 -107.5 -176.5t-220.5 -68.5z" />
    <glyph glyph-name="uni2076" unicode="&#x2076;" horiz-adv-x="733" 
d="M471 842q-76 0 -134 22.5t-91.5 61.5t-53 92t-19 114.5t10.5 129.5q15 83 45.5 154.5t76.5 129t112 90.5t145 33q114 0 183.5 -62.5t74.5 -162.5h-114q-9 66 -49 100.5t-107 34.5q-68 0 -122 -43t-85 -108.5t-47 -151.5q78 90 221 90q138 0 210.5 -84.5t51.5 -204.5
q-20 -106 -110 -170.5t-199 -64.5zM287 1128q-14 -80 35.5 -139t144.5 -59q78 0 132.5 44t66.5 113q14 82 -32.5 138.5t-137.5 56.5q-80 0 -138 -42t-71 -112z" />
    <glyph glyph-name="uni2077" unicode="&#x2077;" horiz-adv-x="616" 
d="M174 854l465 707h-426l16 96h551l-14 -80l-469 -723h-123z" />
    <glyph glyph-name="uni2078" unicode="&#x2078;" horiz-adv-x="714" 
d="M430 842q-87 0 -155.5 28.5t-105 86.5t-22.5 135q12 65 65.5 113.5t133.5 68.5l2 4q-129 56 -106 190q17 93 102 147t197 54q114 0 193 -66t61 -165q-10 -60 -56 -103t-110 -59l-2 -6q72 -31 108 -85.5t23 -129.5q-15 -93 -106 -153t-222 -60zM264 1094
q-12 -70 36.5 -117t139.5 -47q80 0 138 38.5t67 98.5q13 75 -41 118.5t-137 43.5q-79 0 -136 -37t-67 -98zM350 1458q-10 -62 33.5 -103.5t116.5 -41.5q69 0 121.5 33.5t62.5 89.5q11 66 -36 105.5t-120 39.5q-71 0 -120 -34t-58 -89z" />
    <glyph glyph-name="uni2079" unicode="&#x2079;" horiz-adv-x="735" 
d="M408 842q-111 0 -179.5 62t-68.5 163h114q3 -66 40 -100.5t104 -34.5q55 0 101.5 25t79 68.5t54.5 95t35 110.5q-83 -98 -223 -98q-133 0 -205.5 83.5t-52.5 208.5q19 109 106 176.5t209 67.5q79 0 137.5 -22.5t90.5 -62t50 -92.5t16 -113.5t-11 -125.5
q-30 -177 -134 -294t-263 -117zM322 1415q-14 -80 32 -138t138 -58q78 0 137 47.5t71 119.5q14 80 -33 137.5t-139 57.5q-80 0 -136 -46.5t-70 -119.5z" />
    <glyph glyph-name="Euro" unicode="&#x20ac;" horiz-adv-x="1345" 
d="M711 -20q-89 0 -162.5 29.5t-124 78.5t-87 118t-56 144t-27.5 160h-160l21 119h133q0 97 12 182h-115l23 119h115q28 118 75.5 215.5t115 172t158.5 116t197 41.5q102 0 188 -38.5t146 -104.5t97.5 -153t48.5 -186h-140q-24 171 -112.5 266t-241.5 95q-146 0 -249.5 -116
t-151.5 -308h557l-25 -119h-553q-12 -83 -12 -182h537l-23 -119h-510q9 -85 31 -154.5t60.5 -128.5t102 -92t146.5 -33q123 0 221.5 98t151.5 265h139q-28 -103 -73 -188.5t-108.5 -153t-152 -105.5t-192.5 -38z" />
    <glyph glyph-name="uni2116" unicode="&#x2116;" horiz-adv-x="2408" 
d="M1616 631l16 90h631l-16 -90h-631zM131 0l240 1360q16 94 112 94h170l295 -975l105 -354h65l62 354l172 975h131l-256 -1454h-266l-295 975l-105 354h-67l-62 -356l-172 -973h-129zM1706 1116q0 145 95.5 247.5t246.5 102.5q128 0 209.5 -76.5t81.5 -195.5
q0 -150 -97 -251t-245 -101q-128 0 -209.5 74.5t-81.5 199.5zM1815 1116q0 -86 50.5 -137t135.5 -51q100 0 162.5 79t62.5 187q0 84 -49 134t-135 50q-101 0 -164 -78.5t-63 -183.5z" />
    <glyph glyph-name="uni2117" unicode="&#x2117;" horiz-adv-x="1871" 
d="M967 -20q-204 0 -375.5 99.5t-271 271.5t-99.5 378q0 153 58.5 291t158 237.5t238.5 158.5t293 59q153 0 291.5 -59t238.5 -158.5t158.5 -237.5t58.5 -291q0 -207 -99.5 -379t-271.5 -271t-378 -99zM295 729q0 -139 53 -265t143 -217.5t215 -145.5t263 -54
q109 0 211.5 34t185.5 97t145.5 147t96.5 188t34 216q0 184 -90.5 339.5t-245 245t-337.5 89.5q-139 0 -264 -53t-215 -143t-142.5 -215t-52.5 -263zM686 264v856q0 31 19.5 49.5t50.5 18.5h284q140 0 224 -69.5t84 -205.5q0 -134 -82 -205t-222 -71h-247v-373h-111z
M797 733h247q92 0 139.5 46t47.5 134q0 86 -51 132.5t-148 46.5h-235v-359z" />
    <glyph glyph-name="trademark" unicode="&#x2122;" horiz-adv-x="1970" 
d="M432 651l123 697h-246l19 106h612l-18 -106h-246l-123 -697h-121zM909 651l133 754q9 49 58 49h170l53 -500l20 -192h25l86 192l232 500h217l-142 -803h-110l86 490l37 202h-29l-94 -202l-226 -490h-172l-59 490l-23 202h-28l-35 -202l-88 -490h-111z" />
    <glyph glyph-name="estimated" unicode="&#x212e;" horiz-adv-x="1794" 
d="M936 0q-235 0 -418 89.5t-286 257t-103 388.5q0 163 60 301.5t166 234.5t255.5 150t325.5 54q362 0 577 -197.5t230 -560.5h-1284q-11 0 -16.5 -2t-10 -10.5t-4.5 -26.5v-361q0 -30 37.5 -73t101 -85.5t162.5 -72t207 -29.5q147 0 283 66t227 170h151
q-145 -161 -291 -227t-370 -66zM428 780q0 -18 31 -18h950q21 0 27 7t6 28v354q0 56 -78.5 120.5t-198.5 108t-231 43.5q-102 0 -200.5 -31t-162.5 -73.5t-103.5 -85t-39.5 -68.5v-385z" />
    <glyph glyph-name="uni2153" unicode="&#x2153;" horiz-adv-x="1536" 
d="M264 651l123 707h-211l17 96h258q28 0 44 -18.5t11 -44.5l-131 -740h-111zM197 0l880 1454h113l-881 -1454h-112zM946 223q0 -74 46 -109.5t126 -35.5q73 0 126.5 38.5t64.5 98.5q13 74 -35 115t-127 41h-74l17 88h67q72 0 134.5 34t72.5 95q11 63 -36 100t-120 37
t-123 -35.5t-63 -99.5h-111q19 110 103.5 167.5t202.5 57.5q123 0 199.5 -63.5t58.5 -165.5q-11 -66 -62.5 -109.5t-114.5 -56.5v-4q73 -24 104 -82t19 -131q-18 -98 -105 -156.5t-200 -58.5q-135 0 -208.5 59.5t-73.5 175.5h112z" />
    <glyph glyph-name="uni2154" unicode="&#x2154;" horiz-adv-x="1783" 
d="M88 762q283 179 402 277.5t133 179.5q12 67 -31.5 111t-120.5 44q-76 0 -127 -42.5t-63 -114.5h-115q20 123 104 186t207 63q127 0 203.5 -70.5t56.5 -183.5q-18 -95 -132 -199.5t-369 -252.5v-15l174 3h247l-18 -97h-567zM444 0l881 1454h113l-881 -1454h-113zM1194 223
q0 -74 46 -109.5t126 -35.5q73 0 126 38.5t64 98.5q13 74 -34.5 115t-126.5 41h-74l16 88h68q72 0 134.5 34t72.5 95q11 63 -36 100t-120 37t-123 -35.5t-63 -99.5h-111q19 110 103 167.5t202 57.5q123 0 199.5 -63.5t58.5 -165.5q-11 -66 -62 -109.5t-114 -56.5v-4
q73 -24 104 -82t19 -131q-18 -98 -105 -156.5t-200 -58.5q-135 0 -209 59.5t-74 175.5h113z" />
    <glyph glyph-name="oneeighth" unicode="&#x215b;" horiz-adv-x="1564" 
d="M264 651l123 707h-211l17 96h258q28 0 44 -18.5t11 -44.5l-131 -740h-111zM197 0l880 1454h113l-881 -1454h-112zM846 238q12 65 65 113.5t133 68.5l3 4q-130 56 -107 190q17 93 102 147t197 54q114 0 193 -66t61 -165q-10 -60 -56 -103t-110 -59l-2 -6q72 -31 108 -85.5
t23 -129.5q-15 -93 -106 -153t-222 -60q-87 0 -155 28.5t-104.5 86.5t-22.5 135zM963 240q-12 -70 36.5 -117t139.5 -47q80 0 137.5 38.5t66.5 98.5q13 75 -41 118.5t-137 43.5q-79 0 -135.5 -37t-66.5 -98zM1049 604q-10 -62 33 -103.5t116 -41.5q69 0 121.5 33.5
t62.5 89.5q11 66 -35.5 105.5t-119.5 39.5q-71 0 -120 -34t-58 -89z" />
    <glyph glyph-name="threeeighths" unicode="&#x215c;" horiz-adv-x="1804" 
d="M383 639q-135 0 -209 59.5t-74 175.5h113q0 -74 46 -109.5t126 -35.5q73 0 126 38.5t64 98.5q13 74 -34.5 115t-126.5 41h-74l16 88h68q72 0 134.5 34t72.5 95q11 63 -36 100t-120 37t-123 -35.5t-63 -99.5h-111q19 110 103 167.5t202 57.5q123 0 199.5 -63.5
t58.5 -165.5q-11 -66 -62 -109.5t-114 -56.5v-4q73 -24 104 -82t19 -131q-18 -98 -105 -156.5t-200 -58.5zM438 0l881 1454h113l-881 -1454h-113zM1085 238q12 65 65.5 113.5t133.5 68.5l2 4q-129 56 -106 190q17 93 102 147t197 54q114 0 193 -66t61 -165q-10 -60 -56 -103
t-110 -59l-2 -6q72 -31 108 -85.5t23 -129.5q-15 -93 -106 -153t-222 -60q-87 0 -155.5 28.5t-105 86.5t-22.5 135zM1202 240q-12 -70 36.5 -117t139.5 -47q80 0 138 38.5t67 98.5q13 75 -41 118.5t-137 43.5q-79 0 -136 -37t-67 -98zM1288 604q-10 -62 33.5 -103.5
t116.5 -41.5q69 0 121.5 33.5t62.5 89.5q11 66 -36 105.5t-120 39.5q-71 0 -120 -34t-58 -89z" />
    <glyph glyph-name="fiveeighths" unicode="&#x215d;" horiz-adv-x="1826" 
d="M395 639q-132 0 -207 68t-75 172h106q7 -71 56.5 -111.5t125.5 -40.5q80 0 138.5 46.5t70.5 119.5q14 85 -30.5 138.5t-130.5 53.5q-126 0 -191 -96h-72q-16 0 -23.5 10t-4.5 23l92 367q7 29 28.5 47t47.5 18h454l-18 -96h-422l-66 -258q72 67 201 67q128 0 198.5 -78.5
t49.5 -203.5q-19 -108 -107.5 -177t-220.5 -69zM461 0l880 1454h113l-881 -1454h-112zM1108 238q12 65 65.5 113.5t133.5 68.5l2 4q-130 56 -107 190q17 93 102 147t197 54q114 0 193 -66t61 -165q-10 -60 -56 -103t-110 -59l-2 -6q72 -31 108 -85.5t23 -129.5
q-15 -93 -105.5 -153t-221.5 -60q-87 0 -155.5 28.5t-105 86.5t-22.5 135zM1225 240q-12 -70 36.5 -117t139.5 -47q80 0 138 38.5t67 98.5q13 75 -41.5 118.5t-137.5 43.5q-79 0 -135.5 -37t-66.5 -98zM1311 604q-10 -62 33 -103.5t116 -41.5q69 0 122 33.5t63 89.5
q11 66 -36 105.5t-120 39.5q-71 0 -120 -34t-58 -89z" />
    <glyph glyph-name="seveneighths" unicode="&#x215e;" horiz-adv-x="1597" 
d="M137 651l465 707h-426l17 96h550l-14 -80l-469 -723h-123zM229 0l881 1454h113l-881 -1454h-113zM879 238q12 65 65 113.5t133 68.5l2 4q-129 56 -106 190q17 93 102 147t197 54q114 0 193 -66t61 -165q-10 -60 -56 -103t-110 -59l-2 -6q72 -31 108 -85.5t23 -129.5
q-15 -93 -106 -153t-222 -60q-87 0 -155 28.5t-104.5 86.5t-22.5 135zM995 240q-12 -70 36.5 -117t139.5 -47q80 0 138 38.5t67 98.5q13 75 -41 118.5t-137 43.5q-79 0 -136 -37t-67 -98zM1081 604q-10 -62 33.5 -103.5t116.5 -41.5q69 0 121.5 33.5t62.5 89.5
q11 66 -35.5 105.5t-119.5 39.5q-71 0 -120.5 -34.5t-58.5 -88.5z" />
    <glyph glyph-name="arrowleft" unicode="&#x2190;" horiz-adv-x="1857" 
d="M1694 795v-136h-1239l495 -485h-180l-551 553l551 553h180l-495 -485h1239z" />
    <glyph glyph-name="arrowup" unicode="&#x2191;" horiz-adv-x="1509" 
d="M739 0v1239l-485 -496v181l553 551l553 -551v-181l-486 496v-1239h-135z" />
    <glyph glyph-name="arrowright" unicode="&#x2192;" horiz-adv-x="1857" 
d="M229 795h1239l-495 485h180l551 -553l-551 -553h-180l495 485h-1239v136z" />
    <glyph glyph-name="arrowdown" unicode="&#x2193;" horiz-adv-x="1509" 
d="M700 1454h136v-1239l485 496v-181l-553 -550l-553 550v181l485 -496v1239z" />
    <glyph glyph-name="uni2196" unicode="&#x2196;" horiz-adv-x="1638" 
d="M1405 279l-94 -97l-879 879l8 -696l-127 127l2 780l781 2l127 -127l-695 8z" />
    <glyph glyph-name="uni2197" unicode="&#x2197;" horiz-adv-x="1425" 
d="M139 276l877 877l-694 -8l127 127h780l2 -780l-127 -130l8 697l-876 -879z" />
    <glyph glyph-name="uni2198" unicode="&#x2198;" horiz-adv-x="1638" 
d="M393 1274l877 -877l-8 693l127 -127v-781l-781 -2l-129 129l695 -8l-877 877z" />
    <glyph glyph-name="uni2199" unicode="&#x2199;" horiz-adv-x="1425" 
d="M1356 1194l-879 -877l694 9l-127 -127l-780 2l-2 780l129 127l-8 -694l877 876z" />
    <glyph glyph-name="partialdiff" unicode="&#x2202;" horiz-adv-x="1280" 
d="M596 -20q-171 0 -291.5 84t-168 225.5t-17.5 312.5q38 217 191.5 360.5t373.5 143.5q225 0 358 -172q-51 158 -146 289.5t-226 226.5v4h161q88 -71 156 -162.5t107 -187t62 -199.5t22 -199t-15 -186q-42 -241 -193 -390.5t-374 -149.5zM250 582q-10 -72 -7.5 -142
t29.5 -133t68.5 -111t108.5 -76t149 -28q174 0 287 118t147 304q10 72 8.5 140.5t-27 130t-65.5 108t-108 73.5t-154 27q-168 0 -286.5 -118.5t-149.5 -292.5z" />
    <glyph glyph-name="emptyset" unicode="&#x2205;" horiz-adv-x="1556" 
d="M784 -20q-180 0 -335 102l-87 -102h-149l149 176q-81 81 -125 187t-44 226t46.5 229.5t125.5 188.5t188.5 125.5t230.5 46.5q179 0 334 -102l86 102h150l-148 -176q80 -81 124 -188t44 -226q0 -160 -79 -296t-215 -214.5t-296 -78.5zM313 569q0 -186 127 -319l600 715
q-115 73 -256 73q-128 0 -236.5 -62.5t-171.5 -170.5t-63 -236zM528 176q120 -76 256 -76q128 0 236.5 62.5t171.5 170.5t63 236q0 185 -127 322z" />
    <glyph glyph-name="uni2206" unicode="&#x2206;" horiz-adv-x="1617" 
d="M63 0l781 1454h250l268 -1454h-1299zM270 121h936l-153 868l-60 338h-88l-176 -338z" />
    <glyph glyph-name="product" unicode="&#x220f;" horiz-adv-x="1419" 
d="M1352 1454l-295 -1679h-135l274 1558h-694l-275 -1558h-135l295 1679h965z" />
    <glyph glyph-name="summation" unicode="&#x2211;" horiz-adv-x="1337" 
d="M37 -225l18 121l688 725l-426 712l19 121h975l-21 -119h-821l434 -723l-684 -718h838l-21 -119h-999z" />
    <glyph glyph-name="minus" unicode="&#x2212;" horiz-adv-x="1191" 
d="M117 668l20 120h1004l-21 -120h-1003z" />
    <glyph glyph-name="radical" unicode="&#x221a;" horiz-adv-x="1771" 
d="M662 -225l-154 876h-326l23 123h416l94 -563l49 -305h65l803 1548h137v-16l-874 -1663h-233z" />
    <glyph glyph-name="infinity" unicode="&#x221e;" horiz-adv-x="2086" 
d="M1520 299q-82 0 -150 25.5t-121.5 75.5t-91.5 101t-80 124q-41 -73 -78.5 -124t-91 -101t-122 -75.5t-150.5 -25.5q-123 0 -217.5 62t-142.5 162.5t-48 219.5q0 120 49 220.5t143.5 162.5t215.5 62q82 0 150.5 -25.5t122 -75.5t91.5 -101.5t80 -125.5q32 58 61 101t70 88
t84.5 73.5t101.5 47t124 18.5q182 0 295.5 -130.5t113.5 -316.5q0 -118 -48.5 -217.5t-143 -162t-217.5 -62.5zM346 741q0 -135 80 -231t215 -96q54 0 102 18.5t83 46t71 74.5t60 87t57 101q-33 62 -56.5 101.5t-60.5 87.5t-71.5 75.5t-82.5 46.5t-102 19q-135 0 -215 -96.5
t-80 -233.5zM1143 743q27 -51 47 -85t48.5 -76t56 -69t62 -51.5t74.5 -36t85 -11.5q90 0 157.5 46.5t101 120t33.5 160.5q0 137 -79 233.5t-213 96.5q-54 0 -102 -19t-83 -46t-71 -74.5t-60 -87t-57 -101.5z" />
    <glyph glyph-name="integral" unicode="&#x222b;" horiz-adv-x="1114" 
d="M2 -369l18 121h332l283 1608q17 94 115 94h362l-18 -121h-330l-285 -1607q-17 -95 -112 -95h-365z" />
    <glyph glyph-name="approxequal" unicode="&#x2248;" horiz-adv-x="1267" 
d="M940 836q-60 0 -125.5 19t-113 41t-106.5 41t-108 19q-150 0 -194 -118h-135q38 108 119 174.5t204 66.5q75 0 158.5 -29.5t160 -59t134.5 -29.5q148 0 192 118h136q-33 -107 -115.5 -175t-206.5 -68zM72 375q35 108 116.5 175.5t204.5 67.5q76 0 159.5 -30t159.5 -60
t134 -30q147 0 194 118h136q-35 -107 -116.5 -174t-205.5 -67q-60 0 -125.5 18.5t-113.5 41t-107.5 41t-108.5 18.5q-148 0 -192 -119h-135z" />
    <glyph glyph-name="notequal" unicode="&#x2260;" horiz-adv-x="1222" 
d="M1176 889h-367l-199 -322h508l-22 -121h-559l-113 -180h-129l113 180h-316l23 121h366l199 322h-508l21 121h563l110 178h129l-110 -178h311z" />
    <glyph glyph-name="lessequal" unicode="&#x2264;" horiz-adv-x="1220" 
d="M1077 387l-940 334l33 170l1065 334l-25 -129l-909 -269l-8 -43l809 -268zM35 182l20 109h1004l-21 -109h-1003z" />
    <glyph glyph-name="greaterequal" unicode="&#x2265;" horiz-adv-x="1220" 
d="M84 387l25 135l909 271l8 43l-809 266l25 123l940 -334l-33 -170zM43 182l20 109h1004l-20 -109h-1004z" />
    <glyph glyph-name="lozenge" unicode="&#x25ca;" horiz-adv-x="1445" 
d="M541 0l-348 727l602 727h174l350 -727l-602 -727h-176zM340 723l285 -598h39l503 616l-280 588h-37z" />
    <glyph glyph-name="uniA78B" unicode="&#xa78b;" horiz-adv-x="364" 
d="M166 719l104 735h144l-154 -735h-94z" />
    <glyph glyph-name="uniA78C" unicode="&#xa78c;" horiz-adv-x="296" 
d="M158 866l80 588h141l-125 -588h-96z" />
    <glyph glyph-name="fi" unicode="&#xfb01;" horiz-adv-x="1181" 
d="M428 1360q17 94 113 94h348l-21 -119h-313l-45 -250h315l-22 -118h-314l-170 -967h-131l170 967h-194l22 118h193zM803 0l192 1085h131l-192 -1085h-131zM1020 1239l37 215h131l-37 -215h-131z" />
    <glyph glyph-name="fl" unicode="&#xfb02;" horiz-adv-x="1185" 
d="M428 1360q17 94 113 94h348l-21 -119h-313l-45 -250h315l-22 -118h-314l-170 -967h-131l170 967h-194l22 118h193zM807 0l256 1454h131l-256 -1454h-131z" />
    <glyph glyph-name="uni004A0301" horiz-adv-x="706" 
d="M-10 0l22 119h332l234 1335h135l-240 -1360q-16 -94 -113 -94h-370zM594 1561l256 241h182l-313 -241h-125z" />
    <glyph glyph-name="B.ss01" horiz-adv-x="1259" 
d="M57 0l256 1454h459q217 0 334.5 -113.5t85.5 -296.5q-19 -103 -88 -185t-184 -114q121 -35 177.5 -142t35.5 -230q-28 -158 -162.5 -265.5t-341.5 -107.5h-572zM213 119h420q146 0 243 79.5t117 192.5q23 124 -55.5 208.5t-216.5 84.5h-410zM332 801h375q144 0 237 71.5
t111 176.5q22 127 -62 206.5t-245 79.5h-322z" />
    <glyph glyph-name="D.ss01" horiz-adv-x="1454" 
d="M57 0l256 1454h432q170 0 303 -57t215 -158.5t112.5 -245t0.5 -311.5q-54 -303 -280.5 -492.5t-546.5 -189.5h-492zM213 119h350q264 0 447.5 159t228.5 412q32 183 -16.5 328.5t-176 231t-315.5 85.5h-303z" />
    <glyph glyph-name="Eth.ss01" horiz-adv-x="1474" 
d="M78 0l117 664h-172l24 124h170l117 666h432q170 0 303 -57t215 -158.5t112.5 -245t0.5 -311.5q-54 -303 -281 -492.5t-547 -189.5h-491zM233 119h351q264 0 447.5 159t228.5 412q32 183 -16.5 328.5t-176 231t-315.5 85.5h-303l-97 -547h408l-25 -124h-405z" />
    <glyph glyph-name="Dcaron.ss01" horiz-adv-x="1454" 
d="M57 0l256 1454h432q170 0 303 -57t215 -158.5t112.5 -245t0.5 -311.5q-54 -303 -280.5 -492.5t-546.5 -189.5h-492zM213 119h350q264 0 447.5 159t228.5 412q32 183 -16.5 328.5t-176 231t-315.5 85.5h-303zM520 1802h127l119 -153h29l176 153h135l-254 -241h-166z" />
    <glyph glyph-name="Dcroat.ss01" horiz-adv-x="1474" 
d="M78 0l117 664h-172l24 124h170l117 666h432q170 0 303 -57t215 -158.5t112.5 -245t0.5 -311.5q-54 -303 -281 -492.5t-547 -189.5h-491zM233 119h351q264 0 447.5 159t228.5 412q32 183 -16.5 328.5t-176 231t-315.5 85.5h-303l-97 -547h408l-25 -124h-405z" />
    <glyph glyph-name="E.ss01" horiz-adv-x="1114" 
d="M57 0l256 1454h856l-20 -119h-719l-98 -544h645l-23 -121h-643l-98 -551h731l-20 -119h-867z" />
    <glyph glyph-name="Eacute.ss01" horiz-adv-x="1114" 
d="M696 1561l256 241h183l-314 -241h-125zM57 0l256 1454h856l-20 -119h-719l-98 -544h645l-23 -121h-643l-98 -551h731l-20 -119h-867z" />
    <glyph glyph-name="Ebreve.ss01" horiz-adv-x="1114" 
d="M770 1548q-122 0 -195.5 68t-60.5 186h111q-4 -83 39.5 -121.5t117.5 -38.5q159 0 201 160h113q-25 -131 -111 -192.5t-215 -61.5zM57 0l256 1454h856l-20 -119h-719l-98 -544h645l-23 -121h-643l-98 -551h731l-20 -119h-867z" />
    <glyph glyph-name="Ecaron.ss01" horiz-adv-x="1114" 
d="M969 1802h135l-254 -241h-166l-166 241h127l119 -153h29zM57 0l256 1454h856l-20 -119h-719l-98 -544h645l-23 -121h-643l-98 -551h731l-20 -119h-867z" />
    <glyph glyph-name="Ecircumflex.ss01" horiz-adv-x="1114" 
d="M924 1561l-117 153h-29l-178 -153h-135l256 241h166l164 -241h-127zM57 0l256 1454h856l-20 -119h-719l-98 -544h645l-23 -121h-643l-98 -551h731l-20 -119h-867z" />
    <glyph glyph-name="Edieresis.ss01" horiz-adv-x="1114" 
d="M897 1583l35 197h131l-35 -197h-131zM57 0l256 1454h856l-20 -119h-719l-98 -544h645l-23 -121h-643l-98 -551h731l-20 -119h-867zM512 1583l37 197h131l-35 -197h-133z" />
    <glyph glyph-name="Edotaccent.ss01" horiz-adv-x="1114" 
d="M696 1579l37 207h146l-37 -207h-146zM57 0l256 1454h856l-20 -119h-719l-98 -544h645l-23 -121h-643l-98 -551h731l-20 -119h-867z" />
    <glyph glyph-name="Egrave.ss01" horiz-adv-x="1114" 
d="M723 1561l-236 241h164l187 -241h-115zM57 0l256 1454h856l-20 -119h-719l-98 -544h645l-23 -121h-643l-98 -551h731l-20 -119h-867z" />
    <glyph glyph-name="Emacron.ss01" horiz-adv-x="1114" 
d="M463 1757h676l-21 -115h-676zM57 0l256 1454h856l-20 -119h-719l-98 -544h645l-23 -121h-643l-98 -551h731l-20 -119h-867z" />
    <glyph glyph-name="Eogonek.ss01" horiz-adv-x="1114" 
d="M786 -369q-98 0 -146 39.5t-48 98.5q0 134 158 231h-693l256 1454h856l-20 -119h-719l-98 -544h645l-23 -121h-643l-98 -551h731l-20 -119q-213 -92 -213 -188q0 -62 102 -62h64l-23 -119h-68z" />
    <glyph glyph-name="uni1EBC.ss01" horiz-adv-x="1114" 
d="M406 1569q25 101 85 166t146 65q45 0 89.5 -21t74 -46.5t65.5 -46.5t66 -21q47 0 77.5 31t49.5 100h112q-23 -100 -83.5 -165.5t-145.5 -65.5q-46 0 -90.5 21t-74 46.5t-65 46.5t-65.5 21q-49 0 -79.5 -31t-49.5 -100h-112zM57 0l256 1454h856l-20 -119h-719l-98 -544
h645l-23 -121h-643l-98 -551h731l-20 -119h-867z" />
    <glyph glyph-name="F.ss01" horiz-adv-x="1124" 
d="M193 0h-136l256 1454h856l-22 -119h-721l-94 -544h643l-21 -121h-645z" />
    <glyph glyph-name="G.ss01" horiz-adv-x="1638" 
d="M768 -20q-168 0 -301.5 66t-212 177.5t-108 258t-1.5 306.5q26 146 95 272t170 218t236.5 144.5t287.5 52.5q253 0 414.5 -129.5t205.5 -352.5h-143q-42 171 -169.5 266t-321.5 95q-124 0 -234 -45t-191 -123t-136 -182.5t-76 -223.5q-16 -110 -8.5 -210t48 -186
t102.5 -149t155.5 -99t205.5 -36q223 0 389 140t203 360l2 16h-583l20 119h711l-129 -735h-103l41 285q-94 -145 -240 -225t-329 -80z" />
    <glyph glyph-name="Gbreve.ss01" horiz-adv-x="1638" 
d="M768 -20q-168 0 -301.5 66t-212 177.5t-108 258t-1.5 306.5q26 146 95 272t170 218t236.5 144.5t287.5 52.5q253 0 414.5 -129.5t205.5 -352.5h-143q-42 171 -169.5 266t-321.5 95q-124 0 -234 -45t-191 -123t-136 -182.5t-76 -223.5q-16 -110 -8.5 -210t48 -186
t102.5 -149t155.5 -99t205.5 -36q223 0 389 140t203 360l2 16h-583l20 119h711l-129 -735h-103l41 285q-94 -145 -240 -225t-329 -80zM809 1802q-4 -83 40 -121.5t118 -38.5q158 0 200 160h113q-25 -131 -111 -192.5t-215 -61.5q-122 0 -195.5 68t-60.5 186h111z" />
    <glyph glyph-name="Gcircumflex.ss01" horiz-adv-x="1638" 
d="M768 -20q-168 0 -301.5 66t-212 177.5t-108 258t-1.5 306.5q26 146 95 272t170 218t236.5 144.5t287.5 52.5q253 0 414.5 -129.5t205.5 -352.5h-143q-42 171 -169.5 266t-321.5 95q-124 0 -234 -45t-191 -123t-136 -182.5t-76 -223.5q-16 -110 -8.5 -210t48 -186
t102.5 -149t155.5 -99t205.5 -36q223 0 389 140t203 360l2 16h-583l20 119h711l-129 -735h-103l41 285q-94 -145 -240 -225t-329 -80zM649 1561l256 241h166l164 -241h-127l-117 153h-28l-179 -153h-135z" />
    <glyph glyph-name="uni0122.ss01" horiz-adv-x="1638" 
d="M768 -20q-168 0 -301.5 66t-212 177.5t-108 258t-1.5 306.5q26 146 95 272t170 218t236.5 144.5t287.5 52.5q253 0 414.5 -129.5t205.5 -352.5h-143q-42 171 -169.5 266t-321.5 95q-124 0 -234 -45t-191 -123t-136 -182.5t-76 -223.5q-16 -110 -8.5 -210t48 -186
t102.5 -149t155.5 -99t205.5 -36q223 0 389 140t203 360l2 16h-583l20 119h711l-129 -735h-103l41 285q-94 -145 -240 -225t-329 -80zM569 -430l121 336h139l-159 -336h-101z" />
    <glyph glyph-name="Gdotaccent.ss01" horiz-adv-x="1638" 
d="M768 -20q-168 0 -301.5 66t-212 177.5t-108 258t-1.5 306.5q26 146 95 272t170 218t236.5 144.5t287.5 52.5q253 0 414.5 -129.5t205.5 -352.5h-143q-42 171 -169.5 266t-321.5 95q-124 0 -234 -45t-191 -123t-136 -182.5t-76 -223.5q-16 -110 -8.5 -210t48 -186
t102.5 -149t155.5 -99t205.5 -36q223 0 389 140t203 360l2 16h-583l20 119h711l-129 -735h-103l41 285q-94 -145 -240 -225t-329 -80zM881 1579l37 207h145l-37 -207h-145z" />
    <glyph glyph-name="M.ss01" horiz-adv-x="1783" 
d="M186 0h-129l256 1454h277l137 -946l59 -381h56l192 381l473 946h283l-256 -1454h-129l164 932l69 395h-61l-195 -395l-469 -932h-233l-139 932l-60 395h-63l-70 -395z" />
    <glyph glyph-name="N.ss01" horiz-adv-x="1402" 
d="M57 0l256 1454h267l294 -975l105 -354h68l61 354l170 975h131l-256 -1454h-264l-297 975l-105 354h-65l-64 -356l-170 -973h-131z" />
    <glyph glyph-name="Nacute.ss01" horiz-adv-x="1402" 
d="M57 0l256 1454h267l294 -975l105 -354h68l61 354l170 975h131l-256 -1454h-264l-297 975l-105 354h-65l-64 -356l-170 -973h-131zM797 1561l256 241h182l-313 -241h-125z" />
    <glyph glyph-name="Ncaron.ss01" horiz-adv-x="1402" 
d="M57 0l256 1454h267l294 -975l105 -354h68l61 354l170 975h131l-256 -1454h-264l-297 975l-105 354h-65l-64 -356l-170 -973h-131zM621 1802h127l118 -153h29l176 153h135l-254 -241h-166z" />
    <glyph glyph-name="uni0145.ss01" horiz-adv-x="1402" 
d="M57 0l256 1454h267l294 -975l105 -354h68l61 354l170 975h131l-256 -1454h-264l-297 975l-105 354h-65l-64 -356l-170 -973h-131zM391 -430l121 336h139l-159 -336h-101z" />
    <glyph glyph-name="Eng.ss01" horiz-adv-x="1402" 
d="M623 -369l24 131h336l41 238h-135l-297 975l-105 352h-65l-64 -354l-170 -973h-131l256 1454h267l294 -975l105 -352h68l231 1327h131l-303 -1728q-16 -95 -113 -95h-370z" />
    <glyph glyph-name="Ntilde.ss01" horiz-adv-x="1402" 
d="M57 0l256 1454h267l294 -975l105 -354h68l61 354l170 975h131l-256 -1454h-264l-297 975l-105 354h-65l-64 -356l-170 -973h-131zM508 1569q25 101 85 166t146 65q45 0 89.5 -21t74 -46.5t65.5 -46.5t66 -21q47 0 77.5 31t49.5 100h113q-23 -100 -84 -165.5t-146 -65.5
q-46 0 -90.5 21t-73.5 46.5t-64.5 46.5t-65.5 21q-49 0 -79.5 -31t-49.5 -100h-113z" />
    <glyph glyph-name="P.ss01" horiz-adv-x="1193" 
d="M57 0l258 1454h461q216 0 328.5 -123t77.5 -325q-31 -172 -169.5 -273.5t-342.5 -101.5h-365l-112 -631h-136zM326 750h364q145 0 241 75t118 199q24 135 -51.5 223t-233.5 88h-334z" />
    <glyph glyph-name="Q.ss01" horiz-adv-x="1636" 
d="M770 -20q-220 0 -377.5 108t-222.5 293t-25 410q26 145 94.5 270t169.5 217t236.5 144.5t288.5 52.5q111 0 208 -29t171 -82t130.5 -127t85.5 -164.5t38 -194.5t-13 -216q-28 -159 -106.5 -294t-198.5 -227l158 -217h-164l-104 146q-172 -90 -369 -90zM281 780
q-32 -183 17 -337t176 -247.5t310 -93.5q151 0 281 68l-197 270h164l144 -198q95 78 158.5 190.5t86.5 243.5q16 111 8.5 211t-48.5 185.5t-103 148t-155 98t-205 35.5q-164 0 -301.5 -78.5t-222.5 -207.5t-113 -288z" />
    <glyph glyph-name="R.ss01" horiz-adv-x="1286" 
d="M57 0l256 1454h488q221 0 340.5 -123.5t83.5 -331.5q-26 -148 -132 -241.5t-272 -118.5l283 -639h-156l-270 631h-375l-110 -631h-136zM324 750h407q148 0 242.5 73t118.5 199q26 144 -58 228.5t-248 84.5h-360z" />
    <glyph glyph-name="Racute.ss01" horiz-adv-x="1286" 
d="M57 0l256 1454h488q221 0 340.5 -123.5t83.5 -331.5q-26 -148 -132 -241.5t-272 -118.5l283 -639h-156l-270 631h-375l-110 -631h-136zM324 750h407q148 0 242.5 73t118.5 199q26 144 -58 228.5t-248 84.5h-360zM666 1561l256 241h182l-313 -241h-125z" />
    <glyph glyph-name="Rcaron.ss01" horiz-adv-x="1286" 
d="M57 0l256 1454h488q221 0 340.5 -123.5t83.5 -331.5q-26 -148 -132 -241.5t-272 -118.5l283 -639h-156l-270 631h-375l-110 -631h-136zM324 750h407q148 0 242.5 73t118.5 199q26 144 -58 228.5t-248 84.5h-360zM489 1802h127l119 -153h29l176 153h135l-254 -241h-166z
" />
    <glyph glyph-name="uni0156.ss01" horiz-adv-x="1286" 
d="M57 0l256 1454h488q221 0 340.5 -123.5t83.5 -331.5q-26 -148 -132 -241.5t-272 -118.5l283 -639h-156l-270 631h-375l-110 -631h-136zM324 750h407q148 0 242.5 73t118.5 199q26 144 -58 228.5t-248 84.5h-360zM344 -430l121 336h139l-160 -336h-100z" />
    <glyph glyph-name="uni1E9E.ss01" horiz-adv-x="1257" 
d="M57 0l256 1454h920l-27 -166l-461 -487q200 -12 310 -132.5t78 -299.5q-28 -156 -162 -262.5t-342 -106.5h-234l23 119h215q148 0 245 78t115 186q23 129 -50.5 215t-237.5 86h-138l19 117l463 493l8 41h-629l-235 -1335h-136z" />
    <glyph glyph-name="G.ss09" horiz-adv-x="1595" 
d="M748 0q-222 0 -374 105.5t-210 285t-19 404.5q26 145 91.5 269t163 215.5t230 143.5t283.5 52q243 0 399.5 -130t198.5 -352h-143q-42 171 -164 266t-307 95q-124 0 -231.5 -45t-184 -124t-128 -183t-72.5 -224q-18 -89 -12.5 -173t25.5 -157t62 -133.5t99 -104
t135 -67.5t170 -24h485l88 497h-559l23 119h690l-115 -643q-7 -41 -37.5 -66.5t-70.5 -25.5h-516z" />
    <glyph glyph-name="Gbreve.ss09" horiz-adv-x="1595" 
d="M748 0q-222 0 -374 105.5t-210 285t-19 404.5q26 145 91.5 269t163 215.5t230 143.5t283.5 52q243 0 399.5 -130t198.5 -352h-143q-42 171 -164 266t-307 95q-124 0 -231.5 -45t-184 -124t-128 -183t-72.5 -224q-18 -89 -12.5 -173t25.5 -157t62 -133.5t99 -104
t135 -67.5t170 -24h485l88 497h-559l23 119h690l-115 -643q-7 -41 -37.5 -66.5t-70.5 -25.5h-516zM786 1802q-4 -83 40 -121.5t118 -38.5q159 0 201 160h112q-25 -131 -111 -192.5t-214 -61.5q-122 0 -195.5 68t-60.5 186h110z" />
    <glyph glyph-name="Gcircumflex.ss09" horiz-adv-x="1595" 
d="M748 0q-222 0 -374 105.5t-210 285t-19 404.5q26 145 91.5 269t163 215.5t230 143.5t283.5 52q243 0 399.5 -130t198.5 -352h-143q-42 171 -164 266t-307 95q-124 0 -231.5 -45t-184 -124t-128 -183t-72.5 -224q-18 -89 -12.5 -173t25.5 -157t62 -133.5t99 -104
t135 -67.5t170 -24h485l88 497h-559l23 119h690l-115 -643q-7 -41 -37.5 -66.5t-70.5 -25.5h-516zM627 1561l256 241h166l163 -241h-127l-116 153h-29l-178 -153h-135z" />
    <glyph glyph-name="uni0122.ss09" horiz-adv-x="1595" 
d="M748 0q-222 0 -374 105.5t-210 285t-19 404.5q26 145 91.5 269t163 215.5t230 143.5t283.5 52q243 0 399.5 -130t198.5 -352h-143q-42 171 -164 266t-307 95q-124 0 -231.5 -45t-184 -124t-128 -183t-72.5 -224q-18 -89 -12.5 -173t25.5 -157t62 -133.5t99 -104
t135 -67.5t170 -24h485l88 497h-559l23 119h690l-115 -643q-7 -41 -37.5 -66.5t-70.5 -25.5h-516zM584 -430l121 336h139l-160 -336h-100z" />
    <glyph glyph-name="Gdotaccent.ss09" horiz-adv-x="1595" 
d="M748 0q-222 0 -374 105.5t-210 285t-19 404.5q26 145 91.5 269t163 215.5t230 143.5t283.5 52q243 0 399.5 -130t198.5 -352h-143q-42 171 -164 266t-307 95q-124 0 -231.5 -45t-184 -124t-128 -183t-72.5 -224q-18 -89 -12.5 -173t25.5 -157t62 -133.5t99 -104
t135 -67.5t170 -24h485l88 497h-559l23 119h690l-115 -643q-7 -41 -37.5 -66.5t-70.5 -25.5h-516zM858 1579l37 207h145l-36 -207h-146z" />
    <glyph glyph-name="G.ss01.ss08" horiz-adv-x="1607" 
d="M770 -20q-221 0 -378.5 109.5t-221.5 294.5t-25 407q26 145 95.5 270.5t170.5 217.5t236.5 144t286.5 52q253 0 414.5 -129.5t205.5 -352.5h-143q-42 171 -169.5 266t-321.5 95q-124 0 -234 -45t-191 -123t-136 -182.5t-76 -223.5q-18 -91 -11.5 -177t28.5 -161.5
t66.5 -138.5t104 -108t140.5 -70t175 -25q222 0 381 124.5t197 338.5l10 53h-577l20 119h713l-31 -168q-26 -145 -94.5 -258.5t-166.5 -184.5t-216.5 -107.5t-251.5 -36.5z" />
    <glyph glyph-name="Gbreve.ss01.ss08" horiz-adv-x="1607" 
d="M770 -20q-221 0 -378.5 109.5t-221.5 294.5t-25 407q26 145 95.5 270.5t170.5 217.5t236.5 144t286.5 52q253 0 414.5 -129.5t205.5 -352.5h-143q-42 171 -169.5 266t-321.5 95q-124 0 -234 -45t-191 -123t-136 -182.5t-76 -223.5q-18 -91 -11.5 -177t28.5 -161.5
t66.5 -138.5t104 -108t140.5 -70t175 -25q222 0 381 124.5t197 338.5l10 53h-577l20 119h713l-31 -168q-26 -145 -94.5 -258.5t-166.5 -184.5t-216.5 -107.5t-251.5 -36.5zM809 1802q-4 -83 40 -121.5t118 -38.5q158 0 200 160h113q-25 -131 -111 -192.5t-215 -61.5
q-122 0 -195.5 68t-60.5 186h111z" />
    <glyph glyph-name="Gcircumflex.ss01.ss08" horiz-adv-x="1607" 
d="M770 -20q-221 0 -378.5 109.5t-221.5 294.5t-25 407q26 145 95.5 270.5t170.5 217.5t236.5 144t286.5 52q253 0 414.5 -129.5t205.5 -352.5h-143q-42 171 -169.5 266t-321.5 95q-124 0 -234 -45t-191 -123t-136 -182.5t-76 -223.5q-18 -91 -11.5 -177t28.5 -161.5
t66.5 -138.5t104 -108t140.5 -70t175 -25q222 0 381 124.5t197 338.5l10 53h-577l20 119h713l-31 -168q-26 -145 -94.5 -258.5t-166.5 -184.5t-216.5 -107.5t-251.5 -36.5zM649 1561l256 241h166l164 -241h-127l-117 153h-28l-179 -153h-135z" />
    <glyph glyph-name="uni0122.ss01.ss08" horiz-adv-x="1607" 
d="M770 -20q-221 0 -378.5 109.5t-221.5 294.5t-25 407q26 145 95.5 270.5t170.5 217.5t236.5 144t286.5 52q253 0 414.5 -129.5t205.5 -352.5h-143q-42 171 -169.5 266t-321.5 95q-124 0 -234 -45t-191 -123t-136 -182.5t-76 -223.5q-18 -91 -11.5 -177t28.5 -161.5
t66.5 -138.5t104 -108t140.5 -70t175 -25q222 0 381 124.5t197 338.5l10 53h-577l20 119h713l-31 -168q-26 -145 -94.5 -258.5t-166.5 -184.5t-216.5 -107.5t-251.5 -36.5zM569 -430l121 336h139l-159 -336h-101z" />
    <glyph glyph-name="Gdotaccent.ss01.ss08" horiz-adv-x="1607" 
d="M770 -20q-221 0 -378.5 109.5t-221.5 294.5t-25 407q26 145 95.5 270.5t170.5 217.5t236.5 144t286.5 52q253 0 414.5 -129.5t205.5 -352.5h-143q-42 171 -169.5 266t-321.5 95q-124 0 -234 -45t-191 -123t-136 -182.5t-76 -223.5q-18 -91 -11.5 -177t28.5 -161.5
t66.5 -138.5t104 -108t140.5 -70t175 -25q222 0 381 124.5t197 338.5l10 53h-577l20 119h713l-31 -168q-26 -145 -94.5 -258.5t-166.5 -184.5t-216.5 -107.5t-251.5 -36.5zM881 1579l37 207h145l-37 -207h-145z" />
    <glyph glyph-name="a.dnom" horiz-adv-x="677" 
d="M182 0q-88 0 -142 39.5t-54 114.5q0 94 69.5 137t194.5 53l213 16l6 39q10 64 -25 96.5t-110 32.5q-71 0 -115 -29.5t-53 -84.5h-111q13 96 91.5 147t189.5 51q123 0 189 -60t46 -165l-59 -326q-10 -61 -74 -61h-256zM96 162q0 -82 123 -82h193l37 207l-177 -17
q-92 -8 -134 -33t-42 -75z" />
    <glyph glyph-name="b.dnom" horiz-adv-x="722" 
d="M61 0q-32 0 -47 20t-10 48l131 735h109l-35 -203h145q148 0 221 -93t48 -233q-22 -119 -105.5 -196.5t-220.5 -77.5h-236zM119 88h170q93 0 151.5 56.5t73.5 140.5q16 97 -29.5 162t-150.5 65h-141z" />
    <glyph glyph-name="c.dnom" horiz-adv-x="718" 
d="M301 -12q-150 0 -230.5 97.5t-54.5 244.5q22 123 113 202.5t223 79.5q111 0 187.5 -58.5t95.5 -152.5h-113q-18 58 -62.5 90.5t-111.5 32.5q-87 0 -147 -60t-76 -149q-19 -102 31.5 -171.5t150.5 -69.5q64 0 114.5 34.5t80.5 90.5h114q-37 -94 -120 -152.5t-195 -58.5z
" />
    <glyph glyph-name="d.dnom" horiz-adv-x="724" 
d="M285 0q-146 0 -220 91.5t-49 230.5q21 117 104 197.5t220 80.5h197l34 203h111l-131 -740q-5 -28 -25.5 -45.5t-52.5 -17.5h-188zM127 315q-18 -96 28 -161.5t154 -65.5h137l74 424h-168q-91 0 -151 -56.5t-74 -140.5z" />
    <glyph glyph-name="e.dnom" horiz-adv-x="735" 
d="M305 -12q-153 0 -233.5 98.5t-55.5 241.5q22 124 113 204t225 80q136 0 223.5 -92t57.5 -246h-512q-3 -88 43 -145t139 -57q133 0 193 116h114q-41 -96 -122 -148t-185 -52zM133 350h402q-1 82 -53 132t-134 50q-80 0 -137 -50t-78 -132z" />
    <glyph glyph-name="f.dnom" horiz-adv-x="446" 
d="M174 741q11 62 78 62h205l-15 -86h-161l-21 -117h162l-16 -90h-162l-90 -510h-111l90 510h-104l18 90h103z" />
    <glyph glyph-name="g.dnom" horiz-adv-x="724" 
d="M8 -203l15 86h387l22 123h-149q-145 0 -218.5 90.5t-48.5 233.5q20 117 104.5 193.5t219.5 76.5h240q28 0 43.5 -18.5t11.5 -46.5l-121 -676q-12 -62 -76 -62h-430zM127 319q-18 -101 29.5 -164t150.5 -63h139l74 418h-172q-89 0 -147.5 -52t-73.5 -139z" />
    <glyph glyph-name="h.dnom" horiz-adv-x="702" 
d="M481 360q13 76 -25.5 114t-119.5 38h-143l-91 -512h-110l141 803h111l-35 -203h168q112 0 172.5 -64t42.5 -171l-64 -365h-110z" />
    <glyph glyph-name="i.dnom" horiz-adv-x="292" 
d="M-4 0l104 600h113l-107 -600h-110zM117 682l20 121h111l-21 -121h-110z" />
    <glyph glyph-name="j.dnom" horiz-adv-x="292" 
d="M-193 -203l17 86h151l125 717h113l-133 -739q-5 -27 -26 -45.5t-52 -18.5h-195zM117 682l20 121h109l-21 -121h-108z" />
    <glyph glyph-name="k.dnom" horiz-adv-x="653" 
d="M379 315l143 -307l-2 -8h-117l-122 276h-129l-50 -276h-110l141 803h111l-76 -434h121l213 231h125l-2 -8l-242 -262z" />
    <glyph glyph-name="l.dnom" horiz-adv-x="288" 
d="M102 0h-110l141 803h111z" />
    <glyph glyph-name="m.dnom" horiz-adv-x="1042" 
d="M88 539q6 30 26.5 45.5t47.5 15.5h555q109 0 171 -62.5t42 -172.5l-64 -365h-110l63 362q12 70 -23.5 110t-121.5 40h-99l-92 -512h-108l90 512h-270l-91 -512h-110z" />
    <glyph glyph-name="n.dnom" horiz-adv-x="702" 
d="M88 539q6 31 27 46t47 15h215q110 0 171.5 -62.5t41.5 -172.5l-64 -365h-110l65 360q13 71 -23 111.5t-124 40.5h-139l-91 -512h-110z" />
    <glyph glyph-name="o.dnom" horiz-adv-x="741" 
d="M301 -12q-150 0 -230.5 97.5t-54.5 244.5q22 122 113.5 202t222.5 80q148 0 230.5 -96.5t56.5 -245.5q-22 -124 -114.5 -203t-223.5 -79zM125 315q-19 -102 31 -171.5t151 -69.5q85 0 145 59t74 146q18 102 -27.5 173.5t-150.5 71.5q-88 0 -147.5 -60t-75.5 -149z" />
    <glyph glyph-name="p.dnom" horiz-adv-x="724" 
d="M90 539q5 26 24 43.5t50 17.5h192q145 0 220 -92t49 -234q-22 -118 -106.5 -196t-221.5 -78h-193l-34 -203h-111zM121 88h170q93 0 151.5 57.5t73.5 143.5q16 92 -29 157.5t-151 65.5h-141z" />
    <glyph glyph-name="q.dnom" horiz-adv-x="724" 
d="M393 -203l37 203h-143q-145 0 -220.5 89.5t-50.5 232.5q21 118 104 198t222 80h240q28 0 43 -18.5t10 -46.5l-131 -738h-111zM127 313q-18 -96 28 -160.5t154 -64.5h135l76 424h-170q-92 0 -149.5 -55.5t-73.5 -143.5z" />
    <glyph glyph-name="r.dnom" horiz-adv-x="415" 
d="M88 539q11 61 78 61h223l-14 -90h-180l-91 -510h-110z" />
    <glyph glyph-name="s.dnom" horiz-adv-x="628" 
d="M242 -12q-118 0 -184 53.5t-68 148.5h104q3 -60 45.5 -91t108.5 -31q57 0 101.5 23t51.5 67q6 35 -12 57t-52 33.5t-75.5 20t-82.5 21t-73.5 31.5t-48.5 56.5t-6 91.5q11 64 76.5 103.5t165.5 39.5q116 0 181 -54t67 -144h-105q-3 58 -42.5 89.5t-108.5 31.5
q-55 0 -89 -20t-40 -56q-6 -34 12 -57.5t51.5 -37t75 -24t82.5 -24t73 -32.5t48.5 -54.5t7.5 -84.5q-12 -71 -85.5 -114t-178.5 -43z" />
    <glyph glyph-name="t.dnom" horiz-adv-x="442" 
d="M401 600l-16 -90h-147l-76 -424h149l-16 -86h-189q-30 0 -46 20.5t-11 47.5l80 442h-100l16 90h100l27 152h109l-27 -152h147z" />
    <glyph glyph-name="u.dnom" horiz-adv-x="677" 
d="M514 61q-6 -30 -26.5 -45.5t-47.5 -15.5h-200q-115 0 -174.5 65t-40.5 171l63 364h113l-66 -360q-14 -72 24.5 -112t121.5 -40h129l90 512h108z" />
    <glyph glyph-name="v.dnom" horiz-adv-x="677" 
d="M158 0l-117 590l2 10h111l61 -350l27 -158h28l86 158l183 350h116l-2 -10l-325 -590h-170z" />
    <glyph glyph-name="w.dnom" horiz-adv-x="1038" 
d="M119 0l-76 588l2 12h107l34 -350l15 -160h24l66 160l151 350h172l27 -350l12 -160h25l70 160l155 350h111l-2 -12l-281 -588h-168l-24 350l-11 160h-28l-68 -160l-147 -350h-166z" />
    <glyph glyph-name="x.dnom" horiz-adv-x="688" 
d="M428 297l127 -289v-8h-115l-108 260h-74l-199 -260h-118v8l227 289l6 20l-129 275v8h115l110 -250h74l197 250h121v-8l-228 -275z" />
    <glyph glyph-name="y.dnom" horiz-adv-x="677" 
d="M-25 -203l17 88h176l63 119h-73l-115 586v10h111l63 -350l27 -158h26l86 158l183 350h116l-2 -10l-405 -737q-18 -32 -39 -44t-55 -12h-179z" />
    <glyph glyph-name="z.dnom" horiz-adv-x="614" 
d="M-47 0l14 80l449 430h-363l19 90h495l-12 -82l-451 -430h381l-16 -88h-516z" />
    <glyph glyph-name="a.numr" horiz-adv-x="677" 
d="M297 651q-89 0 -143 39.5t-54 114.5q0 95 69.5 137.5t195.5 52.5l213 17l6 39q10 63 -26 96t-109 33q-71 0 -115 -30t-53 -85h-111q13 96 91.5 147.5t189.5 51.5q123 0 189 -60.5t46 -165.5l-59 -325q-11 -62 -74 -62h-256zM211 813q0 -82 123 -82h192l37 207l-176 -16
q-92 -8 -134 -33.5t-42 -75.5z" />
    <glyph glyph-name="b.numr" horiz-adv-x="722" 
d="M176 651q-32 0 -47 20t-10 48l131 735h108l-34 -203h145q148 0 220.5 -92.5t47.5 -232.5q-22 -119 -105 -197t-220 -78h-236zM233 739h170q93 0 152 56.5t74 140.5q16 97 -29.5 162t-150.5 65h-142z" />
    <glyph glyph-name="c.numr" horiz-adv-x="718" 
d="M416 639q-150 0 -230.5 97.5t-54.5 244.5q22 123 113 203t223 80q111 0 187.5 -58.5t95.5 -152.5h-113q-18 58 -62.5 90.5t-111.5 32.5q-87 0 -147 -60t-76 -149q-19 -102 31.5 -172t150.5 -70q64 0 114 34.5t80 90.5h115q-37 -94 -120 -152.5t-195 -58.5z" />
    <glyph glyph-name="d.numr" horiz-adv-x="724" 
d="M399 651q-146 0 -219.5 91.5t-48.5 230.5q21 117 104 197.5t220 80.5h196l35 203h111l-131 -739q-5 -28 -25.5 -46t-52.5 -18h-189zM242 967q-18 -96 28 -162t154 -66h137l74 424h-168q-91 0 -151 -56t-74 -140z" />
    <glyph glyph-name="e.numr" horiz-adv-x="735" 
d="M420 639q-153 0 -233.5 98.5t-55.5 241.5q23 124 113.5 204.5t224.5 80.5q136 0 223.5 -92t57.5 -246h-512q-3 -88 43 -145.5t139 -57.5q65 0 114.5 31t77.5 86h115q-41 -96 -122 -148.5t-185 -52.5zM248 1001h401q-2 82 -53 132.5t-133 50.5q-80 0 -137 -50.5
t-78 -132.5z" />
    <glyph glyph-name="f.numr" horiz-adv-x="446" 
d="M289 1393q10 61 78 61h204l-14 -86h-162l-20 -117h162l-17 -90h-162l-90 -510h-110l90 510h-105l19 90h102z" />
    <glyph glyph-name="g.numr" horiz-adv-x="724" 
d="M123 449l14 86h387l23 122h-150q-145 0 -218 90t-48 234q20 117 104.5 193.5t219.5 76.5h239q28 0 44 -18.5t12 -46.5l-121 -676q-11 -61 -76 -61h-430zM242 971q-18 -101 29.5 -164.5t150.5 -63.5h139l74 418h-172q-89 0 -147.5 -51.5t-73.5 -138.5z" />
    <glyph glyph-name="h.numr" horiz-adv-x="702" 
d="M596 1012q13 76 -25.5 113.5t-119.5 37.5h-144l-90 -512h-111l142 803h110l-34 -203h168q112 0 172.5 -64t42.5 -171l-64 -365h-111z" />
    <glyph glyph-name="i.numr" horiz-adv-x="292" 
d="M111 651l104 600h113l-107 -600h-110zM231 1333l21 121h110l-20 -121h-111z" />
    <glyph glyph-name="j.numr" horiz-adv-x="292" 
d="M-78 449l17 86h151l125 716h113l-133 -739q-5 -27 -25.5 -45t-52.5 -18h-195zM231 1333l21 121h108l-20 -121h-109z" />
    <glyph glyph-name="k.numr" horiz-adv-x="653" 
d="M494 967l143 -308l-2 -8h-117l-123 277h-129l-49 -277h-111l142 803h110l-75 -434h120l213 231h125l-2 -8l-241 -262z" />
    <glyph glyph-name="l.numr" horiz-adv-x="288" 
d="M217 651h-111l142 803h110z" />
    <glyph glyph-name="m.numr" horiz-adv-x="1042" 
d="M203 1190q6 30 26 45.5t47 15.5h555q110 0 171.5 -62.5t41.5 -172.5l-63 -365h-111l64 363q12 70 -23.5 109.5t-122.5 39.5h-98l-92 -512h-109l91 512h-271l-90 -512h-110z" />
    <glyph glyph-name="n.numr" horiz-adv-x="702" 
d="M203 1190q6 31 26.5 46t46.5 15h216q110 0 171.5 -62.5t41.5 -172.5l-64 -365h-111l66 361q13 70 -23 110.5t-124 40.5h-140l-90 -512h-110z" />
    <glyph glyph-name="o.numr" horiz-adv-x="741" 
d="M416 639q-150 0 -230.5 97.5t-54.5 244.5q22 122 113.5 202.5t222.5 80.5q148 0 230.5 -96.5t56.5 -245.5q-22 -125 -115 -204t-223 -79zM240 967q-19 -102 31 -172t151 -70q85 0 145 59t74 146q18 102 -27.5 174t-150.5 72q-88 0 -147.5 -60t-75.5 -149z" />
    <glyph glyph-name="p.numr" horiz-adv-x="724" 
d="M205 1190q5 26 24 43.5t50 17.5h192q145 0 219.5 -91.5t48.5 -233.5q-22 -118 -106 -196.5t-221 -78.5h-193l-35 -202h-110zM236 739h170q93 0 151.5 57.5t73.5 143.5q16 92 -29 157.5t-151 65.5h-142z" />
    <glyph glyph-name="q.numr" horiz-adv-x="724" 
d="M508 449l37 202h-144q-145 0 -220 89.5t-50 232.5q21 118 104 198t222 80h239q28 0 43.5 -18.5t10.5 -46.5l-132 -737h-110zM242 965q-18 -96 28.5 -161t153.5 -65h135l76 424h-170q-93 0 -150 -55t-73 -143z" />
    <glyph glyph-name="r.numr" horiz-adv-x="415" 
d="M203 1190q11 61 78 61h223l-15 -90h-180l-90 -510h-110z" />
    <glyph glyph-name="s.numr" horiz-adv-x="628" 
d="M356 639q-118 0 -184 53.5t-68 149.5h105q3 -61 45 -92t108 -31q57 0 102 23t52 67q6 35 -12 57t-52 33.5t-75.5 20t-82.5 21t-73.5 31.5t-48.5 56.5t-6 91.5q11 64 76.5 104t165.5 40q116 0 180.5 -54.5t66.5 -144.5h-104q-3 58 -43 89.5t-109 31.5q-55 0 -89 -20
t-40 -56q-7 -39 18.5 -65.5t68.5 -37.5t93 -26.5t92 -32.5t65.5 -55.5t13.5 -95.5q-12 -71 -86 -114.5t-179 -43.5z" />
    <glyph glyph-name="t.numr" horiz-adv-x="442" 
d="M516 1251l-16 -90h-148l-76 -424h150l-16 -86h-189q-30 0 -46 20.5t-11 47.5l80 442h-101l17 90h100l27 152h108l-26 -152h147z" />
    <glyph glyph-name="u.numr" horiz-adv-x="677" 
d="M629 713q-6 -31 -26.5 -46.5t-47.5 -15.5h-201q-115 0 -174.5 65t-40.5 171l64 364h112l-65 -360q-14 -72 24 -112t121 -40h129l90 512h109z" />
    <glyph glyph-name="v.numr" horiz-adv-x="677" 
d="M272 651l-116 590l2 10h110l62 -350l26 -158h29l86 158l182 350h117l-2 -10l-326 -590h-170z" />
    <glyph glyph-name="w.numr" horiz-adv-x="1038" 
d="M233 651l-75 588l2 12h106l35 -350l14 -160h25l66 160l151 350h172l27 -350l12 -160h25l69 160l156 350h110l-2 -12l-280 -588h-168l-25 350l-10 160h-29l-67 -160l-148 -350h-166z" />
    <glyph glyph-name="x.numr" horiz-adv-x="688" 
d="M543 948l127 -289v-8h-115l-109 260h-73l-199 -260h-119v8l228 289l6 21l-129 274v8h114l111 -250h74l196 250h121v-8l-227 -274z" />
    <glyph glyph-name="y.numr" horiz-adv-x="677" 
d="M90 449l16 88h177l63 118h-74l-114 586v10h110l64 -350l26 -158h27l86 158l182 350h117l-2 -10l-406 -737q-18 -32 -39 -43.5t-55 -11.5h-178z" />
    <glyph glyph-name="z.numr" horiz-adv-x="614" 
d="M68 651l14 80l448 430h-362l18 90h496l-12 -82l-451 -430h381l-16 -88h-516z" />
    <glyph glyph-name="a.dnom.ss01" horiz-adv-x="679" 
d="M186 -12q-101 0 -157 55.5t-39 144.5q25 139 260 156l213 16l6 39q10 63 -25.5 97t-107.5 34q-150 0 -170 -116h-109q13 96 90 147t191 51q122 0 187.5 -59.5t45.5 -165.5l-69 -387h-86l8 96q-94 -108 -238 -108zM98 176q-9 -49 28 -78.5t99 -29.5q77 0 139 42t72 103
l13 72l-177 -17q-34 -3 -60 -7.5t-52 -14t-42 -27.5t-20 -43z" />
    <glyph glyph-name="b.dnom.ss01" horiz-adv-x="772" 
d="M354 -12q-77 0 -139 34.5t-94 96.5l-21 -119h-106l139 803h111l-51 -293q85 102 217 102q142 0 214 -100t46 -242q-22 -123 -108 -202.5t-208 -79.5zM154 313q-18 -102 32.5 -170.5t149.5 -68.5q86 0 146.5 59t74.5 146q18 101 -28.5 173t-151.5 72q-91 0 -149 -60
t-74 -151z" />
    <glyph glyph-name="d.dnom.ss01" horiz-adv-x="774" 
d="M276 -12q-138 0 -211 97t-47 243q23 123 108 203.5t208 80.5q78 0 138 -34t89 -97l57 322h111l-141 -803h-107l17 94q-87 -106 -222 -106zM131 322q-19 -102 27 -175t153 -73q88 0 148 59.5t76 149.5q16 99 -30.5 170t-152.5 71q-87 0 -146.5 -56.5t-74.5 -145.5z" />
    <glyph glyph-name="g.dnom.ss01" horiz-adv-x="774" 
d="M14 -203l15 86h430l39 228q-84 -103 -219 -103q-142 0 -214 95t-47 237q21 118 107 195t209 77q168 0 231 -133l21 121h108l-129 -741q-12 -62 -78 -62h-473zM129 324q-17 -101 34 -165.5t148 -64.5q88 0 149 58t77 145q18 97 -33.5 162t-151.5 65q-89 0 -148.5 -55.5
t-74.5 -144.5z" />
    <glyph glyph-name="h.dnom.ss01" horiz-adv-x="710" 
d="M-8 0l141 803h111l-54 -303q71 112 211 112q103 0 160 -66.5t37 -180.5l-63 -365h-111l65 365q12 74 -21.5 116.5t-107.5 42.5q-75 0 -128 -45t-66 -123l-64 -356h-110z" />
    <glyph glyph-name="m.dnom.ss01" horiz-adv-x="1122" 
d="M-4 0l104 600h105l-19 -102h2q72 114 211 114q64 0 113.5 -32t69.5 -91q73 123 233 123q105 0 161 -67.5t36 -179.5l-64 -365h-110l63 367q14 78 -21.5 117.5t-103.5 39.5q-74 0 -122 -43t-62 -119l-64 -362h-110l63 365q13 77 -20 118t-101 41q-75 0 -125.5 -46
t-64.5 -122l-64 -356h-110z" />
    <glyph glyph-name="n.dnom.ss01" horiz-adv-x="714" 
d="M190 496q75 116 216 116q102 0 159 -66.5t37 -178.5l-63 -367h-111l66 365q12 75 -21.5 117t-105.5 42q-78 0 -130.5 -45.5t-66.5 -122.5l-64 -356h-110l104 600h109z" />
    <glyph glyph-name="p.dnom.ss01" horiz-adv-x="774" 
d="M-41 -203l141 803h109l-16 -96q82 108 219 108q144 0 214 -101t44 -245q-21 -121 -106.5 -199.5t-207.5 -78.5q-77 0 -137.5 33.5t-91.5 93.5l-55 -318h-113zM158 322q-18 -103 29 -175.5t151 -72.5q88 0 147.5 59.5t75.5 147.5q18 102 -28.5 172.5t-153.5 70.5
q-87 0 -147 -58t-74 -144z" />
    <glyph glyph-name="q.dnom.ss01" horiz-adv-x="770" 
d="M440 -203l49 291q-83 -100 -215 -100q-140 0 -211.5 99.5t-46.5 240.5q23 122 108 203t208 81q80 0 140 -35.5t89 -99.5l23 123h108l-141 -803h-111zM127 317q-10 -61 4.5 -115t60.5 -91t117 -37q89 0 148 58.5t75 150.5q16 100 -30.5 170.5t-151.5 70.5
q-87 0 -147.5 -58.5t-75.5 -148.5z" />
    <glyph glyph-name="r.dnom.ss01" horiz-adv-x="425" 
d="M190 496q33 54 75 79t108 25h26l-16 -98h-47q-66 0 -110.5 -37.5t-57.5 -112.5l-62 -352h-110l104 600h107z" />
    <glyph glyph-name="u.dnom.ss01" horiz-adv-x="708" 
d="M432 104q-69 -116 -213 -116q-101 0 -157.5 67t-36.5 178l65 367h111l-66 -364q-13 -78 21.5 -120t105.5 -42q75 0 128.5 46t66.5 124l61 356h111l-107 -600h-104l16 104h-2z" />
    <glyph glyph-name="a.numr.ss01" horiz-adv-x="679" 
d="M301 639q-101 0 -157.5 56t-39.5 145q24 138 261 155l213 17l6 39q10 64 -25 97.5t-108 33.5q-71 0 -115.5 -29t-54.5 -88h-109q13 96 90.5 147.5t190.5 51.5q122 0 187.5 -60t45.5 -166l-70 -387h-86l9 97q-95 -109 -238 -109zM213 827q-9 -49 28 -78.5t99 -29.5
q77 0 139 42t72 103l12 72l-176 -16q-34 -3 -60 -7.5t-52 -14.5t-42 -28t-20 -43z" />
    <glyph glyph-name="b.numr.ss01" horiz-adv-x="772" 
d="M469 639q-77 0 -139 34.5t-94 96.5l-21 -119h-106l139 803h110l-51 -293q86 103 217 103q142 0 214 -100t46 -242q-22 -123 -107.5 -203t-207.5 -80zM268 965q-18 -102 33 -171t150 -69q86 0 146.5 59t74.5 146q18 102 -28.5 174t-151.5 72q-91 0 -149.5 -60t-74.5 -151z
" />
    <glyph glyph-name="d.numr.ss01" horiz-adv-x="774" 
d="M391 639q-138 0 -211 97t-47 243q23 123 108 204t208 81q78 0 138 -34t89 -97l57 321h111l-142 -803h-106l16 94q-87 -106 -221 -106zM246 973q-19 -102 27 -175t153 -73q88 0 147.5 59.5t75.5 149.5q16 99 -30 170.5t-152 71.5q-87 0 -146.5 -57t-74.5 -146z" />
    <glyph glyph-name="g.numr.ss01" horiz-adv-x="774" 
d="M129 449l14 86h430l39 227q-84 -103 -219 -103q-142 0 -213.5 95t-46.5 237q21 119 107 196t209 77q167 0 231 -134l20 121h109l-129 -741q-6 -31 -27 -46t-51 -15h-473zM244 975q-17 -101 34 -165.5t148 -64.5q88 0 148.5 58t76.5 145q18 97 -33 162.5t-151 65.5
q-88 0 -148 -56t-75 -145z" />
    <glyph glyph-name="h.numr.ss01" horiz-adv-x="710" 
d="M106 651l142 803h110l-53 -303q72 113 211 113q103 0 160 -67t37 -181l-64 -365h-110l65 365q12 74 -21.5 117t-107.5 43q-75 0 -128 -45t-66 -123l-64 -357h-111z" />
    <glyph glyph-name="m.numr.ss01" horiz-adv-x="1122" 
d="M111 651l104 600h104l-18 -102h2q73 115 211 115q64 0 113 -32t69 -91q73 123 234 123q105 0 160.5 -68t35.5 -180l-63 -365h-111l64 367q14 78 -21.5 118t-103.5 40q-74 0 -122 -43t-62 -119l-64 -363h-111l64 365q13 78 -20 119t-101 41q-76 0 -126 -45.5t-64 -122.5
l-64 -357h-110z" />
    <glyph glyph-name="n.numr.ss01" horiz-adv-x="714" 
d="M305 1147q76 117 215 117q102 0 159.5 -67t37.5 -179l-64 -367h-110l65 365q12 75 -21.5 117.5t-105.5 42.5q-77 0 -129.5 -45.5t-66.5 -122.5l-64 -357h-110l104 600h109z" />
    <glyph glyph-name="p.numr.ss01" horiz-adv-x="774" 
d="M74 449l141 802h109l-17 -96q83 109 219 109q144 0 214 -101t44 -245q-21 -122 -106 -200.5t-207 -78.5q-77 0 -137.5 33.5t-91.5 93.5l-56 -317h-112zM272 973q-18 -102 29.5 -175t151.5 -73q88 0 147.5 59.5t75.5 147.5q18 102 -28.5 173t-153.5 71q-87 0 -147.5 -58.5
t-74.5 -144.5z" />
    <glyph glyph-name="q.numr.ss01" horiz-adv-x="770" 
d="M555 449l49 290q-83 -100 -215 -100q-140 0 -211.5 99.5t-46.5 240.5q23 122 107.5 203.5t207.5 81.5q80 0 140.5 -36t89.5 -100l22 123h109l-141 -802h-111zM242 969q-16 -97 30.5 -170.5t151.5 -73.5q89 0 148 58.5t75 150.5q16 101 -30.5 171.5t-151.5 70.5
q-87 0 -147.5 -58.5t-75.5 -148.5z" />
    <glyph glyph-name="r.numr.ss01" horiz-adv-x="425" 
d="M305 1147q33 54 74.5 79t107.5 25h27l-16 -98h-47q-67 0 -111 -37.5t-57 -111.5l-62 -353h-110l104 600h107z" />
    <glyph glyph-name="u.numr.ss01" horiz-adv-x="708" 
d="M547 756q-70 -117 -213 -117q-101 0 -158 67.5t-37 178.5l66 366h110l-65 -364q-13 -78 21.5 -120t105.5 -42q76 0 128 46t66 124l62 356h110l-106 -600h-105l17 105h-2z" />
    <glyph glyph-name="a.dnom.ss01.ss02" horiz-adv-x="710" 
d="M180 -12q-85 0 -138.5 45.5t-53.5 120.5q0 93 68 136.5t196 53.5l197 16l6 39q10 59 -21 94t-104 35q-64 0 -108 -28t-54 -86h-109q13 97 90 147.5t185 50.5q114 0 179 -58t46 -167l-53 -299h86l-14 -88h-125q-26 0 -39.5 13.5t-10.5 35.5l7 45q-44 -51 -104.5 -78.5
t-125.5 -27.5zM98 162q0 -44 34.5 -68t88.5 -24q71 0 132 41.5t71 101.5l12 72l-162 -15q-87 -7 -131.5 -29.5t-44.5 -78.5z" />
    <glyph glyph-name="a.numr.ss01.ss02" horiz-adv-x="710" 
d="M295 639q-85 0 -139 45.5t-54 120.5q0 93 68.5 136.5t196.5 53.5l196 17l6 39q10 59 -21 94t-104 35q-64 0 -107.5 -28t-53.5 -87h-109q13 97 90 148t185 51q114 0 179 -58.5t46 -167.5l-53 -299h86l-15 -88h-125q-26 0 -39 13.5t-10 35.5l6 45q-44 -51 -104 -78.5
t-125 -27.5zM213 813q0 -44 34.5 -68t88.5 -24q71 0 132 41.5t71 101.5l12 72l-162 -14q-86 -7 -131 -29.5t-45 -79.5z" />
    <glyph glyph-name="i.loclTRK" horiz-adv-x="434" 
d="M55 0l193 1085h131l-193 -1085h-131zM274 1239l37 215h131l-36 -215h-132z" />
    <glyph glyph-name="uni006A0301" horiz-adv-x="436" 
d="M-289 -369l23 121h280l234 1333h131l-238 -1355q-8 -43 -37.5 -71t-78.5 -28h-314zM209 1200l266 254h187l-322 -254h-131z" />
    <glyph glyph-name="r.calt" horiz-adv-x="704" 
d="M229 991q17 94 113 94h371l-23 -118h-332l-172 -967h-131z" />
    <glyph glyph-name="racute.calt" horiz-adv-x="704" 
d="M229 991q17 94 113 94h371l-23 -118h-332l-172 -967h-131zM375 1200l266 254h186l-321 -254h-131z" />
    <glyph glyph-name="rcaron.calt" horiz-adv-x="704" 
d="M229 991q17 94 113 94h371l-23 -118h-332l-172 -967h-131zM254 1454h125l121 -166h26l176 166h138l-254 -254h-166z" />
    <glyph glyph-name="uni0157.calt" horiz-adv-x="704" 
d="M229 991q17 94 113 94h371l-23 -118h-332l-172 -967h-131zM-88 -430l121 336h139l-160 -336h-100z" />
    <glyph glyph-name="a.ss01" horiz-adv-x="1153" 
d="M403 -20q-177 0 -271 104.5t-66 257.5q12 68 50.5 118t100.5 81.5t135.5 49t167.5 25.5l383 33l15 82q23 131 -46 196.5t-215 65.5q-139 0 -223.5 -59.5t-107.5 -175.5h-140q27 165 158.5 256.5t317.5 91.5q206 0 311.5 -106t73.5 -281l-129 -719h-107l20 188
q-77 -98 -189 -153t-239 -55zM201 322q-18 -107 51 -168.5t194 -61.5q150 0 271 87.5t143 213.5l25 150l-336 -33q-78 -8 -131 -18.5t-102 -30.5t-77.5 -54.5t-37.5 -84.5z" />
    <glyph glyph-name="aacute.ss01" horiz-adv-x="1153" 
d="M403 -20q-177 0 -271 104.5t-66 257.5q12 68 50.5 118t100.5 81.5t135.5 49t167.5 25.5l383 33l15 82q23 131 -46 196.5t-215 65.5q-139 0 -223.5 -59.5t-107.5 -175.5h-140q27 165 158.5 256.5t317.5 91.5q206 0 311.5 -106t73.5 -281l-129 -719h-107l20 188
q-77 -98 -189 -153t-239 -55zM201 322q-18 -107 51 -168.5t194 -61.5q150 0 271 87.5t143 213.5l25 150l-336 -33q-78 -8 -131 -18.5t-102 -30.5t-77.5 -54.5t-37.5 -84.5zM557 1200l266 254h187l-322 -254h-131z" />
    <glyph glyph-name="abreve.ss01" horiz-adv-x="1153" 
d="M403 -20q-177 0 -271 104.5t-66 257.5q12 68 50.5 118t100.5 81.5t135.5 49t167.5 25.5l383 33l15 82q23 131 -46 196.5t-215 65.5q-139 0 -223.5 -59.5t-107.5 -175.5h-140q27 165 158.5 256.5t317.5 91.5q206 0 311.5 -106t73.5 -281l-129 -719h-107l20 188
q-77 -98 -189 -153t-239 -55zM201 322q-18 -107 51 -168.5t194 -61.5q150 0 271 87.5t143 213.5l25 150l-336 -33q-78 -8 -131 -18.5t-102 -30.5t-77.5 -54.5t-37.5 -84.5zM547 1454q-4 -83 39.5 -124.5t115.5 -41.5q160 0 203 166h113q-25 -131 -112.5 -195.5t-215.5 -64.5
q-121 0 -194 71t-60 189h111z" />
    <glyph glyph-name="acircumflex.ss01" horiz-adv-x="1153" 
d="M403 -20q-177 0 -271 104.5t-66 257.5q12 68 50.5 118t100.5 81.5t135.5 49t167.5 25.5l383 33l15 82q23 131 -46 196.5t-215 65.5q-139 0 -223.5 -59.5t-107.5 -175.5h-140q27 165 158.5 256.5t317.5 91.5q206 0 311.5 -106t73.5 -281l-129 -719h-107l20 188
q-77 -98 -189 -153t-239 -55zM201 322q-18 -107 51 -168.5t194 -61.5q150 0 271 87.5t143 213.5l25 150l-336 -33q-78 -8 -131 -18.5t-102 -30.5t-77.5 -54.5t-37.5 -84.5zM381 1200l256 254h166l164 -254h-125l-119 166h-27l-180 -166h-135z" />
    <glyph glyph-name="adieresis.ss01" horiz-adv-x="1153" 
d="M403 -20q-177 0 -271 104.5t-66 257.5q12 68 50.5 118t100.5 81.5t135.5 49t167.5 25.5l383 33l15 82q23 131 -46 196.5t-215 65.5q-139 0 -223.5 -59.5t-107.5 -175.5h-140q27 165 158.5 256.5t317.5 91.5q206 0 311.5 -106t73.5 -281l-129 -719h-107l20 188
q-77 -98 -189 -153t-239 -55zM201 322q-18 -107 51 -168.5t194 -61.5q150 0 271 87.5t143 213.5l25 150l-336 -33q-78 -8 -131 -18.5t-102 -30.5t-77.5 -54.5t-37.5 -84.5zM428 1229l37 196h131l-35 -196h-133zM813 1229l35 196h131l-35 -196h-131z" />
    <glyph glyph-name="agrave.ss01" horiz-adv-x="1153" 
d="M403 -20q-177 0 -271 104.5t-66 257.5q12 68 50.5 118t100.5 81.5t135.5 49t167.5 25.5l383 33l15 82q23 131 -46 196.5t-215 65.5q-139 0 -223.5 -59.5t-107.5 -175.5h-140q27 165 158.5 256.5t317.5 91.5q206 0 311.5 -106t73.5 -281l-129 -719h-107l20 188
q-77 -98 -189 -153t-239 -55zM201 322q-18 -107 51 -168.5t194 -61.5q150 0 271 87.5t143 213.5l25 150l-336 -33q-78 -8 -131 -18.5t-102 -30.5t-77.5 -54.5t-37.5 -84.5zM453 1454h172l182 -254h-123z" />
    <glyph glyph-name="amacron.ss01" horiz-adv-x="1153" 
d="M403 -20q-177 0 -271 104.5t-66 257.5q12 68 50.5 118t100.5 81.5t135.5 49t167.5 25.5l383 33l15 82q23 131 -46 196.5t-215 65.5q-139 0 -223.5 -59.5t-107.5 -175.5h-140q27 165 158.5 256.5t317.5 91.5q206 0 311.5 -106t73.5 -281l-129 -719h-107l20 188
q-77 -98 -189 -153t-239 -55zM201 322q-18 -107 51 -168.5t194 -61.5q150 0 271 87.5t143 213.5l25 150l-336 -33q-78 -8 -131 -18.5t-102 -30.5t-77.5 -54.5t-37.5 -84.5zM397 1274l19 106h594l-19 -106h-594z" />
    <glyph glyph-name="aogonek.ss01" horiz-adv-x="1153" 
d="M403 -20q-177 0 -271 104.5t-66 257.5q12 68 50.5 118t100.5 81.5t135.5 49t167.5 25.5l383 33l15 82q23 131 -46 196.5t-215 65.5q-139 0 -223.5 -59.5t-107.5 -175.5h-140q27 165 158.5 256.5t317.5 91.5q206 0 311.5 -106t73.5 -281l-129 -719q-213 -92 -213 -188
q0 -62 102 -62h63l-22 -119h-68q-98 0 -146 39.5t-48 98.5q0 86 61.5 153.5t167.5 112.5l16 153q-77 -98 -189 -153t-239 -55zM201 322q-18 -107 51 -168.5t194 -61.5q150 0 271 87.5t143 213.5l25 150l-336 -33q-78 -8 -131 -18.5t-102 -30.5t-77.5 -54.5t-37.5 -84.5z" />
    <glyph glyph-name="aring.ss01" horiz-adv-x="1153" 
d="M403 -20q-177 0 -271 104.5t-66 257.5q12 68 50.5 118t100.5 81.5t135.5 49t167.5 25.5l383 33l15 82q23 131 -46 196.5t-215 65.5q-139 0 -223.5 -59.5t-107.5 -175.5h-140q27 165 158.5 256.5t317.5 91.5q206 0 311.5 -106t73.5 -281l-129 -719h-107l20 188
q-77 -98 -189 -153t-239 -55zM201 322q-18 -107 51 -168.5t194 -61.5q150 0 271 87.5t143 213.5l25 150l-336 -33q-78 -8 -131 -18.5t-102 -30.5t-77.5 -54.5t-37.5 -84.5zM522 1366q0 78 54 131t135 53t134.5 -53t53.5 -131q0 -82 -53.5 -133t-134.5 -51t-135 51t-54 133z
M602 1366q0 -49 31.5 -79t77.5 -30t77 29.5t31 79.5q0 44 -31.5 75.5t-76.5 31.5q-46 0 -77.5 -30t-31.5 -77z" />
    <glyph glyph-name="aringacute.ss01" horiz-adv-x="1153" 
d="M403 -20q-177 0 -271 104.5t-66 257.5q12 68 50.5 118t100.5 81.5t135.5 49t167.5 25.5l383 33l15 82q23 131 -46 196.5t-215 65.5q-139 0 -223.5 -59.5t-107.5 -175.5h-140q27 165 158.5 256.5t317.5 91.5q206 0 311.5 -106t73.5 -281l-129 -719h-107l20 188
q-77 -98 -189 -153t-239 -55zM201 322q-18 -107 51 -168.5t194 -61.5q150 0 271 87.5t143 213.5l25 150l-336 -33q-78 -8 -131 -18.5t-102 -30.5t-77.5 -54.5t-37.5 -84.5zM481 1337q0 78 54 131.5t135 53.5t134.5 -53t53.5 -132q0 -82 -53.5 -133t-134.5 -51t-135 51
t-54 133zM561 1337q0 -49 31.5 -78.5t77.5 -29.5t77 29.5t31 78.5q0 45 -31 76t-77 31t-77.5 -30t-31.5 -77zM643 1567l266 254h187l-322 -254h-131z" />
    <glyph glyph-name="atilde.ss01" horiz-adv-x="1153" 
d="M403 -20q-177 0 -271 104.5t-66 257.5q12 68 50.5 118t100.5 81.5t135.5 49t167.5 25.5l383 33l15 82q23 131 -46 196.5t-215 65.5q-139 0 -223.5 -59.5t-107.5 -175.5h-140q27 165 158.5 256.5t317.5 91.5q206 0 311.5 -106t73.5 -281l-129 -719h-107l20 188
q-77 -98 -189 -153t-239 -55zM201 322q-18 -107 51 -168.5t194 -61.5q150 0 271 87.5t143 213.5l25 150l-336 -33q-78 -8 -131 -18.5t-102 -30.5t-77.5 -54.5t-37.5 -84.5zM307 1208q23 101 84 167.5t146 66.5q46 0 91 -21t74.5 -46.5t65.5 -46.5t66 -21q46 0 75.5 30.5
t48.5 100.5h113q-23 -100 -83.5 -167t-145.5 -67q-45 0 -89.5 21t-74 46.5t-65.5 46.5t-66 21q-48 0 -79 -31t-48 -100h-113z" />
    <glyph glyph-name="ae.ss01" horiz-adv-x="2037" 
d="M432 -20q-120 0 -209 40t-133 124.5t-24 201.5q11 66 49.5 115.5t100.5 80.5t135.5 48.5t166.5 25.5l385 33l15 82q23 131 -46 196.5t-215 65.5q-139 0 -224 -59.5t-107 -175.5h-142q19 111 87 190.5t168.5 118.5t222.5 39q140 0 237 -55t129 -156q70 99 181 155t245 56
q112 0 208.5 -41t165.5 -115t97.5 -189.5t3.5 -252.5h-919q-5 -82 14.5 -156t61.5 -132.5t114.5 -93t165.5 -34.5q121 0 220 64.5t153 175.5h145q-75 -171 -209.5 -261.5t-310.5 -90.5q-158 0 -273 73.5t-163 200.5q-73 -133 -205.5 -203.5t-290.5 -70.5zM201 326
q-20 -111 49 -172.5t196 -61.5q153 0 271 84t145 236l23 131l-338 -33q-73 -7 -125.5 -17.5t-102.5 -30.5t-80 -54t-38 -82zM1026 621h782q0 167 -100 269.5t-256 102.5q-158 0 -273 -105t-153 -267z" />
    <glyph glyph-name="aeacute.ss01" horiz-adv-x="2037" 
d="M432 -20q-120 0 -209 40t-133 124.5t-24 201.5q11 66 49.5 115.5t100.5 80.5t135.5 48.5t166.5 25.5l385 33l15 82q23 131 -46 196.5t-215 65.5q-139 0 -224 -59.5t-107 -175.5h-142q19 111 87 190.5t168.5 118.5t222.5 39q140 0 237 -55t129 -156q70 99 181 155t245 56
q112 0 208.5 -41t165.5 -115t97.5 -189.5t3.5 -252.5h-919q-5 -82 14.5 -156t61.5 -132.5t114.5 -93t165.5 -34.5q121 0 220 64.5t153 175.5h145q-75 -171 -209.5 -261.5t-310.5 -90.5q-158 0 -273 73.5t-163 200.5q-73 -133 -205.5 -203.5t-290.5 -70.5zM201 326
q-20 -111 49 -172.5t196 -61.5q153 0 271 84t145 236l23 131l-338 -33q-73 -7 -125.5 -17.5t-102.5 -30.5t-80 -54t-38 -82zM987 1200l266 254h187l-322 -254h-131zM1026 621h782q0 167 -100 269.5t-256 102.5q-158 0 -273 -105t-153 -267z" />
    <glyph glyph-name="b.ss01" horiz-adv-x="1316" 
d="M643 -20q-146 0 -255.5 68.5t-158.5 191.5l-41 -240h-133l256 1454h131l-96 -559q153 211 402 211q166 0 280 -85.5t157 -226t13 -309.5q-39 -222 -190 -363.5t-365 -141.5zM285 580q-13 -60 -9 -119.5t17.5 -113.5t44 -101t71 -81t98.5 -53.5t126 -19.5q170 0 286 117.5
t148 296.5q10 71 7.5 140t-28.5 132t-66.5 110.5t-107.5 76t-151 28.5q-171 0 -288 -119t-148 -294z" />
    <glyph glyph-name="d.ss01" horiz-adv-x="1318" 
d="M567 -20q-99 0 -182 33t-138.5 90.5t-92 136t-43.5 169.5t8 191q25 143 99.5 257t193.5 181.5t262 67.5q146 0 252 -67.5t161 -190.5l109 606h131l-256 -1454h-131l33 193q-157 -213 -406 -213zM252 584q-13 -61 -9 -121t17 -115t43 -101.5t70.5 -81t99 -54t127.5 -19.5
q170 0 286.5 118.5t147.5 295.5q10 72 7 141.5t-29.5 132t-68 110t-108 75.5t-149.5 28q-171 0 -287 -116.5t-147 -292.5z" />
    <glyph glyph-name="dcaron.ss01" horiz-adv-x="1318" 
d="M567 -20q-99 0 -182 33t-138.5 90.5t-92 136t-43.5 169.5t8 191q25 143 99.5 257t193.5 181.5t262 67.5q146 0 252 -67.5t161 -190.5l109 606h131l-256 -1454h-131l33 193q-157 -213 -406 -213zM252 584q-13 -61 -9 -121t17 -115t43 -101.5t70.5 -81t99 -54t127.5 -19.5
q170 0 286.5 118.5t147.5 295.5q10 72 7 141.5t-29.5 132t-68 110t-108 75.5t-149.5 28q-171 0 -287 -116.5t-147 -292.5zM1374 1139l94 315h146l-141 -315h-99z" />
    <glyph glyph-name="dcroat.ss01" horiz-adv-x="1318" 
d="M567 -20q-99 0 -182 33t-138.5 90.5t-92 136t-43.5 169.5t8 191q25 143 99.5 257t193.5 181.5t262 67.5q146 0 252 -67.5t161 -190.5l62 348h-287l19 107h288l27 151h131l-27 -151h173l-19 -107h-172l-211 -1196h-131l33 193q-157 -213 -406 -213zM252 584
q-13 -61 -9 -121t17 -115t43 -101.5t70.5 -81t99 -54t127.5 -19.5q170 0 286.5 118.5t147.5 295.5q10 72 7 141.5t-29.5 132t-68 110t-108 75.5t-149.5 28q-171 0 -287 -116.5t-147 -292.5z" />
    <glyph glyph-name="g.ss01" horiz-adv-x="1318" 
d="M104 -369l21 121h774l82 467q-77 -103 -181 -155t-225 -52q-167 0 -281.5 82t-158 218t-14.5 302q38 216 188.5 354t368.5 138q147 0 254 -67t160 -189l41 235h131l-238 -1355q-9 -49 -40 -74t-75 -25h-807zM254 594q-23 -130 10.5 -236t121 -169.5t216.5 -63.5
q169 0 287.5 114.5t148.5 286.5q35 203 -65.5 335t-282.5 132q-172 0 -288.5 -113t-147.5 -286z" />
    <glyph glyph-name="gbreve.ss01" horiz-adv-x="1318" 
d="M104 -369l21 121h774l82 467q-77 -103 -181 -155t-225 -52q-167 0 -281.5 82t-158 218t-14.5 302q38 216 188.5 354t368.5 138q147 0 254 -67t160 -189l41 235h131l-238 -1355q-9 -49 -40 -74t-75 -25h-807zM254 594q-23 -130 10.5 -236t121 -169.5t216.5 -63.5
q169 0 287.5 114.5t148.5 286.5q35 203 -65.5 335t-282.5 132q-172 0 -288.5 -113t-147.5 -286zM637 1454q-4 -83 39.5 -124.5t116.5 -41.5q159 0 202 166h113q-25 -131 -112.5 -195.5t-215.5 -64.5q-121 0 -194 71t-60 189h111z" />
    <glyph glyph-name="gcircumflex.ss01" horiz-adv-x="1318" 
d="M104 -369l21 121h774l82 467q-77 -103 -181 -155t-225 -52q-167 0 -281.5 82t-158 218t-14.5 302q38 216 188.5 354t368.5 138q147 0 254 -67t160 -189l41 235h131l-238 -1355q-9 -49 -40 -74t-75 -25h-807zM254 594q-23 -130 10.5 -236t121 -169.5t216.5 -63.5
q169 0 287.5 114.5t148.5 286.5q35 203 -65.5 335t-282.5 132q-172 0 -288.5 -113t-147.5 -286zM471 1200l256 254h166l164 -254h-125l-119 166h-27l-180 -166h-135z" />
    <glyph glyph-name="uni0123.ss01" horiz-adv-x="1318" 
d="M104 -369l21 121h774l82 467q-77 -103 -181 -155t-225 -52q-167 0 -281.5 82t-158 218t-14.5 302q38 216 188.5 354t368.5 138q147 0 254 -67t160 -189l41 235h131l-238 -1355q-9 -49 -40 -74t-75 -25h-807zM254 594q-23 -130 10.5 -236t121 -169.5t216.5 -63.5
q169 0 287.5 114.5t148.5 286.5q35 203 -65.5 335t-282.5 132q-172 0 -288.5 -113t-147.5 -286zM682 1200l264 254h121l-209 -254h-176z" />
    <glyph glyph-name="gdotaccent.ss01" horiz-adv-x="1318" 
d="M104 -369l21 121h774l82 467q-77 -103 -181 -155t-225 -52q-167 0 -281.5 82t-158 218t-14.5 302q38 216 188.5 354t368.5 138q147 0 254 -67t160 -189l41 235h131l-238 -1355q-9 -49 -40 -74t-75 -25h-807zM254 594q-23 -130 10.5 -236t121 -169.5t216.5 -63.5
q169 0 287.5 114.5t148.5 286.5q35 203 -65.5 335t-282.5 132q-172 0 -288.5 -113t-147.5 -286zM713 1239l37 215h131l-37 -215h-131z" />
    <glyph glyph-name="h.ss01" horiz-adv-x="1183" 
d="M55 0l256 1454h131l-98 -569h4q128 221 383 221q179 0 276.5 -121t61.5 -323l-117 -662h-133l117 657q29 159 -38 247.5t-208 88.5q-149 0 -255.5 -96.5t-135.5 -261.5l-113 -635h-131z" />
    <glyph glyph-name="hbar.ss01" horiz-adv-x="1183" 
d="M55 0l211 1196h-172l19 107h172l26 151h131l-26 -151h289l-19 -107h-289l-53 -311h4q128 221 383 221q179 0 276.5 -121t61.5 -323l-117 -662h-133l117 657q29 159 -38 247.5t-208 88.5q-149 0 -255.5 -96.5t-135.5 -261.5l-113 -635h-131z" />
    <glyph glyph-name="hcircumflex.ss01" horiz-adv-x="1183" 
d="M55 0l256 1454h131l-98 -569h4q128 221 383 221q179 0 276.5 -121t61.5 -323l-117 -662h-133l117 657q29 159 -38 247.5t-208 88.5q-149 0 -255.5 -96.5t-135.5 -261.5l-113 -635h-131zM94 1561l256 241h166l164 -241h-127l-117 153h-28l-179 -153h-135z" />
    <glyph glyph-name="m.ss01" horiz-adv-x="1906" 
d="M55 0l193 1085h131l-35 -200h4q63 108 158 164.5t213 56.5q117 0 201 -56.5t116 -160.5q135 217 416 217q187 0 280.5 -121.5t57.5 -325.5l-117 -659h-131l117 664q27 157 -38 243t-206 86q-145 0 -242 -89t-126 -253l-117 -651h-131l116 659q29 159 -35 246.5t-200 87.5
q-148 0 -250.5 -97.5t-130.5 -258.5l-113 -637h-131z" />
    <glyph glyph-name="n.ss01" horiz-adv-x="1183" 
d="M55 0l193 1085h131l-35 -200h2q64 111 163.5 166t221.5 55q179 0 276.5 -121t61.5 -323l-117 -662h-133l117 657q29 159 -38 247.5t-208 88.5q-149 0 -255.5 -96.5t-135.5 -261.5l-113 -635h-131z" />
    <glyph glyph-name="nacute.ss01" horiz-adv-x="1183" 
d="M55 0l193 1085h131l-35 -200h2q64 111 163.5 166t221.5 55q179 0 276.5 -121t61.5 -323l-117 -662h-133l117 657q29 159 -38 247.5t-208 88.5q-149 0 -255.5 -96.5t-135.5 -261.5l-113 -635h-131zM602 1200l266 254h187l-322 -254h-131z" />
    <glyph glyph-name="ncaron.ss01" horiz-adv-x="1183" 
d="M55 0l193 1085h131l-35 -200h2q64 111 163.5 166t221.5 55q179 0 276.5 -121t61.5 -323l-117 -662h-133l117 657q29 159 -38 247.5t-208 88.5q-149 0 -255.5 -96.5t-135.5 -261.5l-113 -635h-131zM481 1454h125l121 -166h27l176 166h137l-254 -254h-166z" />
    <glyph glyph-name="uni0146.ss01" horiz-adv-x="1183" 
d="M55 0l193 1085h131l-35 -200h2q64 111 163.5 166t221.5 55q179 0 276.5 -121t61.5 -323l-117 -662h-133l117 657q29 159 -38 247.5t-208 88.5q-149 0 -255.5 -96.5t-135.5 -261.5l-113 -635h-131zM311 -430l121 336h139l-159 -336h-101z" />
    <glyph glyph-name="eng.ss01" horiz-adv-x="1183" 
d="M475 -369l21 121h278l162 905q29 159 -38 247.5t-208 88.5q-149 0 -255.5 -96.5t-135.5 -261.5l-113 -635h-131l193 1085h131l-35 -200h2q64 111 163.5 166t221.5 55q181 0 277.5 -120.5t60.5 -323.5l-166 -932q-9 -49 -41 -74t-76 -25h-311z" />
    <glyph glyph-name="ntilde.ss01" horiz-adv-x="1183" 
d="M55 0l193 1085h131l-35 -200h2q64 111 163.5 166t221.5 55q179 0 276.5 -121t61.5 -323l-117 -662h-133l117 657q29 159 -38 247.5t-208 88.5q-149 0 -255.5 -96.5t-135.5 -261.5l-113 -635h-131zM352 1208q23 101 84 167.5t146 66.5q46 0 91 -21t74.5 -46.5t65.5 -46.5
t66 -21q46 0 76.5 31t48.5 100h112q-23 -100 -83.5 -167t-145.5 -67q-45 0 -89.5 21t-74 46.5t-65.5 46.5t-66 21q-48 0 -79 -31t-48 -100h-113z" />
    <glyph glyph-name="p.ss01" horiz-adv-x="1316" 
d="M-8 -369l256 1454h131l-33 -190q155 211 402 211q166 0 280 -85t157.5 -226.5t12.5 -311.5q-41 -225 -193 -364t-360 -139q-147 0 -257 68t-161 190l-104 -607h-131zM285 580q-11 -74 -7.5 -144t30.5 -132.5t68.5 -109.5t107.5 -74.5t147 -27.5q171 0 287.5 117
t148.5 295q13 60 9 119.5t-17 114t-43 101t-70 81t-98 54t-127 19.5q-171 0 -288 -118.5t-148 -294.5z" />
    <glyph glyph-name="thorn.ss01" horiz-adv-x="1316" 
d="M-8 -369l319 1823h131l-96 -559q153 211 402 211q167 0 281 -86.5t156.5 -227t12.5 -307.5q-39 -221 -189.5 -363t-363.5 -142q-147 0 -257 68t-161 190l-104 -607h-131zM285 580q-13 -60 -9 -119.5t17.5 -113.5t43.5 -101t70.5 -81t98 -53.5t125.5 -19.5
q173 0 288.5 117t147.5 297q10 72 7.5 141.5t-29 132t-67 110t-107.5 75.5t-150 28q-170 0 -287.5 -118.5t-148.5 -294.5z" />
    <glyph glyph-name="q.ss01" horiz-adv-x="1316" 
d="M874 -369l99 559q-157 -210 -402 -210q-167 0 -281.5 86.5t-157.5 227.5t-13 308q38 218 190 361t365 143q146 0 252 -67.5t161 -190.5l43 237h132l-256 -1454h-132zM252 584q-11 -76 -7.5 -147t31 -134t70 -110t108 -74t146.5 -27q171 0 286.5 118.5t147.5 297.5
q22 128 -8.5 236.5t-118.5 178.5t-221 70q-170 0 -286.5 -117t-147.5 -292z" />
    <glyph glyph-name="r.ss01" horiz-adv-x="708" 
d="M57 0l191 1085h131l-35 -202h2q57 106 132 154t184 48h53l-23 -127h-59q-130 0 -217 -77.5t-115 -237.5l-113 -643h-131z" />
    <glyph glyph-name="racute.ss01" horiz-adv-x="708" 
d="M57 0l191 1085h131l-35 -202h2q57 106 132 154t184 48h53l-23 -127h-59q-130 0 -217 -77.5t-115 -237.5l-113 -643h-131zM369 1200l266 254h186l-321 -254h-131z" />
    <glyph glyph-name="rcaron.ss01" horiz-adv-x="708" 
d="M57 0l191 1085h131l-35 -202h2q57 106 132 154t184 48h53l-23 -127h-59q-130 0 -217 -77.5t-115 -237.5l-113 -643h-131zM248 1454h125l121 -166h26l176 166h138l-254 -254h-166z" />
    <glyph glyph-name="uni0157.ss01" horiz-adv-x="708" 
d="M57 0l191 1085h131l-35 -202h2q57 106 132 154t184 48h53l-23 -127h-59q-130 0 -217 -77.5t-115 -237.5l-113 -643h-131zM-80 -430l121 336h139l-160 -336h-100z" />
    <glyph glyph-name="u.ss01" horiz-adv-x="1179" 
d="M449 -20q-179 0 -274.5 120.5t-59.5 323.5l116 661h134l-117 -657q-29 -159 37 -247.5t207 -88.5q150 0 255 97t134 262l110 634h133l-192 -1085h-133l37 201h-2q-131 -221 -385 -221z" />
    <glyph glyph-name="uacute.ss01" horiz-adv-x="1179" 
d="M449 -20q-179 0 -274.5 120.5t-59.5 323.5l116 661h134l-117 -657q-29 -159 37 -247.5t207 -88.5q150 0 255 97t134 262l110 634h133l-192 -1085h-133l37 201h-2q-131 -221 -385 -221zM584 1200l266 254h186l-321 -254h-131z" />
    <glyph glyph-name="ubreve.ss01" horiz-adv-x="1179" 
d="M449 -20q-179 0 -274.5 120.5t-59.5 323.5l116 661h134l-117 -657q-29 -159 37 -247.5t207 -88.5q150 0 255 97t134 262l110 634h133l-192 -1085h-133l37 201h-2q-131 -221 -385 -221zM573 1454q-4 -83 39.5 -124.5t116.5 -41.5q160 0 203 166h112q-25 -131 -112 -195.5
t-215 -64.5q-121 0 -194 71t-60 189h110z" />
    <glyph glyph-name="ucircumflex.ss01" horiz-adv-x="1179" 
d="M449 -20q-179 0 -274.5 120.5t-59.5 323.5l116 661h134l-117 -657q-29 -159 37 -247.5t207 -88.5q150 0 255 97t134 262l110 634h133l-192 -1085h-133l37 201h-2q-131 -221 -385 -221zM408 1200l256 254h165l164 -254h-125l-118 166h-27l-180 -166h-135z" />
    <glyph glyph-name="udieresis.ss01" horiz-adv-x="1179" 
d="M449 -20q-179 0 -274.5 120.5t-59.5 323.5l116 661h134l-117 -657q-29 -159 37 -247.5t207 -88.5q150 0 255 97t134 262l110 634h133l-192 -1085h-133l37 201h-2q-131 -221 -385 -221zM457 1229l37 196h131l-35 -196h-133zM842 1229l35 196h131l-35 -196h-131z" />
    <glyph glyph-name="ugrave.ss01" horiz-adv-x="1179" 
d="M449 -20q-179 0 -274.5 120.5t-59.5 323.5l116 661h134l-117 -657q-29 -159 37 -247.5t207 -88.5q150 0 255 97t134 262l110 634h133l-192 -1085h-133l37 201h-2q-131 -221 -385 -221zM479 1454h172l183 -254h-123z" />
    <glyph glyph-name="uhungarumlaut.ss01" horiz-adv-x="1179" 
d="M449 -20q-179 0 -274.5 120.5t-59.5 323.5l116 661h134l-117 -657q-29 -159 37 -247.5t207 -88.5q150 0 255 97t134 262l110 634h133l-192 -1085h-133l37 201h-2q-131 -221 -385 -221zM457 1208l207 246h178l-260 -246h-125zM836 1208l206 246h177l-261 -246h-122z" />
    <glyph glyph-name="umacron.ss01" horiz-adv-x="1179" 
d="M449 -20q-179 0 -274.5 120.5t-59.5 323.5l116 661h134l-117 -657q-29 -159 37 -247.5t207 -88.5q150 0 255 97t134 262l110 634h133l-192 -1085h-133l37 201h-2q-131 -221 -385 -221zM424 1274l18 106h594l-18 -106h-594z" />
    <glyph glyph-name="uogonek.ss01" horiz-adv-x="1179" 
d="M449 -20q-179 0 -274.5 120.5t-59.5 323.5l116 661h134l-117 -657q-29 -159 37 -247.5t207 -88.5q150 0 255 97t134 262l110 634h133l-192 -1085q-213 -92 -213 -188q0 -62 102 -62h64l-23 -119h-67q-98 0 -146.5 39.5t-48.5 98.5q0 157 203 256l33 176h-2
q-131 -221 -385 -221z" />
    <glyph glyph-name="uring.ss01" horiz-adv-x="1179" 
d="M449 -20q-179 0 -274.5 120.5t-59.5 323.5l116 661h134l-117 -657q-29 -159 37 -247.5t207 -88.5q150 0 255 97t134 262l110 634h133l-192 -1085h-133l37 201h-2q-131 -221 -385 -221zM551 1366q0 78 53.5 131t134.5 53t135 -53t54 -131q0 -82 -54 -133t-135 -51
t-134.5 51t-53.5 133zM631 1366q0 -50 31 -79.5t77 -29.5t77.5 30t31.5 79q0 44 -31.5 75.5t-77.5 31.5t-77 -30t-31 -77z" />
    <glyph glyph-name="utilde.ss01" horiz-adv-x="1179" 
d="M449 -20q-179 0 -274.5 120.5t-59.5 323.5l116 661h134l-117 -657q-29 -159 37 -247.5t207 -88.5q150 0 255 97t134 262l110 634h133l-192 -1085h-133l37 201h-2q-131 -221 -385 -221zM334 1208q23 101 83.5 167.5t145.5 66.5q46 0 91 -21t74.5 -46.5t65.5 -46.5t66 -21
q46 0 76.5 31t48.5 100h113q-23 -100 -84 -167t-146 -67q-45 0 -89.5 21t-74 46.5t-65.5 46.5t-66 21q-48 0 -79 -31t-48 -100h-112z" />
    <glyph glyph-name="a.ss01.ss02" horiz-adv-x="1239" 
d="M393 -20q-168 0 -261.5 104t-65.5 260q16 90 79.5 149t155.5 86.5t223 38.5l355 31l14 82q23 129 -43.5 195.5t-202.5 66.5q-131 0 -214.5 -60t-106.5 -175h-140q27 165 156.5 256.5t308.5 91.5q189 0 294.5 -102t74.5 -285l-105 -600h160l-22 -119h-185
q-39 0 -62.5 19.5t-17.5 62.5l19 106h-2q-77 -97 -185.5 -152.5t-226.5 -55.5zM201 328q-18 -108 49 -172t184 -64q133 0 255 88t145 213l26 148l-307 -29q-64 -7 -108 -14t-90 -20.5t-75 -32t-50.5 -48t-28.5 -69.5z" />
    <glyph glyph-name="aacute.ss01.ss02" horiz-adv-x="1239" 
d="M393 -20q-168 0 -261.5 104t-65.5 260q16 90 79.5 149t155.5 86.5t223 38.5l355 31l14 82q23 129 -43.5 195.5t-202.5 66.5q-131 0 -214.5 -60t-106.5 -175h-140q27 165 156.5 256.5t308.5 91.5q189 0 294.5 -102t74.5 -285l-105 -600h160l-22 -119h-185
q-39 0 -62.5 19.5t-17.5 62.5l19 106h-2q-77 -97 -185.5 -152.5t-226.5 -55.5zM201 328q-18 -108 49 -172t184 -64q133 0 255 88t145 213l26 148l-307 -29q-64 -7 -108 -14t-90 -20.5t-75 -32t-50.5 -48t-28.5 -69.5zM561 1200l266 254h187l-322 -254h-131z" />
    <glyph glyph-name="abreve.ss01.ss02" horiz-adv-x="1239" 
d="M393 -20q-168 0 -261.5 104t-65.5 260q16 90 79.5 149t155.5 86.5t223 38.5l355 31l14 82q23 129 -43.5 195.5t-202.5 66.5q-131 0 -214.5 -60t-106.5 -175h-140q27 165 156.5 256.5t308.5 91.5q189 0 294.5 -102t74.5 -285l-105 -600h160l-22 -119h-185
q-39 0 -62.5 19.5t-17.5 62.5l19 106h-2q-77 -97 -185.5 -152.5t-226.5 -55.5zM201 328q-18 -108 49 -172t184 -64q133 0 255 88t145 213l26 148l-307 -29q-64 -7 -108 -14t-90 -20.5t-75 -32t-50.5 -48t-28.5 -69.5zM551 1454q-4 -83 39.5 -124.5t116.5 -41.5
q159 0 202 166h113q-25 -131 -112.5 -195.5t-215.5 -64.5q-121 0 -194 71t-60 189h111z" />
    <glyph glyph-name="acircumflex.ss01.ss02" horiz-adv-x="1239" 
d="M393 -20q-168 0 -261.5 104t-65.5 260q16 90 79.5 149t155.5 86.5t223 38.5l355 31l14 82q23 129 -43.5 195.5t-202.5 66.5q-131 0 -214.5 -60t-106.5 -175h-140q27 165 156.5 256.5t308.5 91.5q189 0 294.5 -102t74.5 -285l-105 -600h160l-22 -119h-185
q-39 0 -62.5 19.5t-17.5 62.5l19 106h-2q-77 -97 -185.5 -152.5t-226.5 -55.5zM201 328q-18 -108 49 -172t184 -64q133 0 255 88t145 213l26 148l-307 -29q-64 -7 -108 -14t-90 -20.5t-75 -32t-50.5 -48t-28.5 -69.5zM385 1200l256 254h166l164 -254h-125l-119 166h-27
l-180 -166h-135z" />
    <glyph glyph-name="adieresis.ss01.ss02" horiz-adv-x="1239" 
d="M393 -20q-168 0 -261.5 104t-65.5 260q16 90 79.5 149t155.5 86.5t223 38.5l355 31l14 82q23 129 -43.5 195.5t-202.5 66.5q-131 0 -214.5 -60t-106.5 -175h-140q27 165 156.5 256.5t308.5 91.5q189 0 294.5 -102t74.5 -285l-105 -600h160l-22 -119h-185
q-39 0 -62.5 19.5t-17.5 62.5l19 106h-2q-77 -97 -185.5 -152.5t-226.5 -55.5zM201 328q-18 -108 49 -172t184 -64q133 0 255 88t145 213l26 148l-307 -29q-64 -7 -108 -14t-90 -20.5t-75 -32t-50.5 -48t-28.5 -69.5zM432 1229l37 196h131l-35 -196h-133zM817 1229l35 196
h131l-35 -196h-131z" />
    <glyph glyph-name="agrave.ss01.ss02" horiz-adv-x="1239" 
d="M393 -20q-168 0 -261.5 104t-65.5 260q16 90 79.5 149t155.5 86.5t223 38.5l355 31l14 82q23 129 -43.5 195.5t-202.5 66.5q-131 0 -214.5 -60t-106.5 -175h-140q27 165 156.5 256.5t308.5 91.5q189 0 294.5 -102t74.5 -285l-105 -600h160l-22 -119h-185
q-39 0 -62.5 19.5t-17.5 62.5l19 106h-2q-77 -97 -185.5 -152.5t-226.5 -55.5zM201 328q-18 -108 49 -172t184 -64q133 0 255 88t145 213l26 148l-307 -29q-64 -7 -108 -14t-90 -20.5t-75 -32t-50.5 -48t-28.5 -69.5zM457 1454h172l182 -254h-123z" />
    <glyph glyph-name="amacron.ss01.ss02" horiz-adv-x="1239" 
d="M393 -20q-168 0 -261.5 104t-65.5 260q16 90 79.5 149t155.5 86.5t223 38.5l355 31l14 82q23 129 -43.5 195.5t-202.5 66.5q-131 0 -214.5 -60t-106.5 -175h-140q27 165 156.5 256.5t308.5 91.5q189 0 294.5 -102t74.5 -285l-105 -600h160l-22 -119h-185
q-39 0 -62.5 19.5t-17.5 62.5l19 106h-2q-77 -97 -185.5 -152.5t-226.5 -55.5zM201 328q-18 -108 49 -172t184 -64q133 0 255 88t145 213l26 148l-307 -29q-64 -7 -108 -14t-90 -20.5t-75 -32t-50.5 -48t-28.5 -69.5zM401 1274l19 106h594l-19 -106h-594z" />
    <glyph glyph-name="aogonek.ss01.ss02" horiz-adv-x="1239" 
d="M393 -20q-168 0 -261.5 104t-65.5 260q16 90 79.5 149t155.5 86.5t223 38.5l355 31l14 82q23 129 -43.5 195.5t-202.5 66.5q-131 0 -214.5 -60t-106.5 -175h-140q27 165 156.5 256.5t308.5 91.5q189 0 294.5 -102t74.5 -285l-105 -600h160l-22 -119h-140
q-213 -92 -213 -188q0 -62 103 -62h63l-22 -119h-68q-98 0 -146 39.5t-48 98.5q0 162 215 262q-14 23 -9 51l19 106h-2q-77 -97 -185.5 -152.5t-226.5 -55.5zM201 328q-18 -108 49 -172t184 -64q133 0 255 88t145 213l26 148l-307 -29q-64 -7 -108 -14t-90 -20.5t-75 -32
t-50.5 -48t-28.5 -69.5z" />
    <glyph glyph-name="aring.ss01.ss02" horiz-adv-x="1239" 
d="M393 -20q-168 0 -261.5 104t-65.5 260q16 90 79.5 149t155.5 86.5t223 38.5l355 31l14 82q23 129 -43.5 195.5t-202.5 66.5q-131 0 -214.5 -60t-106.5 -175h-140q27 165 156.5 256.5t308.5 91.5q189 0 294.5 -102t74.5 -285l-105 -600h160l-22 -119h-185
q-39 0 -62.5 19.5t-17.5 62.5l19 106h-2q-77 -97 -185.5 -152.5t-226.5 -55.5zM201 328q-18 -108 49 -172t184 -64q133 0 255 88t145 213l26 148l-307 -29q-64 -7 -108 -14t-90 -20.5t-75 -32t-50.5 -48t-28.5 -69.5zM526 1366q0 78 54 131t135 53t134.5 -53t53.5 -131
q0 -82 -53.5 -133t-134.5 -51t-135 51t-54 133zM606 1366q0 -49 31.5 -79t77.5 -30t77 29.5t31 79.5q0 44 -31.5 75.5t-76.5 31.5q-46 0 -77.5 -30t-31.5 -77z" />
    <glyph glyph-name="aringacute.ss01.ss02" horiz-adv-x="1239" 
d="M393 -20q-168 0 -261.5 104t-65.5 260q16 90 79.5 149t155.5 86.5t223 38.5l355 31l14 82q23 129 -43.5 195.5t-202.5 66.5q-131 0 -214.5 -60t-106.5 -175h-140q27 165 156.5 256.5t308.5 91.5q189 0 294.5 -102t74.5 -285l-105 -600h160l-22 -119h-185
q-39 0 -62.5 19.5t-17.5 62.5l19 106h-2q-77 -97 -185.5 -152.5t-226.5 -55.5zM201 328q-18 -108 49 -172t184 -64q133 0 255 88t145 213l26 148l-307 -29q-64 -7 -108 -14t-90 -20.5t-75 -32t-50.5 -48t-28.5 -69.5zM485 1337q0 78 54 131.5t135 53.5t134.5 -53t53.5 -132
q0 -82 -53.5 -133t-134.5 -51t-135 51t-54 133zM565 1337q0 -49 31.5 -78.5t77.5 -29.5t77 29.5t31 78.5q0 45 -31 76t-77 31t-77.5 -30t-31.5 -77zM645 1567l266 254h187l-322 -254h-131z" />
    <glyph glyph-name="atilde.ss01.ss02" horiz-adv-x="1239" 
d="M393 -20q-168 0 -261.5 104t-65.5 260q16 90 79.5 149t155.5 86.5t223 38.5l355 31l14 82q23 129 -43.5 195.5t-202.5 66.5q-131 0 -214.5 -60t-106.5 -175h-140q27 165 156.5 256.5t308.5 91.5q189 0 294.5 -102t74.5 -285l-105 -600h160l-22 -119h-185
q-39 0 -62.5 19.5t-17.5 62.5l19 106h-2q-77 -97 -185.5 -152.5t-226.5 -55.5zM201 328q-18 -108 49 -172t184 -64q133 0 255 88t145 213l26 148l-307 -29q-64 -7 -108 -14t-90 -20.5t-75 -32t-50.5 -48t-28.5 -69.5zM311 1208q23 101 84 167.5t146 66.5q46 0 91 -21
t74.5 -46.5t65.5 -46.5t66 -21q46 0 76.5 31t48.5 100h112q-23 -100 -83.5 -167t-145.5 -67q-45 0 -89.5 21t-74 46.5t-65.5 46.5t-66 21q-48 0 -79 -31t-48 -100h-113z" />
    <glyph glyph-name="a.ss01.ss03" horiz-adv-x="1318" 
d="M567 -20q-99 0 -181.5 32.5t-138.5 89.5t-92.5 135.5t-43.5 170t8 192.5q39 220 190 363t365 143q148 0 255 -64.5t161 -185.5l40 229h132l-191 -1085h-131l33 193q-157 -213 -406 -213zM252 586q-11 -75 -8 -146.5t29.5 -134.5t68.5 -110.5t109 -75t149 -27.5
q170 0 286.5 117.5t147.5 294.5q12 60 8.5 119t-15.5 113.5t-41.5 101.5t-70 81.5t-99.5 54t-130 19.5q-169 0 -286.5 -116.5t-147.5 -290.5z" />
    <glyph glyph-name="aacute.ss01.ss03" horiz-adv-x="1318" 
d="M567 -20q-99 0 -181.5 32.5t-138.5 89.5t-92.5 135.5t-43.5 170t8 192.5q39 220 190 363t365 143q148 0 255 -64.5t161 -185.5l40 229h132l-191 -1085h-131l33 193q-157 -213 -406 -213zM252 586q-11 -75 -8 -146.5t29.5 -134.5t68.5 -110.5t109 -75t149 -27.5
q170 0 286.5 117.5t147.5 294.5q12 60 8.5 119t-15.5 113.5t-41.5 101.5t-70 81.5t-99.5 54t-130 19.5q-169 0 -286.5 -116.5t-147.5 -290.5zM631 1200l266 254h186l-321 -254h-131z" />
    </font>
</defs>
</svg>
