<?xml version="1.0" standalone="no"?>
<!DOCTYPE svg PUBLIC "-//W3C//DTD SVG 1.1//EN" "http://www.w3.org/Graphics/SVG/1.1/DTD/svg11.dtd" >
<svg xmlns="http://www.w3.org/2000/svg" xmlns:xlink="http://www.w3.org/1999/xlink" version="1.1">
<metadata>
Created by FontForge 20201107 at Tue Sep 17 20:47:58 2024
 By 
(c) 2022, Copyright by Optimo SARL. All rights reserved.
</metadata>
<defs>
<font id="Artex-Light" horiz-adv-x="0" >
  <font-face 
    font-family="Artex Light"
    font-weight="300"
    font-stretch="normal"
    units-per-em="2048"
    panose-1="0 0 0 0 0 0 0 0 0 0"
    ascent="1638"
    descent="-410"
    x-height="1085"
    cap-height="1454"
    bbox="-373 -471 2605 2169"
    underline-thickness="102"
    underline-position="-85"
    unicode-range="U+0020-FB02"
  />
<missing-glyph horiz-adv-x="1181" 
d="M82 1087l367 367h90l-82 -82q-99 -28 -172 -101.5t-101 -172.5l-102 -101v90zM82 82v90l385 385v-70h20zM82 264v92l649 648v-27q0 -29 -18.5 -58t-40.5 -48.5t-58.5 -49.5t-54.5 -47q-26 -24 -39.5 -45t-27.5 -55zM82 449v90l577 577q31 -19 50 -43zM82 631v90l276 278
l74 -4q0 55 37.5 97.5t101.5 42.5h15zM82 815v90l106 105l84 -6zM82 1180v92l184 182h90zM82 1364v90h92zM90 0l490 487h90l-172 -174h-43v-41l-271 -272h-94zM274 0l181 178v-90l-88 -88h-93zM457 0l63 61h90l-61 -61h-92zM563 1384l70 70h90l-70 -72q-32 4 -53 4t-37 -2z
M588 313l512 510v-90l-420 -420h-92zM641 0l59 61h5v5l395 391v-90l-367 -367h-92zM694 512v12q0 23 5 39.5t18.5 32t25 25t38.5 29.5t44 34q3 2 24 17t32 24t31.5 29t33 39t26 47.5t19.5 60.5l109 105v-91zM705 158v90l395 391v-90zM727 1366l88 88h90l-114 -117
q-47 25 -64 29zM823 0l277 274v-92l-185 -182h-92zM846 1303l151 151h93l-195 -194q-22 25 -49 43zM932 1208l168 164v-90l-133 -133q-14 36 -35 59zM989 1081l111 109v-92l-101 -99q0 37 -10 82zM1006 0l94 90v-90h-94z" />
    <glyph glyph-name="f_f" unicode="ff" horiz-adv-x="1433" 
d="M285 1360q0 41 25.5 67.5t66.5 26.5h352v-119h-313v-250h485v275q0 41 26 67.5t66 26.5h353v-119h-314v-250h314v-118h-314v-967h-131v967h-485v-967h-131v967h-195v118h195v275z" />
    <glyph glyph-name="f_f_i" unicode="ffi" horiz-adv-x="1800" 
d="M285 1360q0 41 25.5 67.5t66.5 26.5h352v-119h-313v-250h485v275q0 41 26 67.5t66 26.5h353v-119h-314v-250h314v-118h-314v-967h-131v967h-485v-967h-131v967h-195v118h195v275zM1516 1239v215h133v-215h-133zM1518 0v1085h131v-1085h-131z" />
    <glyph glyph-name="f_f_l" unicode="ffl" horiz-adv-x="1800" 
d="M285 1360q0 41 25.5 67.5t66.5 26.5h352v-119h-313v-250h485v275q0 41 26 67.5t66 26.5h353v-119h-314v-250h314v-118h-314v-967h-131v967h-485v-967h-131v967h-195v118h195v275zM1518 0v1454h131v-1454h-131z" />
    <glyph glyph-name="f_i" unicode="fi" horiz-adv-x="1183" 
d="M285 1360q0 41 25.5 67.5t66.5 26.5h352v-119h-313v-250h313v-118h-313v-967h-131v967h-195v118h195v275zM899 1239v215h131v-215h-131zM901 0v1085h131v-1085h-131z" />
    <glyph glyph-name="f_l" unicode="fl" horiz-adv-x="1183" 
d="M285 1360q0 41 25.5 67.5t66.5 26.5h352v-119h-313v-250h313v-118h-313v-967h-131v967h-195v118h195v275zM901 0v1454h131v-1454h-131z" />
    <glyph glyph-name=".notdef" horiz-adv-x="1181" 
d="M82 1087l367 367h90l-82 -82q-99 -28 -172 -101.5t-101 -172.5l-102 -101v90zM82 82v90l385 385v-70h20zM82 264v92l649 648v-27q0 -29 -18.5 -58t-40.5 -48.5t-58.5 -49.5t-54.5 -47q-26 -24 -39.5 -45t-27.5 -55zM82 449v90l577 577q31 -19 50 -43zM82 631v90l276 278
l74 -4q0 55 37.5 97.5t101.5 42.5h15zM82 815v90l106 105l84 -6zM82 1180v92l184 182h90zM82 1364v90h92zM90 0l490 487h90l-172 -174h-43v-41l-271 -272h-94zM274 0l181 178v-90l-88 -88h-93zM457 0l63 61h90l-61 -61h-92zM563 1384l70 70h90l-70 -72q-32 4 -53 4t-37 -2z
M588 313l512 510v-90l-420 -420h-92zM641 0l59 61h5v5l395 391v-90l-367 -367h-92zM694 512v12q0 23 5 39.5t18.5 32t25 25t38.5 29.5t44 34q3 2 24 17t32 24t31.5 29t33 39t26 47.5t19.5 60.5l109 105v-91zM705 158v90l395 391v-90zM727 1366l88 88h90l-114 -117
q-47 25 -64 29zM823 0l277 274v-92l-185 -182h-92zM846 1303l151 151h93l-195 -194q-22 25 -49 43zM932 1208l168 164v-90l-133 -133q-14 36 -35 59zM989 1081l111 109v-92l-101 -99q0 37 -10 82zM1006 0l94 90v-90h-94z" />
    <glyph glyph-name=".null" 
 />
    <glyph glyph-name="nonmarkingreturn" horiz-adv-x="682" 
 />
    <glyph glyph-name="space" unicode=" " horiz-adv-x="466" 
 />
    <glyph glyph-name="exclam" unicode="!" horiz-adv-x="514" 
d="M193 0v205h131v-205h-131zM190 367v1087h132v-1087h-132z" />
    <glyph glyph-name="quotedbl" unicode="&#x22;" horiz-adv-x="753" 
d="M164 983l-23 471h142l-23 -471h-96zM471 1454h141l-22 -471h-96z" />
    <glyph glyph-name="numbersign" unicode="#" horiz-adv-x="1257" 
d="M170 1085h240l65 369h111l-64 -369h344l64 369h112l-65 -369h192v-102h-208l-91 -502h217v-102h-233l-68 -379h-110l65 379h-344l-65 -379h-113l68 379h-199v102h215l90 502h-223v102zM416 481h344l88 502h-344z" />
    <glyph glyph-name="dollar" unicode="$" horiz-adv-x="1202" 
d="M532 -211v195q-193 22 -311.5 145.5t-124.5 327.5h137q7 -175 109.5 -266t267.5 -91q167 0 263 71t96 216q0 65 -29 115t-77.5 81.5t-112 56.5t-133.5 45t-140 41.5t-133.5 52t-112 70t-77.5 102t-29 143.5q0 172 112 269t295 110v161h136v-166q182 -24 290.5 -142.5
t114.5 -309.5h-133q-4 160 -100.5 249t-257.5 89q-142 0 -233 -64t-91 -192q0 -61 29 -107.5t77.5 -76.5t112 -53.5t133.5 -44t140 -42.5t133.5 -54.5t112 -74.5t77.5 -107.5t29 -148.5q0 -124 -59 -214.5t-155 -137t-220 -55.5v-193h-136z" />
    <glyph glyph-name="percent" unicode="%" horiz-adv-x="1875" 
d="M375 639q-108 0 -181 54.5t-105 145.5t-32 216q0 123 32.5 213.5t105.5 144t180 53.5q161 0 240 -112t79 -299q0 -193 -79 -304.5t-240 -111.5zM174 1055q0 -93 18 -162.5t64.5 -114.5t118.5 -45q55 0 96 25.5t64 71t34 101.5t11 124q0 143 -48.5 230t-156.5 87
q-201 0 -201 -317zM580 0l624 1454h109l-623 -1454h-110zM1184 403q0 189 79 300.5t238 111.5q161 0 240.5 -112.5t79.5 -299.5q0 -193 -79.5 -304t-240.5 -111q-82 0 -143.5 30.5t-99 86.5t-56 130.5t-18.5 167.5zM1300 403q0 -93 18 -162t64.5 -114t118.5 -45q55 0 96 25
t64 70.5t34 101.5t11 124q0 143 -48.5 230.5t-156.5 87.5q-201 0 -201 -318z" />
    <glyph glyph-name="ampersand" unicode="&#x26;" horiz-adv-x="1445" 
d="M612 0q-224 0 -333 88t-109 250q0 65 19 124t50 105t77.5 88.5t94 74t107.5 63.5q-96 113 -140 201.5t-44 174.5q0 131 100 218.5t260 87.5q167 0 266 -84.5t99 -214.5q0 -68 -25.5 -126t-77 -108t-110.5 -89.5t-144 -84.5l431 -479v450h120v-612q0 -127 -114 -127h-527z
M303 346q0 -225 334 -225h485l-530 590q-135 -75 -212 -162t-77 -203zM467 1159q0 -72 42 -145.5t120 -163.5q147 74 222 146t75 167q0 91 -62 145t-168 54q-103 0 -166 -56.5t-63 -146.5z" />
    <glyph glyph-name="quotesingle" unicode="'" horiz-adv-x="423" 
d="M164 983l-23 471h142l-23 -471h-96z" />
    <glyph glyph-name="parenleft" unicode="(" horiz-adv-x="595" 
d="M379 -330q-273 445 -273 944q0 496 273 942h131q-279 -462 -279 -942q0 -482 279 -944h-131z" />
    <glyph glyph-name="parenright" unicode=")" horiz-adv-x="595" 
d="M217 1556q272 -444 272 -944q0 -498 -272 -942h-131q279 462 279 942q0 482 -279 944h131z" />
    <glyph glyph-name="asterisk" unicode="*" horiz-adv-x="997" 
d="M305 778l-80 70l185 219l-269 100l35 99l270 -99v287h105v-287l268 99l37 -99l-270 -100l184 -219l-80 -70l-190 230h-4z" />
    <glyph glyph-name="plus" unicode="+" horiz-adv-x="1191" 
d="M535 225v443h-441v120h441v441h118v-441h445v-120h-445v-443h-118z" />
    <glyph glyph-name="comma" unicode="," horiz-adv-x="464" 
d="M82 -225l111 471h137l-144 -471h-104z" />
    <glyph glyph-name="hyphen" unicode="-" horiz-adv-x="913" 
d="M137 506v115h637v-115h-637z" />
    <glyph glyph-name="period" unicode="." horiz-adv-x="434" 
d="M152 0v211h131v-211h-131z" />
    <glyph glyph-name="slash" unicode="/" horiz-adv-x="759" 
d="M84 0l457 1454h135l-457 -1454h-135z" />
    <glyph glyph-name="zero" unicode="0" horiz-adv-x="1302" 
d="M651 -20q-139 0 -242 56t-164.5 159t-90.5 236t-29 298q0 166 30 299t91.5 234.5t164 157t240.5 55.5q112 0 201 -37t149.5 -102.5t100.5 -160t58 -205t18 -241.5q0 -132 -18.5 -244t-59 -206t-101 -160t-149 -102.5t-199.5 -36.5zM260 729q0 -132 21.5 -242.5t66 -200.5
t122 -141t181.5 -51q105 0 183 51.5t122 142.5t65 201t21 240q0 104 -11.5 193t-40 171t-72.5 140t-112 92.5t-155 34.5q-108 0 -186.5 -51.5t-122 -142.5t-63 -199t-19.5 -238z" />
    <glyph glyph-name="one" unicode="1" horiz-adv-x="778" 
d="M481 0v1335h-379v119h416q42 0 68 -26t26 -68v-1360h-131z" />
    <glyph glyph-name="two" unicode="2" horiz-adv-x="1222" 
d="M123 160q191 138 317 236.5t232 192.5t164 169t89 148.5t31 148.5q0 141 -92.5 221t-245.5 80q-161 0 -258.5 -86t-103.5 -234h-137q6 143 76.5 244t180 148t245.5 47q130 0 237 -48.5t171.5 -143t64.5 -216.5q0 -106 -46 -208t-147.5 -213t-246.5 -227.5t-359 -262.5
v-39l807 2v-119h-979v160z" />
    <glyph glyph-name="three" unicode="3" horiz-adv-x="1249" 
d="M623 -20q-101 0 -188.5 23.5t-159 71t-115.5 128t-51 186.5h137q17 -145 115 -220t257 -75q170 0 273.5 80.5t103.5 226.5q0 76 -34 135.5t-90.5 93.5t-121.5 51t-135 17h-131v111h129q91 0 171 31t135 98.5t55 157.5q0 129 -98 196.5t-254 67.5t-246 -70.5t-109 -206.5
h-137q12 187 151.5 289.5t344.5 102.5q135 0 243 -43t173 -128t65 -200q0 -123 -77 -216.5t-191 -127.5v-6q129 -34 212 -130t83 -231q0 -130 -68.5 -225t-182.5 -141.5t-259 -46.5z" />
    <glyph glyph-name="four" unicode="4" horiz-adv-x="1230" 
d="M932 0v346h-828v146l719 962h148q42 0 68 -26t26 -68v-1360h-133zM266 463h666v545l4 329h-49l-621 -833v-41z" />
    <glyph glyph-name="five" unicode="5" horiz-adv-x="1249" 
d="M616 -20q-116 0 -210.5 35t-156 95.5t-98 136t-45.5 161.5h130q29 -150 129.5 -232t250.5 -82q173 0 280.5 102.5t107.5 266.5t-102 264t-265 100q-259 0 -363 -192h-73q-20 0 -33 14.5t-12 36.5l43 674q3 43 28 68.5t66 25.5h782v-119h-758l-43 -553q132 160 377 160
q222 0 353 -134.5t131 -344.5q0 -214 -142.5 -348.5t-376.5 -134.5z" />
    <glyph glyph-name="six" unicode="6" horiz-adv-x="1277" 
d="M645 -20q-132 0 -232.5 48.5t-163 136.5t-93.5 205t-31 259q0 143 18.5 266t59.5 231.5t103.5 184.5t155.5 120t210 44q186 0 313.5 -109.5t155.5 -282.5h-140q-29 134 -115 205.5t-220 71.5q-103 0 -182.5 -53t-128 -145.5t-74 -208t-29.5 -251.5q65 114 177.5 169
t238.5 55q148 0 261.5 -62t173.5 -168.5t60 -240.5q0 -210 -147 -342.5t-371 -132.5zM274 451q0 -160 106 -258.5t265 -98.5q169 0 275 99.5t106 263.5q0 157 -105 255.5t-268 98.5q-168 0 -273.5 -100.5t-105.5 -259.5z" />
    <glyph glyph-name="seven" unicode="7" horiz-adv-x="1107" 
d="M270 0l596 1335h-764v119h902v-115l-590 -1339h-144z" />
    <glyph glyph-name="eight" unicode="8" horiz-adv-x="1267" 
d="M633 -20q-136 0 -253 47.5t-192 143t-75 220.5q0 76 26 139.5t70 107t93.5 72.5t105.5 46v6q-103 32 -174.5 116.5t-71.5 219.5q0 92 40 165.5t107.5 118.5t150 69t173.5 24t174.5 -24t151 -69t107.5 -118.5t40 -165.5q0 -135 -71.5 -219.5t-174.5 -116.5v-6
q56 -17 105 -46t93 -72.5t69.5 -107t25.5 -139.5q0 -125 -74.5 -220.5t-191.5 -143t-254 -47.5zM248 403q0 -148 110 -228.5t275 -80.5q106 0 192 33t140.5 104.5t54.5 171.5q0 96 -55 164.5t-140.5 100.5t-191.5 32t-191 -32t-139.5 -100.5t-54.5 -164.5zM293 1090
q0 -130 96.5 -203.5t243.5 -73.5q148 0 245 74t97 203q0 128 -98 199t-244 71q-93 0 -169 -30t-123.5 -92.5t-47.5 -147.5z" />
    <glyph glyph-name="nine" unicode="9" horiz-adv-x="1277" 
d="M606 -20q-186 0 -313.5 109t-155.5 282h139q29 -134 115.5 -205.5t220.5 -71.5q103 0 182.5 53t128 145.5t74 208t29.5 251.5q-65 -114 -177 -169t-237 -55q-225 0 -361 133t-136 338q0 210 147 343t371 133q132 0 232.5 -48.5t163 -137t93.5 -205.5t31 -259
q0 -143 -18.5 -266t-59.5 -231t-103.5 -184t-155.5 -120t-210 -44zM252 997q0 -157 105.5 -255.5t269.5 -98.5q167 0 272 101t105 260q0 160 -106 258t-265 98q-169 0 -275 -99.5t-106 -263.5z" />
    <glyph glyph-name="colon" unicode=":" horiz-adv-x="454" 
d="M162 0v211h131v-211h-131zM162 772v211h131v-211h-131z" />
    <glyph glyph-name="semicolon" unicode=";" horiz-adv-x="454" 
d="M162 772v211h131v-211h-131zM47 -225l111 471h137l-143 -471h-105z" />
    <glyph glyph-name="less" unicode="&#x3c;" horiz-adv-x="1210" 
d="M1106 233l-1004 381v224l1004 381v-140l-860 -311v-84l860 -311v-140z" />
    <glyph glyph-name="equal" unicode="=" horiz-adv-x="1220" 
d="M111 889v121h1003v-121h-1003zM111 446v121h1003v-121h-1003z" />
    <glyph glyph-name="greater" unicode="&#x3e;" horiz-adv-x="1210" 
d="M106 1219l1004 -381v-224l-1004 -381v140l861 311v84l-861 311v140z" />
    <glyph glyph-name="question" unicode="?" horiz-adv-x="1103" 
d="M467 444q0 112 58.5 191.5t179.5 171.5q38 30 63 53.5t52 58.5t40.5 77t13.5 91q0 111 -80 189t-233 78q-155 0 -244 -93t-92 -251h-135q2 210 129.5 337.5t341.5 127.5q215 0 332 -111t117 -281q0 -187 -193 -338q-83 -65 -124 -103.5t-68 -89t-27 -110.5v-75h-131v77z
M467 0v205h131v-205h-131z" />
    <glyph glyph-name="at" unicode="@" horiz-adv-x="2146" 
d="M977 -369q-388 0 -592.5 226t-204.5 692q0 228 68 406.5t189.5 291t283 170.5t354.5 58q417 0 656 -221t239 -615q0 -161 -25 -276t-75.5 -184t-120 -100.5t-164.5 -31.5h-600q-150 0 -236.5 80.5t-86.5 208.5q0 127 83 195t220 83l352 37v94q0 94 -61.5 146.5
t-176.5 52.5q-116 0 -175.5 -55.5t-67.5 -149.5h-136q3 144 106.5 229t272.5 85q172 0 269.5 -79.5t97.5 -234.5v-581h104q77 0 128.5 22t88.5 76.5t53.5 148t16.5 234.5q0 346 -199.5 534.5t-562.5 188.5q-168 0 -305 -49.5t-239.5 -147t-159 -254.5t-56.5 -360
q0 -801 658 -801h493v-119h-489zM795 338q0 -79 55 -128.5t149 -49.5h318v393l-316 -35q-206 -23 -206 -180z" />
    <glyph glyph-name="A" unicode="A" horiz-adv-x="1456" 
d="M84 0l524 1454h250l524 -1454h-139l-178 506h-666l-178 -506h-137zM442 627h580l-129 362l-117 338h-88z" />
    <glyph glyph-name="B" unicode="B" horiz-adv-x="1253" 
d="M154 1360q0 41 26.5 67.5t67.5 26.5h420q194 0 312 -102.5t118 -272.5q0 -112 -54 -201t-161 -124q87 -22 149.5 -77.5t91.5 -126t29 -147.5q0 -173 -124.5 -288t-317.5 -115h-557v1360zM289 119h416q144 0 227.5 81t83.5 203q0 114 -77.5 197.5t-221.5 83.5h-428v-565z
M289 801h377q143 0 219 78.5t76 199.5q0 118 -77.5 187t-226.5 69h-368v-534z" />
    <glyph glyph-name="C" unicode="C" horiz-adv-x="1576" 
d="M817 -20q-141 0 -268.5 50t-227.5 142.5t-159.5 237t-59.5 319.5q0 173 59.5 316.5t159 236t228 143t268.5 50.5q135 0 252.5 -39.5t200.5 -107t137.5 -153.5t75.5 -182h-146q-18 69 -59 131.5t-104 115t-155.5 83.5t-201.5 31q-91 0 -175.5 -25.5t-157.5 -78
t-127.5 -126t-85.5 -175t-31 -220.5t31 -221.5t85.5 -176.5t127.5 -126.5t157.5 -78.5t175.5 -26q109 0 201.5 31t155.5 83.5t104 115t59 131.5h146q-21 -96 -75.5 -181.5t-137.5 -153t-200.5 -107t-252.5 -39.5z" />
    <glyph glyph-name="D" unicode="D" horiz-adv-x="1447" 
d="M154 1360q0 41 26.5 67.5t67.5 26.5h399q206 0 365.5 -92t246.5 -256.5t87 -374.5q0 -216 -88 -382.5t-247 -257.5t-364 -91h-493v1360zM289 119h352q255 0 411 169.5t156 442.5q0 271 -156.5 437.5t-410.5 166.5h-352v-1216z" />
    <glyph glyph-name="E" unicode="E" horiz-adv-x="1114" 
d="M154 1360q0 41 26.5 67.5t67.5 26.5h762v-119h-721v-544h645v-121h-645v-551h731v-119h-866v1360z" />
    <glyph glyph-name="F" unicode="F" horiz-adv-x="1124" 
d="M154 1360q0 41 26.5 67.5t67.5 26.5h762v-119h-721v-544h643v-121h-643v-670h-135v1360z" />
    <glyph glyph-name="G" unicode="G" horiz-adv-x="1601" 
d="M819 -20q-141 0 -268.5 50t-227.5 142.5t-159.5 237t-59.5 319.5q0 173 59 316.5t158.5 236t227.5 143t268 50.5q135 0 252.5 -39.5t200.5 -107t138 -153.5t77 -182h-146q-19 70 -60 132t-104 114.5t-155 83.5t-201 31q-115 0 -218 -41.5t-183.5 -118t-128 -197
t-47.5 -268.5t47.5 -269.5t127.5 -199t183.5 -119t218.5 -41.5q250 0 391.5 122t141.5 349v45h-576v119h711v-166q0 -180 -87 -314.5t-237.5 -204.5t-343.5 -70z" />
    <glyph glyph-name="H" unicode="H" horiz-adv-x="1400" 
d="M1114 0v670h-825v-670h-135v1454h135v-666h825v666h133v-1454h-133z" />
    <glyph glyph-name="I" unicode="I" horiz-adv-x="442" 
d="M154 1454h135v-1454h-135v1454z" />
    <glyph glyph-name="J" unicode="J" horiz-adv-x="706" 
d="M86 0v119h332v1335h135v-1360q0 -41 -26.5 -67.5t-69.5 -26.5h-371z" />
    <glyph glyph-name="K" unicode="K" horiz-adv-x="1245" 
d="M684 733l475 -719v-14h-149l-449 688h-272v-688h-135v1454h135v-645h272l447 645h151v-16l-475 -666v-39z" />
    <glyph glyph-name="L" unicode="L" horiz-adv-x="1105" 
d="M154 0v1454h135v-1335h731v-119h-866z" />
    <glyph glyph-name="M" unicode="M" horiz-adv-x="1781" 
d="M283 0h-129v1360q0 41 26.5 67.5t67.5 26.5h184l305 -946l125 -381h58l124 381l306 946h278v-1454h-129v1327h-61l-127 -395l-303 -932h-234l-303 932l-127 395h-61v-1327z" />
    <glyph glyph-name="N" unicode="N" horiz-adv-x="1402" 
d="M154 1360q0 41 26.5 67.5t67.5 26.5h174l467 -975l166 -354h63v1329h131v-1454h-266l-469 975l-166 354h-63v-1329h-131v1360z" />
    <glyph glyph-name="O" unicode="O" horiz-adv-x="1636" 
d="M817 -20q-112 0 -217 31.5t-195 94.5t-158 151.5t-106.5 209.5t-38.5 260q0 173 59.5 317t159 237t228 143.5t268.5 50.5q141 0 269.5 -50.5t228.5 -143.5t159.5 -236t59.5 -316q0 -174 -59.5 -318t-159.5 -237t-228.5 -143.5t-269.5 -50.5zM240 727q0 -118 31 -219.5
t85.5 -175.5t127.5 -127t157.5 -79t175.5 -26q115 0 218.5 42t184.5 119.5t129 198.5t48 269q0 146 -48 266t-128.5 197.5t-184.5 119.5t-219 42q-114 0 -217.5 -42.5t-184 -120t-128 -198t-47.5 -266.5z" />
    <glyph glyph-name="P" unicode="P" horiz-adv-x="1202" 
d="M154 1360q0 41 26.5 67.5t67.5 26.5h420q195 0 316.5 -110t121.5 -297q0 -195 -120 -305.5t-314 -110.5h-383v-631h-135v1360zM289 750h391q132 0 210.5 80.5t78.5 216.5q0 133 -83 210.5t-218 77.5h-379v-585z" />
    <glyph glyph-name="Q" unicode="Q" horiz-adv-x="1636" 
d="M817 100q115 0 218.5 42t184.5 119.5t129 198.5t48 269q0 146 -48 266t-128.5 197.5t-184.5 119.5t-219 42q-114 0 -217.5 -42.5t-184 -120t-128 -198t-47.5 -266.5q0 -118 31 -219.5t85.5 -175.5t127.5 -127t157.5 -79t175.5 -26zM102 727q0 173 59.5 317t159 237
t228 143.5t268.5 50.5q141 0 269.5 -50.5t228.5 -143.5t159.5 -236t59.5 -316q0 -164 -52.5 -301.5t-142.5 -230t-206.5 -148t-247.5 -67.5v-91h477v-118h-516q-40 0 -66 25.5t-26 66.5v117q-131 11 -248 66t-207.5 147.5t-143.5 230t-53 301.5z" />
    <glyph glyph-name="R" unicode="R" horiz-adv-x="1298" 
d="M154 1360q0 41 26.5 67.5t67.5 26.5h459q198 0 320 -109t122 -298q0 -164 -88.5 -271t-243.5 -137l397 -639h-159l-381 631h-385v-631h-135v1360zM289 752h432q139 0 215 79t76 216q0 136 -81 212t-224 76h-418v-583z" />
    <glyph glyph-name="S" unicode="S" horiz-adv-x="1269" 
d="M641 -20q-147 0 -268.5 56t-197.5 166t-79 255h135q9 -166 122.5 -261.5t287.5 -95.5q178 0 285.5 75t107.5 214q0 67 -31 117t-83.5 81t-120 54.5t-142.5 42.5t-150.5 39.5t-143 50t-120 69.5t-83.5 104t-31 147q0 121 67 209t175.5 130t244.5 42q227 0 372 -123.5
t151 -335.5h-133q-4 157 -114 247.5t-278 90.5q-152 0 -252 -67t-100 -189q0 -63 31 -110t83.5 -76.5t120.5 -52.5t143.5 -42t150.5 -40.5t143 -53t120.5 -73.5t83.5 -108.5t31 -152.5q0 -99 -43.5 -178t-117.5 -129t-168 -76t-199 -26z" />
    <glyph glyph-name="T" unicode="T" horiz-adv-x="1257" 
d="M561 0v1335h-475v119h1083v-119h-473v-1335h-135z" />
    <glyph glyph-name="U" unicode="U" horiz-adv-x="1384" 
d="M694 -20q-123 0 -221 36t-157 91.5t-98 128t-53.5 139t-14.5 131.5v948h135v-936q0 -186 110 -301t299 -115q188 0 298 115t110 301v936h133v-948q0 -65 -14.5 -131.5t-53 -139t-97.5 -128t-156 -91.5t-220 -36z" />
    <glyph glyph-name="V" unicode="V" horiz-adv-x="1421" 
d="M84 1454h141l350 -1018l103 -309h67l103 309l350 1018h137l-508 -1454h-233z" />
    <glyph glyph-name="W" unicode="W" horiz-adv-x="2064" 
d="M1059 1327h-51l-82 -344l-238 -983h-242l-358 1454h135l238 -1005l76 -322h57l76 322l243 1005h238l246 -1005l76 -322h57l76 322l237 1005h135l-358 -1454h-242l-237 983z" />
    <glyph glyph-name="X" unicode="X" horiz-adv-x="1345" 
d="M84 0l408 735l-392 719h148l350 -655h150l350 655h147l-393 -717l410 -737h-148l-366 672h-150l-367 -672h-147z" />
    <glyph glyph-name="Y" unicode="Y" horiz-adv-x="1255" 
d="M559 600l-475 846v8h145l392 -721h12l147 273l248 448h146v-8l-482 -846v-600h-133v600z" />
    <glyph glyph-name="Z" unicode="Z" horiz-adv-x="1224" 
d="M96 0v160l856 1134v41h-835v119h991v-160l-858 -1134v-41h883v-119h-1037z" />
    <glyph glyph-name="bracketleft" unicode="[" horiz-adv-x="593" 
d="M244 -330q-41 0 -67.5 26.5t-26.5 67.5v1698q0 41 26.5 67.5t67.5 26.5h260v-120h-221v-1645h221v-121h-260z" />
    <glyph glyph-name="backslash" unicode="\" horiz-adv-x="761" 
d="M543 0l-457 1454h133l457 -1454h-133z" />
    <glyph glyph-name="bracketright" unicode="]" horiz-adv-x="593" 
d="M350 1556q41 0 67.5 -26.5t26.5 -67.5v-1698q0 -41 -26.5 -67.5t-67.5 -26.5h-260v121h221v1645h-221v120h260z" />
    <glyph glyph-name="asciicircum" unicode="^" horiz-adv-x="954" 
d="M166 915l235 455h152l233 -455h-122l-187 365l-188 -365h-123z" />
    <glyph glyph-name="underscore" unicode="_" horiz-adv-x="1267" 
d="M111 -125h1046v-108h-1046v108z" />
    <glyph glyph-name="grave" unicode="`" horiz-adv-x="610" 
d="M383 1200l-281 254h179l227 -254h-125z" />
    <glyph glyph-name="a" unicode="a" horiz-adv-x="1146" 
d="M485 0q-175 0 -279 75.5t-104 225.5q0 80 28.5 137t86.5 92t130.5 54t176.5 30l357 37v86q0 129 -78 192.5t-215 63.5q-135 0 -215 -60.5t-92 -174.5h-136q7 161 132 254.5t315 93.5q191 0 304.5 -95t113.5 -274v-643q0 -41 -26 -67.5t-66 -26.5h-433zM238 305
q0 -186 251 -186h392v424l-328 -35q-165 -18 -240 -62t-75 -141z" />
    <glyph glyph-name="b" unicode="b" horiz-adv-x="1236" 
d="M246 0q-43 0 -69.5 26.5t-26.5 67.5v1360h133v-369h325q230 0 376 -148.5t146 -393.5q0 -248 -146 -395.5t-376 -147.5h-362zM283 119h317q186 0 290.5 113t104.5 311q0 196 -104 310t-291 114h-317v-848z" />
    <glyph glyph-name="c" unicode="c" horiz-adv-x="1220" 
d="M637 -20q-109 0 -205 39.5t-168 110.5t-113.5 178t-41.5 235t41.5 235t113.5 178t168 110.5t205 39.5q100 0 186 -30t145 -81.5t98.5 -111t59.5 -125.5h-143q-14 39 -41 77.5t-68.5 75.5t-103.5 59.5t-133 22.5q-167 0 -280 -122.5t-113 -327.5t113 -328t280 -123
q71 0 133 23t103.5 60t68.5 75.5t41 77.5h143q-20 -66 -59.5 -125.5t-98.5 -111t-145 -81.5t-186 -30z" />
    <glyph glyph-name="d" unicode="d" horiz-adv-x="1236" 
d="M629 0q-230 0 -376.5 147.5t-146.5 395.5q0 245 146.5 393.5t376.5 148.5h327v369h131v-1360q0 -41 -26.5 -67.5t-67.5 -26.5h-364zM242 543q0 -197 105 -310.5t290 -113.5h319v848h-319q-186 0 -290.5 -114.5t-104.5 -309.5z" />
    <glyph glyph-name="e" unicode="e" horiz-adv-x="1259" 
d="M633 -20q-231 0 -377.5 157.5t-146.5 405.5q0 246 147 404.5t377 158.5q237 0 385.5 -166t138.5 -432h-915q9 -178 117 -297t274 -119q123 0 214 65.5t134 174.5h143q-50 -161 -181.5 -256.5t-309.5 -95.5zM246 621h778q-22 164 -128.5 268t-262.5 104q-158 0 -262 -104
t-125 -268z" />
    <glyph glyph-name="f" unicode="f" horiz-adv-x="817" 
d="M285 1360q0 41 25.5 67.5t66.5 26.5h352v-119h-313v-250h313v-118h-313v-967h-131v967h-195v118h195v275z" />
    <glyph glyph-name="g" unicode="g" horiz-adv-x="1236" 
d="M250 -369v119h706v250h-327q-230 0 -376.5 149t-146.5 394q0 248 146.5 395t376.5 147h364q41 0 67.5 -26.5t26.5 -67.5v-1261q0 -46 -27.5 -72.5t-74.5 -26.5h-735zM242 543q0 -195 104.5 -309.5t290.5 -114.5h319v848h-319q-185 0 -290 -113.5t-105 -310.5z" />
    <glyph glyph-name="h" unicode="h" horiz-adv-x="1183" 
d="M915 641q0 326 -297 326h-335v-967h-131v1454h131v-369h358q186 0 297 -111.5t111 -320.5v-653h-134v641z" />
    <glyph glyph-name="i" unicode="i" horiz-adv-x="434" 
d="M152 0v1085h131v-1085h-131zM152 1239v215h131v-215h-131z" />
    <glyph glyph-name="j" unicode="j" horiz-adv-x="434" 
d="M-129 -369v121h281v1333h131v-1355q0 -46 -26.5 -72.5t-72.5 -26.5h-313zM150 1239v215h131v-215h-131z" />
    <glyph glyph-name="k" unicode="k" horiz-adv-x="1099" 
d="M655 580l357 -566v-14h-146l-325 528h-258v-528h-131v1454h131v-805h258l325 436h144v-14l-355 -469v-22z" />
    <glyph glyph-name="l" unicode="l" horiz-adv-x="434" 
d="M283 0h-131v1454h131v-1454z" />
    <glyph glyph-name="m" unicode="m" horiz-adv-x="1744" 
d="M150 991q0 42 27 68t69 26h956q179 0 293.5 -114.5t114.5 -317.5v-653h-133v641q0 159 -79.5 242.5t-217.5 83.5h-234v-967h-133v967h-530v-967h-133v991z" />
    <glyph glyph-name="n" unicode="n" horiz-adv-x="1183" 
d="M150 991q0 42 27 68t69 26h393q186 0 297 -111.5t111 -320.5v-653h-132v641q0 165 -77 245.5t-222 80.5h-333v-967h-133v991z" />
    <glyph glyph-name="o" unicode="o" horiz-adv-x="1273" 
d="M637 -20q-109 0 -205 39.5t-168 110.5t-113.5 178t-41.5 235t41.5 235t113.5 178t168 110.5t205 39.5t205 -39.5t168 -110.5t113.5 -178t41.5 -235t-41.5 -235t-113.5 -178t-168 -110.5t-205 -39.5zM244 543q0 -205 113 -328t280 -123t280 123t113 328t-113 327.5
t-280 122.5t-280 -122.5t-113 -327.5z" />
    <glyph glyph-name="p" unicode="p" horiz-adv-x="1236" 
d="M150 991q0 41 26.5 67.5t69.5 26.5h362q230 0 376 -148.5t146 -393.5q0 -248 -146 -395.5t-376 -147.5h-325v-369h-133v1360zM283 119h317q186 0 290.5 113t104.5 311q0 196 -104 310t-291 114h-317v-848z" />
    <glyph glyph-name="q" unicode="q" horiz-adv-x="1236" 
d="M956 -369v369h-327q-230 0 -376.5 147.5t-146.5 395.5q0 245 146.5 393.5t376.5 148.5h364q41 0 67.5 -26.5t26.5 -67.5v-1360h-131zM242 543q0 -197 105 -310.5t290 -113.5h319v848h-319q-186 0 -290.5 -114.5t-104.5 -309.5z" />
    <glyph glyph-name="r" unicode="r" horiz-adv-x="706" 
d="M150 991q0 41 26.5 67.5t67.5 26.5h372v-118h-333v-967h-133v991z" />
    <glyph glyph-name="s" unicode="s" horiz-adv-x="1087" 
d="M549 -20q-196 0 -317.5 91t-133.5 261h138q34 -240 317 -240q127 0 212 50.5t85 146.5q0 62 -39.5 104t-103 64t-139.5 38.5t-152.5 36.5t-140 49.5t-103 86t-39.5 137.5q0 141 111.5 221t287.5 80q192 0 307 -93.5t124 -254.5h-138q-6 112 -81.5 173.5t-211.5 61.5
q-116 0 -192 -48t-76 -130q0 -49 31 -85t81.5 -55.5t115 -38t132 -32.5t132 -39t115 -56.5t81.5 -86t31 -127.5q0 -103 -59.5 -175.5t-156 -106t-218.5 -33.5z" />
    <glyph glyph-name="t" unicode="t" horiz-adv-x="782" 
d="M682 1085v-118h-281v-848h281v-119h-320q-41 0 -66.5 26.5t-25.5 67.5v873h-180v118h180v277h131v-277h281z" />
    <glyph glyph-name="u" unicode="u" horiz-adv-x="1161" 
d="M545 0q-187 0 -297.5 111t-110.5 321v653h131v-641q0 -165 77 -245t222 -80h312v966h131v-991q0 -42 -26.5 -68t-68.5 -26h-370z" />
    <glyph glyph-name="v" unicode="v" horiz-adv-x="1196" 
d="M489 0l-401 1069v16h133l240 -657l114 -309h46l114 309l240 657h133v-16l-401 -1069h-218z" />
    <glyph glyph-name="w" unicode="w" horiz-adv-x="1708" 
d="M1198 119h37l250 966h133v-16l-293 -1069h-217l-162 657l-72 310h-40l-72 -310l-162 -657h-217l-293 1069v16h133l170 -657l78 -309h39l72 309l159 657h226l159 -657z" />
    <glyph glyph-name="x" unicode="x" horiz-adv-x="1196" 
d="M780 539l328 -525v-14h-139l-301 498h-140l-301 -498h-139v14l328 525v39l-328 493v14h139l301 -469h140l301 469h139v-14l-328 -493v-39z" />
    <glyph glyph-name="y" unicode="y" horiz-adv-x="1196" 
d="M205 -369v119h289l86 250h-91l-401 1069v16h133l240 -657l114 -309h46l114 309l240 657h133v-16l-508 -1350q-35 -88 -125 -88h-270z" />
    <glyph glyph-name="z" unicode="z" horiz-adv-x="1081" 
d="M96 0v98l699 869h-676v118h852v-98l-701 -868h713v-119h-887z" />
    <glyph glyph-name="braceleft" unicode="{" horiz-adv-x="663" 
d="M311 -330q-40 0 -66 26.5t-26 67.5v672l-133 139v76l133 140v671q0 41 26 67.5t66 26.5h260v-120h-221v-633q0 -27 -7.5 -43t-31.5 -41l-92 -96v-19l92 -96q24 -25 31.5 -41t7.5 -43v-633h221v-121h-260z" />
    <glyph glyph-name="bar" unicode="|" horiz-adv-x="585" 
d="M358 -205h-131v1659h131v-1659z" />
    <glyph glyph-name="braceright" unicode="}" horiz-adv-x="663" 
d="M352 1556q40 0 66 -26.5t26 -67.5v-671l134 -140v-76l-134 -139v-672q0 -41 -26 -67.5t-66 -26.5h-260v121h221v633q0 27 7.5 43t31.5 41l92 96v19l-92 96q-24 25 -31.5 41t-7.5 43v633h-221v120h260z" />
    <glyph glyph-name="asciitilde" unicode="~" horiz-adv-x="1241" 
d="M870 584q-75 0 -162.5 29.5t-169 59t-141.5 29.5q-148 0 -172 -118h-133q14 107 85.5 175t195.5 68q75 0 163 -30t169 -60t139 -30q148 0 172 118h135q-16 -107 -86.5 -174t-194.5 -67z" />
    <glyph glyph-name="uni00A0" unicode="&#xa0;" horiz-adv-x="466" 
 />
    <glyph glyph-name="exclamdown" unicode="&#xa1;" horiz-adv-x="456" 
d="M162 -369v1088h131v-1088h-131zM162 881v204h133v-204h-133z" />
    <glyph glyph-name="cent" unicode="&#xa2;" horiz-adv-x="1208" 
d="M100 727q0 230 125 379t320 178v170h131v-166q90 -6 167 -38.5t130.5 -82.5t89.5 -106.5t55 -118.5h-143q-14 39 -41 77.5t-68.5 75.5t-103.5 60t-133 23q-167 0 -280 -123t-113 -328t113 -328t280 -123q71 0 133 23t103.5 60t68.5 75.5t41 77.5h143q-19 -62 -55 -118.5
t-89.5 -106.5t-130.5 -82.5t-167 -38.5v-166h-131v170q-195 29 -320 178t-125 379z" />
    <glyph glyph-name="sterling" unicode="&#xa3;" horiz-adv-x="1191" 
d="M96 0v121h209v563h-209v121h209v252q0 87 23.5 161.5t70.5 132.5t124 91t177 33q177 0 280 -103t112 -278h-134q-11 121 -75 193.5t-183 72.5q-131 0 -196.5 -82.5t-65.5 -218.5v-254h371v-121h-371v-563h649v-121h-991z" />
    <glyph glyph-name="currency" unicode="&#xa4;" horiz-adv-x="1153" 
d="M578 254q-152 0 -275 90l-104 -104l-95 94l105 104q-90 120 -90 275q0 150 90 270l-105 104l95 95l104 -103q122 88 275 88q152 0 272 -90l104 105l95 -95l-105 -104q90 -120 90 -270q0 -155 -90 -275l105 -104l-95 -94l-104 104q-120 -90 -272 -90zM240 713
q0 -142 99 -241t239 -99q139 0 237 99t98 241q0 137 -98 236.5t-237 99.5q-140 0 -239 -99.5t-99 -236.5z" />
    <glyph glyph-name="yen" unicode="&#xa5;" horiz-adv-x="1333" 
d="M209 733h307l-432 713v8h145l267 -448l163 -273h15l162 273l270 448h145v-8l-438 -713h313v-119h-387l-8 -14v-168h395v-119h-395v-313h-133v313h-389v119h389v168l-8 14h-381v119z" />
    <glyph glyph-name="brokenbar" unicode="&#xa6;" horiz-adv-x="555" 
d="M344 410v-615h-131v615h131zM213 840v614h131v-614h-131z" />
    <glyph glyph-name="section" unicode="&#xa7;" horiz-adv-x="1286" 
d="M637 -207q-200 0 -326 98t-129 271h135q4 -116 96 -188t228 -72q149 0 229 55t80 149q0 66 -42.5 109t-110.5 64.5t-150.5 38t-165 38.5t-151 55.5t-112 99.5t-44.5 161q-1 93 62.5 163t164.5 99q-84 37 -130 95.5t-46 150.5q0 133 109 214t295 81q203 0 322 -95.5
t122 -257.5h-135q-3 118 -86 184t-223 66q-130 0 -200.5 -51t-70.5 -137q0 -59 32.5 -101t85 -63.5t120.5 -40t138 -30.5t138 -36t120.5 -55t85 -88.5t32.5 -136.5q0 -95 -58.5 -168.5t-168.5 -106.5q96 -37 149 -95.5t53 -153.5q0 -144 -119 -230t-329 -86zM309 674
q0 -33 10.5 -62t26 -49.5t44.5 -40t54 -31.5t67 -26t70.5 -21.5t77.5 -19.5q154 -3 235 54t81 155q0 45 -20 80.5t-48.5 57.5t-79 41t-91.5 29.5t-105 24.5q-13 3 -19 4q-147 3 -225 -52.5t-78 -143.5z" />
    <glyph glyph-name="dieresis" unicode="&#xa8;" horiz-adv-x="720" 
d="M485 1229v196h133v-196h-133zM102 1229v196h131v-196h-131z" />
    <glyph glyph-name="copyright" unicode="&#xa9;" horiz-adv-x="1849" 
d="M924 -20q-204 0 -376 99.5t-272 272t-100 377.5q0 153 59 291t159 237.5t239 158.5t293 59q153 0 291.5 -59t238.5 -158.5t158.5 -237.5t58.5 -291q0 -206 -100 -378.5t-272 -271.5t-377 -99zM252 729q0 -139 53 -265t142.5 -217.5t214.5 -145.5t262 -54t261.5 53.5
t215.5 144.5t144.5 218t53.5 266q0 184 -90.5 339.5t-245 245t-337.5 89.5q-139 0 -264 -53t-215 -143t-142.5 -215t-52.5 -263zM477 727q0 144 61 254t162 166.5t226 56.5q85 0 157.5 -25.5t123 -68.5t84 -94t50.5 -107h-122q-29 77 -103.5 138t-189.5 61
q-141 0 -237.5 -104t-96.5 -277t96.5 -277t237.5 -104q115 0 189.5 61t103.5 138h122q-17 -56 -50.5 -107t-84 -94t-123 -68.5t-157.5 -25.5q-125 0 -226 56.5t-162 166.5t-61 254z" />
    <glyph glyph-name="ordfeminine" unicode="&#xaa;" horiz-adv-x="684" 
d="M276 854q-104 0 -164.5 42.5t-60.5 125.5q0 84 59.5 124.5t188.5 51.5l201 16v43q0 127 -154 127q-150 0 -162 -116h-106q4 95 79.5 146.5t190.5 51.5q119 0 187.5 -54t68.5 -159v-335q0 -28 -18.5 -46t-46.5 -18h-263zM162 1024q0 -92 133 -92h205v211l-176 -19
q-80 -7 -121 -29t-41 -71z" />
    <glyph glyph-name="guillemotleft" unicode="&#xab;" horiz-adv-x="1062" 
d="M373 145l-240 400l240 397h147l-244 -397l244 -400h-147zM539 545l239 397h148l-244 -397l244 -400h-148z" />
    <glyph glyph-name="logicalnot" unicode="&#xac;" horiz-adv-x="1406" 
d="M1059 446v443h-883v119h1004v-562h-121z" />
    <glyph glyph-name="uni00AD" unicode="&#xad;" horiz-adv-x="913" 
d="M137 506v115h637v-115h-637z" />
    <glyph glyph-name="registered" unicode="&#xae;" horiz-adv-x="1849" 
d="M924 -20q-204 0 -376 99.5t-272 272t-100 377.5q0 153 59 291t159 237.5t239 158.5t293 59q153 0 291.5 -59t238.5 -158.5t158.5 -237.5t58.5 -291q0 -206 -100 -378.5t-272 -271.5t-377 -99zM252 729q0 -139 53 -265t142.5 -217.5t214.5 -145.5t262 -54t261.5 53.5
t215.5 144.5t144.5 218t53.5 266q0 184 -90.5 339.5t-245 245t-337.5 89.5q-139 0 -264 -53t-215 -143t-142.5 -215t-52.5 -263zM608 264v856q0 30 19 49t49 19h307q138 0 221.5 -69.5t83.5 -205.5q0 -113 -57.5 -181t-159.5 -87l242 -381h-129l-230 373h-235v-373h-111z
M719 733h266q93 0 141 46t48 134q0 85 -51.5 132t-147.5 47h-256v-359z" />
    <glyph glyph-name="macron" unicode="&#xaf;" horiz-adv-x="798" 
d="M102 1380h594v-106h-594v106z" />
    <glyph glyph-name="degree" unicode="&#xb0;" horiz-adv-x="1021" 
d="M836 1151q0 -135 -95 -230.5t-231 -95.5q-135 0 -229.5 95.5t-94.5 230.5t95 229.5t231 94.5q135 0 229.5 -94.5t94.5 -229.5zM293 1151q0 -91 63.5 -156t153.5 -65t154.5 64t64.5 157q0 91 -64 155t-153 64q-92 0 -155.5 -63.5t-63.5 -155.5z" />
    <glyph glyph-name="plusminus" unicode="&#xb1;" horiz-adv-x="1208" 
d="M543 446v369h-441v119h441v371h121v-371h442v-119h-442v-369h-121zM102 201v118h1004v-118h-1004z" />
    <glyph glyph-name="uni00B2" unicode="&#xb2;" horiz-adv-x="673" 
d="M53 965q265 195 357 287.5t92 179.5q0 69 -45.5 107t-118.5 38q-76 0 -124.5 -42.5t-51.5 -115.5h-115q6 122 88 185t203 63q122 0 201 -63t79 -164q0 -112 -94 -215t-325 -260v-17l172 2h250v-96h-568v111z" />
    <glyph glyph-name="uni00B3" unicode="&#xb3;" horiz-adv-x="690" 
d="M342 842q-125 0 -208.5 59.5t-90.5 175.5h115q7 -69 55 -107t125 -38q78 0 130 39.5t52 109.5q0 72 -56.5 108t-133.5 36h-72v88h72q73 0 126.5 37t53.5 102q0 60 -49 93.5t-119 33.5q-74 0 -119.5 -35t-52.5 -100h-113q6 105 85 165t200 60t201 -57t80 -152
q0 -66 -42 -115t-104 -69v-6q70 -20 114 -71t44 -124q0 -109 -83.5 -171t-209.5 -62z" />
    <glyph glyph-name="acute" unicode="&#xb4;" horiz-adv-x="610" 
d="M102 1200l226 254h180l-281 -254h-125z" />
    <glyph glyph-name="uni00B5" unicode="&#xb5;" horiz-adv-x="1163" 
d="M598 -20q-217 0 -315 153v-502h-131v1454h131v-661q0 -154 84.5 -243t230.5 -89t228.5 85t82.5 247v661h131v-655q0 -213 -117 -331.5t-325 -118.5z" />
    <glyph glyph-name="paragraph" unicode="&#xb6;" horiz-adv-x="1341" 
d="M1042 1454h134v-1823h-134v1823zM80 922q0 146 67 267t190 193t277 72h234v-1823h-133v758h-101q-154 0 -277 71.5t-190 193t-67 268.5z" />
    <glyph glyph-name="periodcentered" unicode="&#xb7;" horiz-adv-x="434" 
d="M152 440v211h131v-211h-131z" />
    <glyph glyph-name="cedilla" unicode="&#xb8;" horiz-adv-x="581" 
d="M117 -207l61 209l109 -2l-62 -135v-12h70q78 0 131 -41.5t53 -116.5v-4q0 -78 -53 -120t-131 -42h-193v74h166q54 0 82.5 23.5t28.5 64.5v4q0 38 -28.5 61t-82.5 23h-141z" />
    <glyph glyph-name="uni00B9" unicode="&#xb9;" horiz-adv-x="446" 
d="M244 854v707h-211v96h256q28 0 46.5 -18.5t18.5 -47.5v-737h-110z" />
    <glyph glyph-name="ordmasculine" unicode="&#xba;" horiz-adv-x="739" 
d="M369 842q-134 0 -224 85t-90 226q0 143 90 228t224 85q136 0 225.5 -85t89.5 -228q0 -142 -89 -226.5t-226 -84.5zM168 1153q0 -103 57 -164t144 -61q89 0 146.5 60.5t57.5 164.5t-57.5 164.5t-146.5 60.5q-87 0 -144 -60.5t-57 -164.5z" />
    <glyph glyph-name="guillemotright" unicode="&#xbb;" horiz-adv-x="1062" 
d="M285 942l239 -399l-239 -398h-148l244 398l-244 399h148zM543 145l243 398l-243 399h147l240 -399l-240 -398h-147z" />
    <glyph glyph-name="onequarter" unicode="&#xbc;" horiz-adv-x="1456" 
d="M244 651v707h-211v96h256q28 0 46.5 -18t18.5 -47v-738h-110zM293 0l625 1454h108l-623 -1454h-110zM815 182v103l369 518h114q27 0 46.5 -18.5t19.5 -47.5v-737h-109v182h-440zM934 279h321v251l2 172h-28l-295 -407v-16z" />
    <glyph glyph-name="onehalf" unicode="&#xbd;" horiz-adv-x="1523" 
d="M244 651v707h-211v96h256q28 0 46.5 -18t18.5 -47v-738h-110zM293 0l625 1454h108l-623 -1454h-110zM897 565q6 122 88 185t203 63q122 0 201 -63t79 -164q0 -112 -94 -215t-325 -260v-17l172 2h249v-96h-567v111q265 195 357 287.5t92 179.5q0 69 -45.5 107t-118.5 38
q-76 0 -124.5 -42.5t-51.5 -115.5h-115z" />
    <glyph glyph-name="threequarters" unicode="&#xbe;" horiz-adv-x="1699" 
d="M342 639q-125 0 -208.5 59.5t-90.5 175.5h115q7 -69 55 -107t125 -38q78 0 130 40t52 110q0 72 -56.5 107.5t-133.5 35.5h-72v88h72q73 0 126.5 37t53.5 102q0 60 -49 93.5t-119 33.5q-74 0 -119.5 -35t-52.5 -100h-113q6 105 85 165t200 60t201 -57t80 -152
q0 -66 -42 -115t-104 -69v-6q70 -20 114 -71t44 -124q0 -109 -83.5 -171t-209.5 -62zM537 0l624 1454h109l-623 -1454h-110zM1059 182v103l368 518h115q27 0 46.5 -18.5t19.5 -47.5v-737h-109v182h-440zM1178 279h321v251l2 172h-28l-295 -407v-16z" />
    <glyph glyph-name="questiondown" unicode="&#xbf;" horiz-adv-x="1103" 
d="M637 641q0 -59 -16.5 -109t-51.5 -94.5t-73 -79t-97 -79.5q-38 -30 -63 -54t-52.5 -59t-41 -77t-13.5 -91q0 -111 80.5 -188.5t233.5 -77.5q155 0 244 93t92 251h135q-2 -210 -129.5 -337.5t-341.5 -127.5q-215 0 -332 110.5t-117 280.5q0 187 193 338q83 65 124 103.5
t68 89t27 110.5v76h131v-78zM506 881v204h131v-204h-131z" />
    <glyph glyph-name="Agrave" unicode="&#xc0;" horiz-adv-x="1456" 
d="M84 0l524 1454h250l524 -1454h-139l-178 506h-666l-178 -506h-137zM442 627h580l-129 362l-117 338h-88zM455 1802h178l225 -241h-125z" />
    <glyph glyph-name="Aacute" unicode="&#xc1;" horiz-adv-x="1456" 
d="M84 0l524 1454h250l524 -1454h-139l-178 506h-666l-178 -506h-137zM442 627h580l-129 362l-117 338h-88zM614 1561l226 241h178l-279 -241h-125z" />
    <glyph glyph-name="Acircumflex" unicode="&#xc2;" horiz-adv-x="1456" 
d="M84 0l524 1454h250l524 -1454h-139l-178 506h-666l-178 -506h-137zM440 1561l211 241h166l209 -241h-131l-147 153h-29l-148 -153h-131zM442 627h580l-129 362l-117 338h-88z" />
    <glyph glyph-name="Atilde" unicode="&#xc3;" horiz-adv-x="1456" 
d="M84 0l524 1454h250l524 -1454h-139l-178 506h-666l-178 -506h-137zM379 1567q6 99 61.5 166t143.5 67q45 0 91 -21t77 -46.5t68 -46.5t67 -21q48 0 73 30.5t31 100.5h111q-5 -97 -60.5 -165t-142.5 -68q-45 0 -91 21t-77 46.5t-68 46.5t-67 21q-50 0 -74 -30.5
t-30 -100.5h-113zM442 627h580l-129 362l-117 338h-88z" />
    <glyph glyph-name="Adieresis" unicode="&#xc4;" horiz-adv-x="1456" 
d="M84 0l524 1454h250l524 -1454h-139l-178 506h-666l-178 -506h-137zM442 627h580l-129 362l-117 338h-88zM475 1583v197h133v-197h-133zM858 1583v197h133v-197h-133z" />
    <glyph glyph-name="Aring" unicode="&#xc5;" horiz-adv-x="1456" 
d="M84 0l524 1454h250l524 -1454h-139l-178 506h-666l-178 -506h-137zM442 627h580l-129 362l-117 338h-88zM543 1716q0 80 53 132.5t135 52.5t136.5 -53t54.5 -132q0 -82 -55 -133t-136 -51t-134.5 51t-53.5 133zM623 1716q0 -49 31 -78.5t77 -29.5q47 0 79 29t32 79
q0 45 -32 76t-79 31q-46 0 -77 -30t-31 -77z" />
    <glyph glyph-name="AE" unicode="&#xc6;" horiz-adv-x="1964" 
d="M86 0l524 1454h1252v-119h-721v-544h645v-121h-645v-551h731v-119h-866v506h-605l-178 -506h-137zM444 627h562v706h-314l-119 -344z" />
    <glyph glyph-name="Ccedilla" unicode="&#xc7;" horiz-adv-x="1576" 
d="M688 -471v74h166q54 0 82.5 23.5t28.5 64.5v4q0 38 -28.5 61t-82.5 23h-141l-11 14l56 189q-131 10 -248.5 64.5t-209 147t-145 231t-53.5 304.5q0 173 59.5 316.5t159 236t228 143t268.5 50.5q135 0 252.5 -39.5t200.5 -107t137.5 -153.5t75.5 -182h-146
q-18 69 -59 131.5t-104 115t-155.5 83.5t-201.5 31q-91 0 -175.5 -25.5t-157.5 -78t-127.5 -126t-85.5 -175t-31 -220.5t31 -221.5t85.5 -176.5t127.5 -126.5t157.5 -78.5t175.5 -26q109 0 201.5 31t155.5 83.5t104 115t59 131.5h146q-20 -92 -71 -175t-128 -149
t-185.5 -107.5t-234.5 -47.5l-53 -117v-12h70q78 0 131 -41.5t53 -116.5v-4q0 -78 -53 -120t-131 -42h-193z" />
    <glyph glyph-name="Egrave" unicode="&#xc8;" horiz-adv-x="1114" 
d="M154 1360q0 41 26.5 67.5t67.5 26.5h762v-119h-721v-544h645v-121h-645v-551h731v-119h-866v1360zM309 1802h178l226 -241h-125z" />
    <glyph glyph-name="Eacute" unicode="&#xc9;" horiz-adv-x="1114" 
d="M154 1360q0 41 26.5 67.5t67.5 26.5h762v-119h-721v-544h645v-121h-645v-551h731v-119h-866v1360zM469 1561l225 241h178l-278 -241h-125z" />
    <glyph glyph-name="Ecircumflex" unicode="&#xca;" horiz-adv-x="1114" 
d="M154 1360q0 41 26.5 67.5t67.5 26.5h762v-119h-721v-544h645v-121h-645v-551h731v-119h-866v1360zM295 1561l211 241h166l209 -241h-131l-148 153h-29l-147 -153h-131z" />
    <glyph glyph-name="Edieresis" unicode="&#xcb;" horiz-adv-x="1114" 
d="M154 1360q0 41 26.5 67.5t67.5 26.5h762v-119h-721v-544h645v-121h-645v-551h731v-119h-866v1360zM330 1583v197h133v-197h-133zM713 1583v197h133v-197h-133z" />
    <glyph glyph-name="Igrave" unicode="&#xcc;" horiz-adv-x="442" 
d="M154 1454h135v-1454h-135v1454zM-57 1802h178l225 -241h-125z" />
    <glyph glyph-name="Iacute" unicode="&#xcd;" horiz-adv-x="442" 
d="M154 1454h135v-1454h-135v1454zM102 1561l226 241h178l-279 -241h-125z" />
    <glyph glyph-name="Icircumflex" unicode="&#xce;" horiz-adv-x="442" 
d="M154 1454h135v-1454h-135v1454zM-72 1561l211 241h166l209 -241h-131l-147 153h-29l-148 -153h-131z" />
    <glyph glyph-name="Idieresis" unicode="&#xcf;" horiz-adv-x="442" 
d="M154 1454h135v-1454h-135v1454zM-37 1583v197h133v-197h-133zM346 1583v197h133v-197h-133z" />
    <glyph glyph-name="Eth" unicode="&#xd0;" horiz-adv-x="1558" 
d="M264 1360q0 41 26.5 67.5t67.5 26.5h400q206 0 365.5 -92t246 -256.5t86.5 -374.5q0 -216 -88 -382.5t-246.5 -257.5t-363.5 -91h-494v668h-172v120h172v572zM399 119h353q255 0 411 169.5t156 442.5q0 271 -156.5 437.5t-410.5 166.5h-353v-547h406v-120h-406v-549z" />
    <glyph glyph-name="Ntilde" unicode="&#xd1;" horiz-adv-x="1402" 
d="M154 1360q0 41 26.5 67.5t67.5 26.5h174l467 -975l166 -354h63v1329h131v-1454h-266l-469 975l-166 354h-63v-1329h-131v1360zM348 1567q6 99 61.5 166t143.5 67q45 0 91 -21t77 -46.5t68 -46.5t67 -21q48 0 73.5 31t31.5 100h110q-5 -97 -60.5 -165t-142.5 -68
q-45 0 -91 21t-77 46.5t-68 46.5t-67 21q-50 0 -74 -30.5t-30 -100.5h-113z" />
    <glyph glyph-name="Ograve" unicode="&#xd2;" horiz-adv-x="1636" 
d="M817 -20q-112 0 -217 31.5t-195 94.5t-158 151.5t-106.5 209.5t-38.5 260q0 173 59.5 317t159 237t228 143.5t268.5 50.5q141 0 269.5 -50.5t228.5 -143.5t159.5 -236t59.5 -316q0 -174 -59.5 -318t-159.5 -237t-228.5 -143.5t-269.5 -50.5zM240 727q0 -118 31 -219.5
t85.5 -175.5t127.5 -127t157.5 -79t175.5 -26q115 0 218.5 42t184.5 119.5t129 198.5t48 269q0 146 -48 266t-128.5 197.5t-184.5 119.5t-219 42q-114 0 -217.5 -42.5t-184 -120t-128 -198t-47.5 -266.5zM541 1802h178l225 -241h-125z" />
    <glyph glyph-name="Oacute" unicode="&#xd3;" horiz-adv-x="1636" 
d="M817 -20q-112 0 -217 31.5t-195 94.5t-158 151.5t-106.5 209.5t-38.5 260q0 173 59.5 317t159 237t228 143.5t268.5 50.5q141 0 269.5 -50.5t228.5 -143.5t159.5 -236t59.5 -316q0 -174 -59.5 -318t-159.5 -237t-228.5 -143.5t-269.5 -50.5zM240 727q0 -118 31 -219.5
t85.5 -175.5t127.5 -127t157.5 -79t175.5 -26q115 0 218.5 42t184.5 119.5t129 198.5t48 269q0 146 -48 266t-128.5 197.5t-184.5 119.5t-219 42q-114 0 -217.5 -42.5t-184 -120t-128 -198t-47.5 -266.5zM700 1561l226 241h178l-279 -241h-125z" />
    <glyph glyph-name="Ocircumflex" unicode="&#xd4;" horiz-adv-x="1636" 
d="M817 -20q-112 0 -217 31.5t-195 94.5t-158 151.5t-106.5 209.5t-38.5 260q0 173 59.5 317t159 237t228 143.5t268.5 50.5q141 0 269.5 -50.5t228.5 -143.5t159.5 -236t59.5 -316q0 -174 -59.5 -318t-159.5 -237t-228.5 -143.5t-269.5 -50.5zM240 727q0 -118 31 -219.5
t85.5 -175.5t127.5 -127t157.5 -79t175.5 -26q115 0 218.5 42t184.5 119.5t129 198.5t48 269q0 146 -48 266t-128.5 197.5t-184.5 119.5t-219 42q-114 0 -217.5 -42.5t-184 -120t-128 -198t-47.5 -266.5zM524 1561l211 241h166l209 -241h-131l-148 153h-28l-148 -153h-131z
" />
    <glyph glyph-name="Otilde" unicode="&#xd5;" horiz-adv-x="1636" 
d="M817 -20q-112 0 -217 31.5t-195 94.5t-158 151.5t-106.5 209.5t-38.5 260q0 173 59.5 317t159 237t228 143.5t268.5 50.5q141 0 269.5 -50.5t228.5 -143.5t159.5 -236t59.5 -316q0 -174 -59.5 -318t-159.5 -237t-228.5 -143.5t-269.5 -50.5zM240 727q0 -118 31 -219.5
t85.5 -175.5t127.5 -127t157.5 -79t175.5 -26q115 0 218.5 42t184.5 119.5t129 198.5t48 269q0 146 -48 266t-128.5 197.5t-184.5 119.5t-219 42q-114 0 -217.5 -42.5t-184 -120t-128 -198t-47.5 -266.5zM463 1567q6 99 61.5 166t143.5 67q45 0 91 -21t77 -46.5t68 -46.5
t67 -21q48 0 73 30.5t31 100.5h111q-5 -97 -60.5 -165t-142.5 -68q-45 0 -91 21t-77 46.5t-68 46.5t-67 21q-50 0 -74.5 -30.5t-30.5 -100.5h-112z" />
    <glyph glyph-name="Odieresis" unicode="&#xd6;" horiz-adv-x="1636" 
d="M817 -20q-112 0 -217 31.5t-195 94.5t-158 151.5t-106.5 209.5t-38.5 260q0 173 59.5 317t159 237t228 143.5t268.5 50.5q141 0 269.5 -50.5t228.5 -143.5t159.5 -236t59.5 -316q0 -174 -59.5 -318t-159.5 -237t-228.5 -143.5t-269.5 -50.5zM240 727q0 -118 31 -219.5
t85.5 -175.5t127.5 -127t157.5 -79t175.5 -26q115 0 218.5 42t184.5 119.5t129 198.5t48 269q0 146 -48 266t-128.5 197.5t-184.5 119.5t-219 42q-114 0 -217.5 -42.5t-184 -120t-128 -198t-47.5 -266.5zM561 1583v197h133v-197h-133zM944 1583v197h133v-197h-133z" />
    <glyph glyph-name="multiply" unicode="&#xd7;" horiz-adv-x="1069" 
d="M176 283l-86 84l361 360l-361 360l86 84l359 -360l360 360l84 -86l-358 -358l356 -358l-84 -86l-358 358z" />
    <glyph glyph-name="Oslash" unicode="&#xd8;" horiz-adv-x="1636" 
d="M817 -20q-223 0 -395 114l-133 -176h-142l185 248q-108 99 -169 241.5t-61 319.5q0 173 59.5 317t159 237t228 143.5t268.5 50.5q220 0 397 -115l132 176h141l-182 -246q108 -99 168.5 -241t60.5 -320q0 -174 -59.5 -318t-159.5 -237t-228.5 -143.5t-269.5 -50.5z
M240 727q0 -282 168 -457l733 987q-145 97 -324 97q-114 0 -217.5 -42.5t-184 -120t-128 -198t-47.5 -266.5zM496 197q145 -97 321 -97q115 0 218.5 42t184.5 119.5t129 198.5t48 269q0 280 -168 455z" />
    <glyph glyph-name="Ugrave" unicode="&#xd9;" horiz-adv-x="1384" 
d="M694 -20q-123 0 -221 36t-157 91.5t-98 128t-53.5 139t-14.5 131.5v948h135v-936q0 -186 110 -301t299 -115q188 0 298 115t110 301v936h133v-948q0 -65 -14.5 -131.5t-53 -139t-97.5 -128t-156 -91.5t-220 -36zM416 1802h178l225 -241h-125z" />
    <glyph glyph-name="Uacute" unicode="&#xda;" horiz-adv-x="1384" 
d="M694 -20q-123 0 -221 36t-157 91.5t-98 128t-53.5 139t-14.5 131.5v948h135v-936q0 -186 110 -301t299 -115q188 0 298 115t110 301v936h133v-948q0 -65 -14.5 -131.5t-53 -139t-97.5 -128t-156 -91.5t-220 -36zM575 1561l226 241h178l-279 -241h-125z" />
    <glyph glyph-name="Ucircumflex" unicode="&#xdb;" horiz-adv-x="1384" 
d="M694 -20q-123 0 -221 36t-157 91.5t-98 128t-53.5 139t-14.5 131.5v948h135v-936q0 -186 110 -301t299 -115q188 0 298 115t110 301v936h133v-948q0 -65 -14.5 -131.5t-53 -139t-97.5 -128t-156 -91.5t-220 -36zM399 1561l211 241h166l209 -241h-131l-147 153h-29
l-148 -153h-131z" />
    <glyph glyph-name="Udieresis" unicode="&#xdc;" horiz-adv-x="1384" 
d="M694 -20q-123 0 -221 36t-157 91.5t-98 128t-53.5 139t-14.5 131.5v948h135v-936q0 -186 110 -301t299 -115q188 0 298 115t110 301v936h133v-948q0 -65 -14.5 -131.5t-53 -139t-97.5 -128t-156 -91.5t-220 -36zM434 1583v197h133v-197h-133zM817 1583v197h133v-197h-133
z" />
    <glyph glyph-name="Yacute" unicode="&#xdd;" horiz-adv-x="1255" 
d="M559 600l-475 846v8h145l392 -721h12l147 273l248 448h146v-8l-482 -846v-600h-133v600zM512 1561l225 241h178l-278 -241h-125z" />
    <glyph glyph-name="Thorn" unicode="&#xde;" horiz-adv-x="1202" 
d="M154 0v1454h135v-315h379q195 0 316.5 -110.5t121.5 -297.5q0 -195 -120 -305.5t-314 -110.5h-383v-315h-135zM289 436h391q132 0 210.5 80t78.5 215q0 133 -83 211t-218 78h-379v-584z" />
    <glyph glyph-name="germandbls" unicode="&#xdf;" horiz-adv-x="1216" 
d="M152 991q0 232 117.5 358t338.5 126q192 0 313 -103t121 -266q0 -109 -59 -197t-149 -116q122 -30 202 -127.5t80 -245.5q0 -187 -122.5 -303.5t-313.5 -116.5h-238v119h226q141 0 227 84.5t86 216.5q0 129 -78.5 212t-220.5 83h-240v119h174q138 0 216.5 77t78.5 195
q0 121 -86 188.5t-217 67.5q-157 0 -241 -88.5t-84 -261.5v-1012h-131v991z" />
    <glyph glyph-name="agrave" unicode="&#xe0;" horiz-adv-x="1146" 
d="M485 0q-175 0 -279 75.5t-104 225.5q0 80 28.5 137t86.5 92t130.5 54t176.5 30l357 37v86q0 129 -78 192.5t-215 63.5q-135 0 -215 -60.5t-92 -174.5h-136q7 161 132 254.5t315 93.5q191 0 304.5 -95t113.5 -274v-643q0 -41 -26 -67.5t-66 -26.5h-433zM238 305
q0 -186 251 -186h392v424l-328 -35q-165 -18 -240 -62t-75 -141zM324 1454h178l227 -254h-125z" />
    <glyph glyph-name="aacute" unicode="&#xe1;" horiz-adv-x="1146" 
d="M485 0q-175 0 -279 75.5t-104 225.5q0 80 28.5 137t86.5 92t130.5 54t176.5 30l357 37v86q0 129 -78 192.5t-215 63.5q-135 0 -215 -60.5t-92 -174.5h-136q7 161 132 254.5t315 93.5q191 0 304.5 -95t113.5 -274v-643q0 -41 -26 -67.5t-66 -26.5h-433zM238 305
q0 -186 251 -186h392v424l-328 -35q-165 -18 -240 -62t-75 -141zM487 1200l226 254h180l-281 -254h-125z" />
    <glyph glyph-name="acircumflex" unicode="&#xe2;" horiz-adv-x="1146" 
d="M485 0q-175 0 -279 75.5t-104 225.5q0 80 28.5 137t86.5 92t130.5 54t176.5 30l357 37v86q0 129 -78 192.5t-215 63.5q-135 0 -215 -60.5t-92 -174.5h-136q7 161 132 254.5t315 93.5q191 0 304.5 -95t113.5 -274v-643q0 -41 -26 -67.5t-66 -26.5h-433zM238 305
q0 -186 251 -186h392v424l-328 -35q-165 -18 -240 -62t-75 -141zM299 1200l211 254h166l209 -254h-131l-148 166h-28l-148 -166h-131z" />
    <glyph glyph-name="atilde" unicode="&#xe3;" horiz-adv-x="1146" 
d="M485 0q-175 0 -279 75.5t-104 225.5q0 80 28.5 137t86.5 92t130.5 54t176.5 30l357 37v86q0 129 -78 192.5t-215 63.5q-135 0 -215 -60.5t-92 -174.5h-136q7 161 132 254.5t315 93.5q191 0 304.5 -95t113.5 -274v-643q0 -41 -26 -67.5t-66 -26.5h-433zM238 305
q0 -186 251 -186h392v424l-328 -35q-165 -18 -240 -62t-75 -141zM238 1208q6 99 61 166.5t143 67.5q45 0 91 -21t77 -46.5t68 -46.5t67 -21q48 0 73.5 31t31.5 100h111q-5 -97 -61 -165.5t-142 -68.5q-45 0 -91 21t-77 46.5t-68 46.5t-67 21q-50 0 -74.5 -30.5t-30.5 -100.5
h-112z" />
    <glyph glyph-name="adieresis" unicode="&#xe4;" horiz-adv-x="1146" 
d="M485 0q-175 0 -279 75.5t-104 225.5q0 80 28.5 137t86.5 92t130.5 54t176.5 30l357 37v86q0 129 -78 192.5t-215 63.5q-135 0 -215 -60.5t-92 -174.5h-136q7 161 132 254.5t315 93.5q191 0 304.5 -95t113.5 -274v-643q0 -41 -26 -67.5t-66 -26.5h-433zM238 305
q0 -186 251 -186h392v424l-328 -35q-165 -18 -240 -62t-75 -141zM334 1229v196h131v-196h-131zM717 1229v196h133v-196h-133z" />
    <glyph glyph-name="aring" unicode="&#xe5;" horiz-adv-x="1146" 
d="M485 0q-175 0 -279 75.5t-104 225.5q0 80 28.5 137t86.5 92t130.5 54t176.5 30l357 37v86q0 129 -78 192.5t-215 63.5q-135 0 -215 -60.5t-92 -174.5h-136q7 161 132 254.5t315 93.5q191 0 304.5 -95t113.5 -274v-643q0 -41 -26 -67.5t-66 -26.5h-433zM238 305
q0 -186 251 -186h392v424l-328 -35q-165 -18 -240 -62t-75 -141zM401 1366q0 78 54 131t135 53t135.5 -53t54.5 -131q0 -82 -54.5 -133t-135.5 -51t-135 51t-54 133zM481 1366q0 -49 31.5 -79t77.5 -30q47 0 78.5 29.5t31.5 79.5q0 45 -31.5 76t-78.5 31q-46 0 -77.5 -30
t-31.5 -77z" />
    <glyph glyph-name="ae" unicode="&#xe6;" horiz-adv-x="2033" 
d="M485 0q-175 0 -279 75.5t-104 225.5q0 80 28.5 137t86.5 92t130.5 54t176.5 30l357 37v86q0 129 -78 192.5t-215 63.5q-135 0 -215 -60.5t-92 -174.5h-136q7 161 132 254.5t315 93.5q144 0 246.5 -55t144.5 -162q70 103 179.5 160t244.5 57q237 0 385.5 -166t138.5 -432
h-915q9 -178 117 -297t274 -119q123 0 214 65.5t134 174.5h143q-50 -161 -181.5 -256.5t-309.5 -95.5q-123 0 -225 47t-172 133v-66q0 -41 -26 -67.5t-66 -26.5h-433zM238 305q0 -186 251 -186h392v424l-328 -35q-165 -18 -240 -62t-75 -141zM1020 621h778
q-22 164 -128.5 268t-262.5 104q-158 0 -262 -104t-125 -268z" />
    <glyph glyph-name="ccedilla" unicode="&#xe7;" horiz-adv-x="1220" 
d="M506 -471v74h166q54 0 82 23.5t28 64.5v4q0 38 -28 61t-82 23h-142l-10 14l55 191q-203 21 -334.5 171t-131.5 388q0 128 41.5 235t113.5 178t168 110.5t205 39.5q100 0 186 -30t145 -81.5t98.5 -111t59.5 -125.5h-143q-14 39 -41 77.5t-68.5 75.5t-103.5 59.5t-133 22.5
q-167 0 -280 -122.5t-113 -327.5t113 -328t280 -123q71 0 133 23t103.5 60t68.5 75.5t41 77.5h143q-41 -134 -155 -233.5t-289 -112.5l-53 -117v-12h69q78 0 131.5 -41.5t53.5 -116.5v-4q0 -78 -53.5 -120t-131.5 -42h-192z" />
    <glyph glyph-name="egrave" unicode="&#xe8;" horiz-adv-x="1259" 
d="M633 -20q-231 0 -377.5 157.5t-146.5 405.5q0 246 147 404.5t377 158.5q237 0 385.5 -166t138.5 -432h-915q9 -178 117 -297t274 -119q123 0 214 65.5t134 174.5h143q-50 -161 -181.5 -256.5t-309.5 -95.5zM246 621h778q-22 164 -128.5 268t-262.5 104q-158 0 -262 -104
t-125 -268zM365 1454h178l227 -254h-125z" />
    <glyph glyph-name="eacute" unicode="&#xe9;" horiz-adv-x="1259" 
d="M633 -20q-231 0 -377.5 157.5t-146.5 405.5q0 246 147 404.5t377 158.5q237 0 385.5 -166t138.5 -432h-915q9 -178 117 -297t274 -119q123 0 214 65.5t134 174.5h143q-50 -161 -181.5 -256.5t-309.5 -95.5zM246 621h778q-22 164 -128.5 268t-262.5 104q-158 0 -262 -104
t-125 -268zM528 1200l226 254h180l-281 -254h-125z" />
    <glyph glyph-name="ecircumflex" unicode="&#xea;" horiz-adv-x="1259" 
d="M633 -20q-231 0 -377.5 157.5t-146.5 405.5q0 246 147 404.5t377 158.5q237 0 385.5 -166t138.5 -432h-915q9 -178 117 -297t274 -119q123 0 214 65.5t134 174.5h143q-50 -161 -181.5 -256.5t-309.5 -95.5zM246 621h778q-22 164 -128.5 268t-262.5 104q-158 0 -262 -104
t-125 -268zM340 1200l211 254h166l209 -254h-131l-148 166h-29l-147 -166h-131z" />
    <glyph glyph-name="edieresis" unicode="&#xeb;" horiz-adv-x="1259" 
d="M633 -20q-231 0 -377.5 157.5t-146.5 405.5q0 246 147 404.5t377 158.5q237 0 385.5 -166t138.5 -432h-915q9 -178 117 -297t274 -119q123 0 214 65.5t134 174.5h143q-50 -161 -181.5 -256.5t-309.5 -95.5zM246 621h778q-22 164 -128.5 268t-262.5 104q-158 0 -262 -104
t-125 -268zM375 1229v196h131v-196h-131zM758 1229v196h133v-196h-133z" />
    <glyph glyph-name="igrave" unicode="&#xec;" horiz-adv-x="434" 
d="M152 0v1085h131v-1085h-131zM-49 1454h178l227 -254h-125z" />
    <glyph glyph-name="iacute" unicode="&#xed;" horiz-adv-x="434" 
d="M152 0v1085h131v-1085h-131zM113 1200l225 254h180l-280 -254h-125z" />
    <glyph glyph-name="icircumflex" unicode="&#xee;" horiz-adv-x="434" 
d="M152 0v1085h131v-1085h-131zM-74 1200l211 254h166l209 -254h-131l-148 166h-28l-148 -166h-131z" />
    <glyph glyph-name="idieresis" unicode="&#xef;" horiz-adv-x="434" 
d="M152 0v1085h131v-1085h-131zM-39 1229v196h131v-196h-131zM344 1229v196h133v-196h-133z" />
    <glyph glyph-name="eth" unicode="&#xf0;" horiz-adv-x="1275" 
d="M637 -20q-229 0 -377.5 157t-148.5 406q0 247 145 405t367 158q104 0 187.5 -38t154.5 -126q-71 150 -193 285l-504 -70v94l418 56q-103 87 -213 143v4h176q92 -61 166 -129l244 33v-92l-162 -23q264 -296 264 -688q0 -251 -146.5 -413t-377.5 -162zM246 543
q0 -194 111 -322.5t282 -128.5q173 0 283 128t110 323t-109 322.5t-284 127.5q-172 0 -282.5 -128t-110.5 -322z" />
    <glyph glyph-name="ntilde" unicode="&#xf1;" horiz-adv-x="1183" 
d="M150 991q0 42 27 68t69 26h393q186 0 297 -111.5t111 -320.5v-653h-132v641q0 165 -77 245.5t-222 80.5h-333v-967h-133v991zM219 1208q6 99 61.5 166.5t143.5 67.5q45 0 91 -21t77 -46.5t68 -46.5t67 -21q48 0 73 30.5t31 100.5h111q-5 -97 -61 -165.5t-142 -68.5
q-45 0 -91 21t-77 46.5t-68 46.5t-67 21q-50 0 -74 -30.5t-30 -100.5h-113z" />
    <glyph glyph-name="ograve" unicode="&#xf2;" horiz-adv-x="1273" 
d="M637 -20q-109 0 -205 39.5t-168 110.5t-113.5 178t-41.5 235t41.5 235t113.5 178t168 110.5t205 39.5t205 -39.5t168 -110.5t113.5 -178t41.5 -235t-41.5 -235t-113.5 -178t-168 -110.5t-205 -39.5zM244 543q0 -205 113 -328t280 -123t280 123t113 328t-113 327.5
t-280 122.5t-280 -122.5t-113 -327.5zM369 1454h178l227 -254h-125z" />
    <glyph glyph-name="oacute" unicode="&#xf3;" horiz-adv-x="1273" 
d="M637 -20q-109 0 -205 39.5t-168 110.5t-113.5 178t-41.5 235t41.5 235t113.5 178t168 110.5t205 39.5t205 -39.5t168 -110.5t113.5 -178t41.5 -235t-41.5 -235t-113.5 -178t-168 -110.5t-205 -39.5zM244 543q0 -205 113 -328t280 -123t280 123t113 328t-113 327.5
t-280 122.5t-280 -122.5t-113 -327.5zM532 1200l226 254h180l-281 -254h-125z" />
    <glyph glyph-name="ocircumflex" unicode="&#xf4;" horiz-adv-x="1273" 
d="M637 -20q-109 0 -205 39.5t-168 110.5t-113.5 178t-41.5 235t41.5 235t113.5 178t168 110.5t205 39.5t205 -39.5t168 -110.5t113.5 -178t41.5 -235t-41.5 -235t-113.5 -178t-168 -110.5t-205 -39.5zM244 543q0 -205 113 -328t280 -123t280 123t113 328t-113 327.5
t-280 122.5t-280 -122.5t-113 -327.5zM344 1200l211 254h166l209 -254h-131l-148 166h-28l-148 -166h-131z" />
    <glyph glyph-name="otilde" unicode="&#xf5;" horiz-adv-x="1273" 
d="M637 -20q-109 0 -205 39.5t-168 110.5t-113.5 178t-41.5 235t41.5 235t113.5 178t168 110.5t205 39.5t205 -39.5t168 -110.5t113.5 -178t41.5 -235t-41.5 -235t-113.5 -178t-168 -110.5t-205 -39.5zM244 543q0 -205 113 -328t280 -123t280 123t113 328t-113 327.5
t-280 122.5t-280 -122.5t-113 -327.5zM283 1208q6 99 61 166.5t143 67.5q45 0 91 -21t77 -46.5t68.5 -46.5t67.5 -21q48 0 73 30.5t31 100.5h111q-5 -97 -61 -165.5t-142 -68.5q-45 0 -91 21t-77 46.5t-68 46.5t-67 21q-50 0 -74.5 -30.5t-30.5 -100.5h-112z" />
    <glyph glyph-name="odieresis" unicode="&#xf6;" horiz-adv-x="1273" 
d="M637 -20q-109 0 -205 39.5t-168 110.5t-113.5 178t-41.5 235t41.5 235t113.5 178t168 110.5t205 39.5t205 -39.5t168 -110.5t113.5 -178t41.5 -235t-41.5 -235t-113.5 -178t-168 -110.5t-205 -39.5zM244 543q0 -205 113 -328t280 -123t280 123t113 328t-113 327.5
t-280 122.5t-280 -122.5t-113 -327.5zM379 1229v196h131v-196h-131zM762 1229v196h133v-196h-133z" />
    <glyph glyph-name="divide" unicode="&#xf7;" horiz-adv-x="1189" 
d="M94 668v120h1004v-120h-1004zM532 303v189h127v-189h-127zM532 965v188h127v-188h-127z" />
    <glyph glyph-name="oslash" unicode="&#xf8;" horiz-adv-x="1273" 
d="M637 -20q-157 0 -287 79l-106 -141h-140l158 213q-153 160 -153 412q0 128 41.5 235t113.5 178t168 110.5t205 39.5q155 0 287 -80l104 141h139l-155 -213q153 -156 153 -411q0 -128 -41.5 -235t-113.5 -178t-168 -110.5t-205 -39.5zM244 543q0 -184 94 -305l514 690
q-92 65 -215 65q-167 0 -280 -122.5t-113 -327.5zM422 158q94 -66 215 -66q167 0 280 123t113 328q0 183 -96 307z" />
    <glyph glyph-name="ugrave" unicode="&#xf9;" horiz-adv-x="1161" 
d="M545 0q-187 0 -297.5 111t-110.5 321v653h131v-641q0 -165 77 -245t222 -80h312v966h131v-991q0 -42 -26.5 -68t-68.5 -26h-370zM303 1454h178l228 -254h-125z" />
    <glyph glyph-name="uacute" unicode="&#xfa;" horiz-adv-x="1161" 
d="M545 0q-187 0 -297.5 111t-110.5 321v653h131v-641q0 -165 77 -245t222 -80h312v966h131v-991q0 -42 -26.5 -68t-68.5 -26h-370zM467 1200l225 254h180l-280 -254h-125z" />
    <glyph glyph-name="ucircumflex" unicode="&#xfb;" horiz-adv-x="1161" 
d="M545 0q-187 0 -297.5 111t-110.5 321v653h131v-641q0 -165 77 -245t222 -80h312v966h131v-991q0 -42 -26.5 -68t-68.5 -26h-370zM279 1200l210 254h166l209 -254h-131l-147 166h-29l-147 -166h-131z" />
    <glyph glyph-name="udieresis" unicode="&#xfc;" horiz-adv-x="1161" 
d="M545 0q-187 0 -297.5 111t-110.5 321v653h131v-641q0 -165 77 -245t222 -80h312v966h131v-991q0 -42 -26.5 -68t-68.5 -26h-370zM313 1229v196h131v-196h-131zM696 1229v196h133v-196h-133z" />
    <glyph glyph-name="yacute" unicode="&#xfd;" horiz-adv-x="1196" 
d="M205 -369v119h289l86 250h-91l-401 1069v16h133l240 -657l114 -309h46l114 309l240 657h133v-16l-508 -1350q-35 -88 -125 -88h-270zM494 1200l225 254h180l-281 -254h-124z" />
    <glyph glyph-name="thorn" unicode="&#xfe;" horiz-adv-x="1236" 
d="M150 -369v1823h133v-369h338q222 0 365.5 -148.5t143.5 -393.5q0 -247 -144 -395t-365 -148h-338v-369h-133zM283 119h317q186 0 290.5 113t104.5 311q0 196 -104 310t-291 114h-317v-848z" />
    <glyph glyph-name="ydieresis" unicode="&#xff;" horiz-adv-x="1196" 
d="M205 -369v119h289l86 250h-91l-401 1069v16h133l240 -657l114 -309h46l114 309l240 657h133v-16l-508 -1350q-35 -88 -125 -88h-270zM340 1229v196h131v-196h-131zM723 1229v196h133v-196h-133z" />
    <glyph glyph-name="Amacron" unicode="&#x100;" horiz-adv-x="1456" 
d="M84 0l524 1454h250l524 -1454h-139l-178 506h-666l-178 -506h-137zM436 1622v107h594v-107h-594zM442 627h580l-129 362l-117 338h-88z" />
    <glyph glyph-name="amacron" unicode="&#x101;" horiz-adv-x="1146" 
d="M485 0q-175 0 -279 75.5t-104 225.5q0 80 28.5 137t86.5 92t130.5 54t176.5 30l357 37v86q0 129 -78 192.5t-215 63.5q-135 0 -215 -60.5t-92 -174.5h-136q7 161 132 254.5t315 93.5q191 0 304.5 -95t113.5 -274v-643q0 -41 -26 -67.5t-66 -26.5h-433zM238 305
q0 -186 251 -186h392v424l-328 -35q-165 -18 -240 -62t-75 -141zM295 1274v106h594v-106h-594z" />
    <glyph glyph-name="Abreve" unicode="&#x102;" horiz-adv-x="1456" 
d="M84 0l524 1454h250l524 -1454h-139l-178 506h-666l-178 -506h-137zM442 627h580l-129 362l-117 338h-88zM555 1802q19 -153 178 -153q160 0 180 153h113q-10 -129 -88.5 -189.5t-204.5 -60.5q-127 0 -204.5 61t-86.5 189h113z" />
    <glyph glyph-name="abreve" unicode="&#x103;" horiz-adv-x="1146" 
d="M485 0q-175 0 -279 75.5t-104 225.5q0 80 28.5 137t86.5 92t130.5 54t176.5 30l357 37v86q0 129 -78 192.5t-215 63.5q-135 0 -215 -60.5t-92 -174.5h-136q7 161 132 254.5t315 93.5q191 0 304.5 -95t113.5 -274v-643q0 -41 -26 -67.5t-66 -26.5h-433zM238 305
q0 -186 251 -186h392v424l-328 -35q-165 -18 -240 -62t-75 -141zM414 1454q10 -82 57.5 -124t120.5 -42q76 0 122.5 43t57.5 123h113q-10 -130 -89.5 -196t-203.5 -66q-125 0 -203.5 66.5t-87.5 195.5h113z" />
    <glyph glyph-name="Aogonek" unicode="&#x104;" horiz-adv-x="1456" 
d="M84 0l524 1454h250l524 -1454h-2q-174 -80 -174 -170q0 -80 117 -80h57v-119h-71q-111 0 -165 46t-54 114q0 138 149 221l-174 494h-666l-178 -506h-137zM442 627h580l-129 362l-117 338h-88z" />
    <glyph glyph-name="aogonek" unicode="&#x105;" horiz-adv-x="1146" 
d="M936 -369q-109 0 -163 46t-54 114q0 121 125 209h-359q-175 0 -279 75.5t-104 225.5q0 80 28.5 137t86.5 92t130.5 54t176.5 30l357 37v86q0 129 -78 192.5t-215 63.5q-135 0 -215 -60.5t-92 -174.5h-136q7 161 132 254.5t315 93.5q191 0 304.5 -95t113.5 -274v-643
q0 -30 -18 -55t-44 -45t-52 -41t-44 -52.5t-18 -70.5q0 -80 116 -80h60v-119h-74zM238 305q0 -184 251 -184h392v422l-328 -35q-165 -18 -240 -62t-75 -141z" />
    <glyph glyph-name="Cacute" unicode="&#x106;" horiz-adv-x="1576" 
d="M817 -20q-141 0 -268.5 50t-227.5 142.5t-159.5 237t-59.5 319.5q0 173 59.5 316.5t159 236t228 143t268.5 50.5q135 0 252.5 -39.5t200.5 -107t137.5 -153.5t75.5 -182h-146q-18 69 -59 131.5t-104 115t-155.5 83.5t-201.5 31q-91 0 -175.5 -25.5t-157.5 -78
t-127.5 -126t-85.5 -175t-31 -220.5t31 -221.5t85.5 -176.5t127.5 -126.5t157.5 -78.5t175.5 -26q109 0 201.5 31t155.5 83.5t104 115t59 131.5h146q-21 -96 -75.5 -181.5t-137.5 -153t-200.5 -107t-252.5 -39.5zM700 1561l226 241h178l-279 -241h-125z" />
    <glyph glyph-name="cacute" unicode="&#x107;" horiz-adv-x="1220" 
d="M637 -20q-109 0 -205 39.5t-168 110.5t-113.5 178t-41.5 235t41.5 235t113.5 178t168 110.5t205 39.5q100 0 186 -30t145 -81.5t98.5 -111t59.5 -125.5h-143q-14 39 -41 77.5t-68.5 75.5t-103.5 59.5t-133 22.5q-167 0 -280 -122.5t-113 -327.5t113 -328t280 -123
q71 0 133 23t103.5 60t68.5 75.5t41 77.5h143q-20 -66 -59.5 -125.5t-98.5 -111t-145 -81.5t-186 -30zM532 1200l226 254h180l-281 -254h-125z" />
    <glyph glyph-name="Ccircumflex" unicode="&#x108;" horiz-adv-x="1576" 
d="M817 -20q-141 0 -268.5 50t-227.5 142.5t-159.5 237t-59.5 319.5q0 173 59.5 316.5t159 236t228 143t268.5 50.5q135 0 252.5 -39.5t200.5 -107t137.5 -153.5t75.5 -182h-146q-18 69 -59 131.5t-104 115t-155.5 83.5t-201.5 31q-91 0 -175.5 -25.5t-157.5 -78
t-127.5 -126t-85.5 -175t-31 -220.5t31 -221.5t85.5 -176.5t127.5 -126.5t157.5 -78.5t175.5 -26q109 0 201.5 31t155.5 83.5t104 115t59 131.5h146q-21 -96 -75.5 -181.5t-137.5 -153t-200.5 -107t-252.5 -39.5zM524 1561l211 241h166l209 -241h-131l-148 153h-28
l-148 -153h-131z" />
    <glyph glyph-name="ccircumflex" unicode="&#x109;" horiz-adv-x="1220" 
d="M637 -20q-109 0 -205 39.5t-168 110.5t-113.5 178t-41.5 235t41.5 235t113.5 178t168 110.5t205 39.5q100 0 186 -30t145 -81.5t98.5 -111t59.5 -125.5h-143q-14 39 -41 77.5t-68.5 75.5t-103.5 59.5t-133 22.5q-167 0 -280 -122.5t-113 -327.5t113 -328t280 -123
q71 0 133 23t103.5 60t68.5 75.5t41 77.5h143q-20 -66 -59.5 -125.5t-98.5 -111t-145 -81.5t-186 -30zM344 1200l211 254h166l209 -254h-131l-148 166h-28l-148 -166h-131z" />
    <glyph glyph-name="Cdotaccent" unicode="&#x10a;" horiz-adv-x="1576" 
d="M817 -20q-141 0 -268.5 50t-227.5 142.5t-159.5 237t-59.5 319.5q0 173 59.5 316.5t159 236t228 143t268.5 50.5q135 0 252.5 -39.5t200.5 -107t137.5 -153.5t75.5 -182h-146q-18 69 -59 131.5t-104 115t-155.5 83.5t-201.5 31q-91 0 -175.5 -25.5t-157.5 -78
t-127.5 -126t-85.5 -175t-31 -220.5t31 -221.5t85.5 -176.5t127.5 -126.5t157.5 -78.5t175.5 -26q109 0 201.5 31t155.5 83.5t104 115t59 131.5h146q-21 -96 -75.5 -181.5t-137.5 -153t-200.5 -107t-252.5 -39.5zM748 1579v207h145v-207h-145z" />
    <glyph glyph-name="cdotaccent" unicode="&#x10b;" horiz-adv-x="1220" 
d="M637 -20q-109 0 -205 39.5t-168 110.5t-113.5 178t-41.5 235t41.5 235t113.5 178t168 110.5t205 39.5q100 0 186 -30t145 -81.5t98.5 -111t59.5 -125.5h-143q-14 39 -41 77.5t-68.5 75.5t-103.5 59.5t-133 22.5q-167 0 -280 -122.5t-113 -327.5t113 -328t280 -123
q71 0 133 23t103.5 60t68.5 75.5t41 77.5h143q-20 -66 -59.5 -125.5t-98.5 -111t-145 -81.5t-186 -30zM569 1239v215h131v-215h-131z" />
    <glyph glyph-name="Ccaron" unicode="&#x10c;" horiz-adv-x="1576" 
d="M817 -20q-141 0 -268.5 50t-227.5 142.5t-159.5 237t-59.5 319.5q0 173 59.5 316.5t159 236t228 143t268.5 50.5q135 0 252.5 -39.5t200.5 -107t137.5 -153.5t75.5 -182h-146q-18 69 -59 131.5t-104 115t-155.5 83.5t-201.5 31q-91 0 -175.5 -25.5t-157.5 -78
t-127.5 -126t-85.5 -175t-31 -220.5t31 -221.5t85.5 -176.5t127.5 -126.5t157.5 -78.5t175.5 -26q109 0 201.5 31t155.5 83.5t104 115t59 131.5h146q-21 -96 -75.5 -181.5t-137.5 -153t-200.5 -107t-252.5 -39.5zM524 1802h131l148 -153h28l148 153h131l-209 -241h-166z" />
    <glyph glyph-name="ccaron" unicode="&#x10d;" horiz-adv-x="1220" 
d="M637 -20q-109 0 -205 39.5t-168 110.5t-113.5 178t-41.5 235t41.5 235t113.5 178t168 110.5t205 39.5q100 0 186 -30t145 -81.5t98.5 -111t59.5 -125.5h-143q-14 39 -41 77.5t-68.5 75.5t-103.5 59.5t-133 22.5q-167 0 -280 -122.5t-113 -327.5t113 -328t280 -123
q71 0 133 23t103.5 60t68.5 75.5t41 77.5h143q-20 -66 -59.5 -125.5t-98.5 -111t-145 -81.5t-186 -30zM344 1454h131l148 -166h28l148 166h131l-209 -254h-166z" />
    <glyph glyph-name="Dcaron" unicode="&#x10e;" horiz-adv-x="1447" 
d="M154 1360q0 41 26.5 67.5t67.5 26.5h399q206 0 365.5 -92t246.5 -256.5t87 -374.5q0 -216 -88 -382.5t-247 -257.5t-364 -91h-493v1360zM289 119h352q255 0 411 169.5t156 442.5q0 271 -156.5 437.5t-410.5 166.5h-352v-1216zM322 1802h131l147 -153h29l147 153h131
l-209 -241h-166z" />
    <glyph glyph-name="dcaron" unicode="&#x10f;" horiz-adv-x="1236" 
d="M629 0q-230 0 -376.5 147.5t-146.5 395.5q0 245 146.5 393.5t376.5 148.5h327v369h131v-1360q0 -41 -26.5 -67.5t-67.5 -26.5h-364zM242 543q0 -197 105 -310.5t290 -113.5h319v848h-319q-186 0 -290.5 -114.5t-104.5 -309.5zM1200 1139l29 315h145l-76 -315h-98z" />
    <glyph glyph-name="Dcroat" unicode="&#x110;" horiz-adv-x="1558" 
d="M264 1360q0 41 26.5 67.5t67.5 26.5h400q206 0 365.5 -92t246 -256.5t86.5 -374.5q0 -216 -88 -382.5t-246.5 -257.5t-363.5 -91h-494v668h-172v120h172v572zM399 119h353q255 0 411 169.5t156 442.5q0 271 -156.5 437.5t-410.5 166.5h-353v-547h406v-120h-406v-549z" />
    <glyph glyph-name="dcroat" unicode="&#x111;" horiz-adv-x="1236" 
d="M629 0q-230 0 -376.5 147.5t-146.5 395.5q0 245 146.5 393.5t376.5 148.5h327v111h-288v107h288v151h131v-151h173v-107h-173v-1102q0 -41 -26.5 -67.5t-67.5 -26.5h-364zM242 543q0 -197 105 -310.5t290 -113.5h319v848h-319q-186 0 -290.5 -114.5t-104.5 -309.5z" />
    <glyph glyph-name="Emacron" unicode="&#x112;" horiz-adv-x="1114" 
d="M154 1360q0 41 26.5 67.5t67.5 26.5h762v-119h-721v-544h645v-121h-645v-551h731v-119h-866v1360zM270 1628v109h635v-109h-635z" />
    <glyph glyph-name="emacron" unicode="&#x113;" horiz-adv-x="1259" 
d="M633 -20q-231 0 -377.5 157.5t-146.5 405.5q0 246 147 404.5t377 158.5q237 0 385.5 -166t138.5 -432h-915q9 -178 117 -297t274 -119q123 0 214 65.5t134 174.5h143q-50 -161 -181.5 -256.5t-309.5 -95.5zM246 621h778q-22 164 -128.5 268t-262.5 104q-158 0 -262 -104
t-125 -268zM336 1274v106h594v-106h-594z" />
    <glyph glyph-name="Ebreve" unicode="&#x114;" horiz-adv-x="1114" 
d="M154 1360q0 41 26.5 67.5t67.5 26.5h762v-119h-721v-544h645v-121h-645v-551h731v-119h-866v1360zM410 1802q19 -153 178 -153q160 0 180 153h113q-10 -129 -88.5 -189.5t-204.5 -60.5q-127 0 -204.5 61t-86.5 189h113z" />
    <glyph glyph-name="ebreve" unicode="&#x115;" horiz-adv-x="1259" 
d="M633 -20q-231 0 -377.5 157.5t-146.5 405.5q0 246 147 404.5t377 158.5q237 0 385.5 -166t138.5 -432h-915q9 -178 117 -297t274 -119q123 0 214 65.5t134 174.5h143q-50 -161 -181.5 -256.5t-309.5 -95.5zM246 621h778q-22 164 -128.5 268t-262.5 104q-158 0 -262 -104
t-125 -268zM455 1454q10 -82 57.5 -124t120.5 -42q76 0 122.5 43t57.5 123h113q-10 -130 -89.5 -196t-203.5 -66q-125 0 -203.5 66.5t-87.5 195.5h113z" />
    <glyph glyph-name="Edotaccent" unicode="&#x116;" horiz-adv-x="1114" 
d="M154 1360q0 41 26.5 67.5t67.5 26.5h762v-119h-721v-544h645v-121h-645v-551h731v-119h-866v1360zM516 1579v207h146v-207h-146z" />
    <glyph glyph-name="edotaccent" unicode="&#x117;" horiz-adv-x="1259" 
d="M633 -20q-231 0 -377.5 157.5t-146.5 405.5q0 246 147 404.5t377 158.5q237 0 385.5 -166t138.5 -432h-915q9 -178 117 -297t274 -119q123 0 214 65.5t134 174.5h143q-50 -161 -181.5 -256.5t-309.5 -95.5zM246 621h778q-22 164 -128.5 268t-262.5 104q-158 0 -262 -104
t-125 -268zM567 1239v215h131v-215h-131z" />
    <glyph glyph-name="Eogonek" unicode="&#x118;" horiz-adv-x="1114" 
d="M154 1360q0 41 26.5 67.5t67.5 26.5h762v-119h-721v-544h645v-121h-645v-551h731v-119q-174 -80 -174 -170q0 -80 117 -80h57v-119h-72q-111 0 -165 46t-54 114q0 127 127 209h-702v1360z" />
    <glyph glyph-name="eogonek" unicode="&#x119;" horiz-adv-x="1257" 
d="M911 -369q-109 0 -163 46t-54 114q0 130 137 234q-79 -45 -198 -45q-231 0 -377.5 157.5t-146.5 405.5q0 246 147 404.5t377 158.5q237 0 385.5 -166t138.5 -432h-915q9 -178 117 -297t274 -119q123 0 214 65.5t134 174.5h143q-35 -121 -168 -264q-90 -96 -118.5 -141.5
t-28.5 -96.5q0 -80 117 -80h59v-119h-74zM246 621h778q-22 164 -128.5 268t-262.5 104q-158 0 -262 -104t-125 -268z" />
    <glyph glyph-name="Ecaron" unicode="&#x11a;" horiz-adv-x="1114" 
d="M154 1360q0 41 26.5 67.5t67.5 26.5h762v-119h-721v-544h645v-121h-645v-551h731v-119h-866v1360zM295 1802h131l147 -153h29l148 153h131l-209 -241h-166z" />
    <glyph glyph-name="ecaron" unicode="&#x11b;" horiz-adv-x="1259" 
d="M633 -20q-231 0 -377.5 157.5t-146.5 405.5q0 246 147 404.5t377 158.5q237 0 385.5 -166t138.5 -432h-915q9 -178 117 -297t274 -119q123 0 214 65.5t134 174.5h143q-50 -161 -181.5 -256.5t-309.5 -95.5zM246 621h778q-22 164 -128.5 268t-262.5 104q-158 0 -262 -104
t-125 -268zM340 1454h131l147 -166h29l148 166h131l-209 -254h-166z" />
    <glyph glyph-name="Gcircumflex" unicode="&#x11c;" horiz-adv-x="1601" 
d="M819 -20q-141 0 -268.5 50t-227.5 142.5t-159.5 237t-59.5 319.5q0 173 59 316.5t158.5 236t227.5 143t268 50.5q135 0 252.5 -39.5t200.5 -107t138 -153.5t77 -182h-146q-19 70 -60 132t-104 114.5t-155 83.5t-201 31q-115 0 -218 -41.5t-183.5 -118t-128 -197
t-47.5 -268.5t47.5 -269.5t127.5 -199t183.5 -119t218.5 -41.5q250 0 391.5 122t141.5 349v45h-576v119h711v-166q0 -180 -87 -314.5t-237.5 -204.5t-343.5 -70zM524 1561l211 241h166l209 -241h-131l-148 153h-28l-148 -153h-131z" />
    <glyph glyph-name="gcircumflex" unicode="&#x11d;" horiz-adv-x="1236" 
d="M250 -369v119h706v250h-327q-230 0 -376.5 149t-146.5 394q0 248 146.5 395t376.5 147h364q41 0 67.5 -26.5t26.5 -67.5v-1261q0 -46 -27.5 -72.5t-74.5 -26.5h-735zM242 543q0 -195 104.5 -309.5t290.5 -114.5h319v848h-319q-185 0 -290 -113.5t-105 -310.5zM360 1200
l211 254h166l209 -254h-131l-147 166h-29l-147 -166h-132z" />
    <glyph glyph-name="Gbreve" unicode="&#x11e;" horiz-adv-x="1601" 
d="M819 -20q-141 0 -268.5 50t-227.5 142.5t-159.5 237t-59.5 319.5q0 173 59 316.5t158.5 236t227.5 143t268 50.5q135 0 252.5 -39.5t200.5 -107t138 -153.5t77 -182h-146q-19 70 -60 132t-104 114.5t-155 83.5t-201 31q-115 0 -218 -41.5t-183.5 -118t-128 -197
t-47.5 -268.5t47.5 -269.5t127.5 -199t183.5 -119t218.5 -41.5q250 0 391.5 122t141.5 349v45h-576v119h711v-166q0 -180 -87 -314.5t-237.5 -204.5t-343.5 -70zM639 1802q19 -153 178 -153q160 0 180 153h113q-10 -129 -88.5 -189.5t-204.5 -60.5q-127 0 -204.5 61
t-86.5 189h113z" />
    <glyph glyph-name="gbreve" unicode="&#x11f;" horiz-adv-x="1236" 
d="M250 -369v119h706v250h-327q-230 0 -376.5 149t-146.5 394q0 248 146.5 395t376.5 147h364q41 0 67.5 -26.5t26.5 -67.5v-1261q0 -46 -27.5 -72.5t-74.5 -26.5h-735zM242 543q0 -195 104.5 -309.5t290.5 -114.5h319v848h-319q-185 0 -290 -113.5t-105 -310.5zM475 1454
q10 -82 57.5 -124t120.5 -42q76 0 123 43t58 123h112q-10 -130 -89.5 -196t-203.5 -66q-125 0 -203.5 66.5t-87.5 195.5h113z" />
    <glyph glyph-name="Gdotaccent" unicode="&#x120;" horiz-adv-x="1601" 
d="M819 -20q-141 0 -268.5 50t-227.5 142.5t-159.5 237t-59.5 319.5q0 173 59 316.5t158.5 236t227.5 143t268 50.5q135 0 252.5 -39.5t200.5 -107t138 -153.5t77 -182h-146q-19 70 -60 132t-104 114.5t-155 83.5t-201 31q-115 0 -218 -41.5t-183.5 -118t-128 -197
t-47.5 -268.5t47.5 -269.5t127.5 -199t183.5 -119t218.5 -41.5q250 0 391.5 122t141.5 349v45h-576v119h711v-166q0 -180 -87 -314.5t-237.5 -204.5t-343.5 -70zM748 1579v207h145v-207h-145z" />
    <glyph glyph-name="gdotaccent" unicode="&#x121;" horiz-adv-x="1236" 
d="M250 -369v119h706v250h-327q-230 0 -376.5 149t-146.5 394q0 248 146.5 395t376.5 147h364q41 0 67.5 -26.5t26.5 -67.5v-1261q0 -46 -27.5 -72.5t-74.5 -26.5h-735zM242 543q0 -195 104.5 -309.5t290.5 -114.5h319v848h-319q-185 0 -290 -113.5t-105 -310.5zM588 1239
v215h131v-215h-131z" />
    <glyph glyph-name="uni0122" unicode="&#x122;" horiz-adv-x="1601" 
d="M819 -20q-141 0 -268.5 50t-227.5 142.5t-159.5 237t-59.5 319.5q0 173 59 316.5t158.5 236t227.5 143t268 50.5q135 0 252.5 -39.5t200.5 -107t138 -153.5t77 -182h-146q-19 70 -60 132t-104 114.5t-155 83.5t-201 31q-115 0 -218 -41.5t-183.5 -118t-128 -197
t-47.5 -268.5t47.5 -269.5t127.5 -199t183.5 -119t218.5 -41.5q250 0 391.5 122t141.5 349v45h-576v119h711v-166q0 -180 -87 -314.5t-237.5 -204.5t-343.5 -70zM684 -430l61 336h140l-101 -336h-100z" />
    <glyph glyph-name="uni0123" unicode="&#x123;" horiz-adv-x="1236" 
d="M250 -369v119h706v250h-327q-230 0 -376.5 149t-146.5 394q0 248 146.5 395t376.5 147h364q41 0 67.5 -26.5t26.5 -67.5v-1261q0 -46 -27.5 -72.5t-74.5 -26.5h-735zM242 543q0 -195 104.5 -309.5t290.5 -114.5h319v848h-319q-185 0 -290 -113.5t-105 -310.5zM565 1200
l219 254h123l-164 -254h-178z" />
    <glyph glyph-name="Hcircumflex" unicode="&#x124;" horiz-adv-x="1400" 
d="M1114 0v670h-825v-670h-135v1454h135v-666h825v666h133v-1454h-133zM410 1561l211 241h165l209 -241h-131l-147 153h-29l-147 -153h-131z" />
    <glyph glyph-name="hcircumflex" unicode="&#x125;" horiz-adv-x="1183" 
d="M915 641q0 326 -297 326h-335v-967h-131v1454h131v-369h358q186 0 297 -111.5t111 -320.5v-653h-134v641zM-74 1548l211 254h166l209 -254h-131l-148 166h-28l-148 -166h-131z" />
    <glyph glyph-name="Hbar" unicode="&#x126;" horiz-adv-x="1400" 
d="M1114 0v670h-825v-670h-135v1081h-119v109h119v264h135v-264h825v264h133v-264h119v-109h-119v-1081h-133zM289 788h825v293h-825v-293z" />
    <glyph glyph-name="hbar" unicode="&#x127;" horiz-adv-x="1183" 
d="M915 641q0 326 -297 326h-335v-967h-131v1196h-172v107h172v151h131v-151h288v-107h-288v-111h358q186 0 297 -111.5t111 -320.5v-653h-134v641z" />
    <glyph glyph-name="Itilde" unicode="&#x128;" horiz-adv-x="442" 
d="M154 1454h135v-1454h-135v1454zM-133 1567q6 99 61.5 166t143.5 67q45 0 91 -21t77 -46.5t68 -46.5t67 -21q48 0 73 30.5t31 100.5h111q-5 -97 -60.5 -165t-142.5 -68q-45 0 -91 21t-77 46.5t-68 46.5t-67 21q-50 0 -74 -30.5t-30 -100.5h-113z" />
    <glyph glyph-name="itilde" unicode="&#x129;" horiz-adv-x="434" 
d="M152 0v1085h131v-1085h-131zM-135 1208q6 99 61.5 166.5t143.5 67.5q45 0 91 -21t77 -46.5t68 -46.5t67 -21q48 0 73 30.5t31 100.5h111q-5 -97 -61 -165.5t-142 -68.5q-45 0 -91 21t-77 46.5t-68 46.5t-67 21q-50 0 -74.5 -30.5t-30.5 -100.5h-112z" />
    <glyph glyph-name="Imacron" unicode="&#x12a;" horiz-adv-x="442" 
d="M154 1454h135v-1454h-135v1454zM-76 1622v107h594v-107h-594z" />
    <glyph glyph-name="imacron" unicode="&#x12b;" horiz-adv-x="434" 
d="M152 0v1085h131v-1085h-131zM-78 1274v106h594v-106h-594z" />
    <glyph glyph-name="Ibreve" unicode="&#x12c;" horiz-adv-x="442" 
d="M154 1454h135v-1454h-135v1454zM43 1802q19 -153 178 -153q160 0 180 153h113q-10 -129 -88.5 -189.5t-204.5 -60.5q-127 0 -204.5 61t-86.5 189h113z" />
    <glyph glyph-name="ibreve" unicode="&#x12d;" horiz-adv-x="434" 
d="M152 0v1085h131v-1085h-131zM41 1454q10 -82 57.5 -124t120.5 -42q76 0 122.5 43t57.5 123h113q-10 -130 -89.5 -196t-203.5 -66q-125 0 -203.5 66.5t-87.5 195.5h113z" />
    <glyph glyph-name="Iogonek" unicode="&#x12e;" horiz-adv-x="442" 
d="M154 1454h135v-1454h-2q-174 -80 -174 -170q0 -80 116 -80h58v-119h-72q-111 0 -165 46t-54 114q0 139 158 227v1436z" />
    <glyph glyph-name="iogonek" unicode="&#x12f;" horiz-adv-x="434" 
d="M152 1239v215h131v-215h-131zM-8 -209q0 140 160 227v1067h131v-1085q-174 -80 -174 -170q0 -80 116 -80h58v-119h-72q-111 0 -165 46t-54 114z" />
    <glyph glyph-name="Idotaccent" unicode="&#x130;" horiz-adv-x="442" 
d="M154 1454h135v-1454h-135v1454zM150 1579v207h145v-207h-145z" />
    <glyph glyph-name="dotlessi" unicode="&#x131;" horiz-adv-x="434" 
d="M152 0v1085h131v-1085h-131z" />
    <glyph glyph-name="IJ" unicode="&#x132;" horiz-adv-x="1167" 
d="M154 1454h135v-1454h-135v1454zM547 0v119h332v1335h135v-1360q0 -41 -26.5 -67.5t-69.5 -26.5h-371z" />
    <glyph glyph-name="ij" unicode="&#x133;" horiz-adv-x="868" 
d="M152 0v1085h131v-1085h-131zM152 1239v215h131v-215h-131zM305 -369v121h281v1333h131v-1355q0 -46 -26.5 -72.5t-72.5 -26.5h-313zM586 1239v215h131v-215h-131z" />
    <glyph glyph-name="Jcircumflex" unicode="&#x134;" horiz-adv-x="706" 
d="M86 0v119h332v1335h135v-1360q0 -41 -26.5 -67.5t-69.5 -26.5h-371zM193 1561l210 241h166l209 -241h-131l-147 153h-29l-147 -153h-131z" />
    <glyph glyph-name="jcircumflex" unicode="&#x135;" horiz-adv-x="434" 
d="M-129 -369v121h281v1333h131v-1355q0 -46 -26.5 -72.5t-72.5 -26.5h-313zM-76 1200l211 254h166l209 -254h-131l-148 166h-28l-148 -166h-131z" />
    <glyph glyph-name="uni0136" unicode="&#x136;" horiz-adv-x="1245" 
d="M684 733l475 -719v-14h-149l-449 688h-272v-688h-135v1454h135v-645h272l447 645h151v-16l-475 -666v-39zM489 -430l62 336h139l-100 -336h-101z" />
    <glyph glyph-name="uni0137" unicode="&#x137;" horiz-adv-x="1099" 
d="M655 580l357 -566v-14h-146l-325 528h-258v-528h-131v1454h131v-805h258l325 436h144v-14l-355 -469v-22zM375 -430l61 336h139l-100 -336h-100z" />
    <glyph glyph-name="Lacute" unicode="&#x139;" horiz-adv-x="1105" 
d="M154 0v1454h135v-1335h731v-119h-866zM154 1561l225 241h178l-278 -241h-125z" />
    <glyph glyph-name="lacute" unicode="&#x13a;" horiz-adv-x="434" 
d="M283 0h-131v1454h131v-1454zM100 1561l226 241h178l-279 -241h-125z" />
    <glyph glyph-name="uni013B" unicode="&#x13b;" horiz-adv-x="1105" 
d="M154 0v1454h135v-1335h731v-119h-866zM432 -430l62 336h139l-101 -336h-100z" />
    <glyph glyph-name="uni013C" unicode="&#x13c;" horiz-adv-x="434" 
d="M283 0h-131v1454h131v-1454zM82 -430l61 336h140l-101 -336h-100z" />
    <glyph glyph-name="Lcaron" unicode="&#x13d;" horiz-adv-x="1105" 
d="M154 0v1454h135v-1335h731v-119h-866zM610 1139l29 315h145l-75 -315h-99z" />
    <glyph glyph-name="lcaron" unicode="&#x13e;" horiz-adv-x="434" 
d="M283 0h-131v1454h131v-1454zM397 1139l29 315h145l-75 -315h-99z" />
    <glyph glyph-name="Ldot" unicode="&#x13f;" horiz-adv-x="1105" 
d="M154 0v1454h135v-1335h731v-119h-866zM733 670v211h131v-211h-131z" />
    <glyph glyph-name="ldot" unicode="&#x140;" horiz-adv-x="585" 
d="M283 0h-131v1454h131v-1454zM444 608v211h131v-211h-131z" />
    <glyph glyph-name="Lslash" unicode="&#x141;" horiz-adv-x="1183" 
d="M233 0v719l-143 -51v114l143 52v620h136v-571l379 135v-115l-379 -135v-649h731v-119h-867z" />
    <glyph glyph-name="lslash" unicode="&#x142;" horiz-adv-x="690" 
d="M410 0h-131v674l-185 -103v134l185 102v647h131v-573l186 104v-133l-186 -104v-748z" />
    <glyph glyph-name="Nacute" unicode="&#x143;" horiz-adv-x="1402" 
d="M154 1360q0 41 26.5 67.5t67.5 26.5h174l467 -975l166 -354h63v1329h131v-1454h-266l-469 975l-166 354h-63v-1329h-131v1360zM584 1561l225 241h178l-278 -241h-125z" />
    <glyph glyph-name="nacute" unicode="&#x144;" horiz-adv-x="1183" 
d="M150 991q0 42 27 68t69 26h393q186 0 297 -111.5t111 -320.5v-653h-132v641q0 165 -77 245.5t-222 80.5h-333v-967h-133v991zM469 1200l225 254h180l-280 -254h-125z" />
    <glyph glyph-name="uni0145" unicode="&#x145;" horiz-adv-x="1402" 
d="M154 1360q0 41 26.5 67.5t67.5 26.5h174l467 -975l166 -354h63v1329h131v-1454h-266l-469 975l-166 354h-63v-1329h-131v1360zM567 -430l62 336h139l-100 -336h-101z" />
    <glyph glyph-name="uni0146" unicode="&#x146;" horiz-adv-x="1183" 
d="M150 991q0 42 27 68t69 26h393q186 0 297 -111.5t111 -320.5v-653h-132v641q0 165 -77 245.5t-222 80.5h-333v-967h-133v991zM463 -430l61 336h140l-101 -336h-100z" />
    <glyph glyph-name="Ncaron" unicode="&#x147;" horiz-adv-x="1402" 
d="M154 1360q0 41 26.5 67.5t67.5 26.5h174l467 -975l166 -354h63v1329h131v-1454h-266l-469 975l-166 354h-63v-1329h-131v1360zM410 1802h131l147 -153h29l147 153h131l-209 -241h-165z" />
    <glyph glyph-name="ncaron" unicode="&#x148;" horiz-adv-x="1183" 
d="M150 991q0 42 27 68t69 26h393q186 0 297 -111.5t111 -320.5v-653h-132v641q0 165 -77 245.5t-222 80.5h-333v-967h-133v991zM281 1454h131l147 -166h29l147 166h131l-209 -254h-165z" />
    <glyph glyph-name="Eng" unicode="&#x14a;" horiz-adv-x="1402" 
d="M784 -369v119h334v250h-135l-469 975l-166 354h-63v-1329h-131v1360q0 41 26.5 67.5t67.5 26.5h174l467 -975l166 -354h63v1329h131v-1728q0 -41 -26.5 -68t-67.5 -27h-371z" />
    <glyph glyph-name="eng" unicode="&#x14b;" horiz-adv-x="1183" 
d="M639 1085q186 0 297 -111.5t111 -320.5v-923q0 -46 -26.5 -72.5t-72.5 -26.5h-313v121h280v889q0 324 -299 324h-333v-965h-133v991q0 41 26.5 67.5t69.5 26.5h393z" />
    <glyph glyph-name="Omacron" unicode="&#x14c;" horiz-adv-x="1636" 
d="M817 -20q-112 0 -217 31.5t-195 94.5t-158 151.5t-106.5 209.5t-38.5 260q0 173 59.5 317t159 237t228 143.5t268.5 50.5q141 0 269.5 -50.5t228.5 -143.5t159.5 -236t59.5 -316q0 -174 -59.5 -318t-159.5 -237t-228.5 -143.5t-269.5 -50.5zM240 727q0 -118 31 -219.5
t85.5 -175.5t127.5 -127t157.5 -79t175.5 -26q115 0 218.5 42t184.5 119.5t129 198.5t48 269q0 146 -48 266t-128.5 197.5t-184.5 119.5t-219 42q-114 0 -217.5 -42.5t-184 -120t-128 -198t-47.5 -266.5zM500 1628v109h635v-109h-635z" />
    <glyph glyph-name="omacron" unicode="&#x14d;" horiz-adv-x="1273" 
d="M637 -20q-109 0 -205 39.5t-168 110.5t-113.5 178t-41.5 235t41.5 235t113.5 178t168 110.5t205 39.5t205 -39.5t168 -110.5t113.5 -178t41.5 -235t-41.5 -235t-113.5 -178t-168 -110.5t-205 -39.5zM244 543q0 -205 113 -328t280 -123t280 123t113 328t-113 327.5
t-280 122.5t-280 -122.5t-113 -327.5zM340 1274v106h594v-106h-594z" />
    <glyph glyph-name="Obreve" unicode="&#x14e;" horiz-adv-x="1636" 
d="M817 -20q-112 0 -217 31.5t-195 94.5t-158 151.5t-106.5 209.5t-38.5 260q0 173 59.5 317t159 237t228 143.5t268.5 50.5q141 0 269.5 -50.5t228.5 -143.5t159.5 -236t59.5 -316q0 -174 -59.5 -318t-159.5 -237t-228.5 -143.5t-269.5 -50.5zM240 727q0 -118 31 -219.5
t85.5 -175.5t127.5 -127t157.5 -79t175.5 -26q115 0 218.5 42t184.5 119.5t129 198.5t48 269q0 146 -48 266t-128.5 197.5t-184.5 119.5t-219 42q-114 0 -217.5 -42.5t-184 -120t-128 -198t-47.5 -266.5zM639 1802q19 -153 178 -153q160 0 180 153h113
q-10 -129 -88.5 -189.5t-204.5 -60.5q-127 0 -204.5 61t-86.5 189h113z" />
    <glyph glyph-name="obreve" unicode="&#x14f;" horiz-adv-x="1273" 
d="M637 -20q-109 0 -205 39.5t-168 110.5t-113.5 178t-41.5 235t41.5 235t113.5 178t168 110.5t205 39.5t205 -39.5t168 -110.5t113.5 -178t41.5 -235t-41.5 -235t-113.5 -178t-168 -110.5t-205 -39.5zM244 543q0 -205 113 -328t280 -123t280 123t113 328t-113 327.5
t-280 122.5t-280 -122.5t-113 -327.5zM459 1454q10 -82 57.5 -124t120.5 -42q76 0 122.5 43t57.5 123h113q-10 -130 -89.5 -196t-203.5 -66q-125 0 -203.5 66.5t-87.5 195.5h113z" />
    <glyph glyph-name="Ohungarumlaut" unicode="&#x150;" horiz-adv-x="1636" 
d="M817 -20q-112 0 -217 31.5t-195 94.5t-158 151.5t-106.5 209.5t-38.5 260q0 173 59.5 317t159 237t228 143.5t268.5 50.5q141 0 269.5 -50.5t228.5 -143.5t159.5 -236t59.5 -316q0 -174 -59.5 -318t-159.5 -237t-228.5 -143.5t-269.5 -50.5zM240 727q0 -118 31 -219.5
t85.5 -175.5t127.5 -127t157.5 -79t175.5 -26q115 0 218.5 42t184.5 119.5t129 198.5t48 269q0 146 -48 266t-128.5 197.5t-184.5 119.5t-219 42q-114 0 -217.5 -42.5t-184 -120t-128 -198t-47.5 -266.5zM567 1561l172 241h179l-213 -241h-138zM952 1561l172 241h179
l-213 -241h-138z" />
    <glyph glyph-name="ohungarumlaut" unicode="&#x151;" horiz-adv-x="1273" 
d="M637 -20q-109 0 -205 39.5t-168 110.5t-113.5 178t-41.5 235t41.5 235t113.5 178t168 110.5t205 39.5t205 -39.5t168 -110.5t113.5 -178t41.5 -235t-41.5 -235t-113.5 -178t-168 -110.5t-205 -39.5zM244 543q0 -205 113 -328t280 -123t280 123t113 328t-113 327.5
t-280 122.5t-280 -122.5t-113 -327.5zM385 1200l188 254h168l-243 -254h-113zM758 1200l188 254h168l-244 -254h-112z" />
    <glyph glyph-name="OE" unicode="&#x152;" horiz-adv-x="2002" 
d="M784 0q-340 0 -509 189.5t-169 539.5q0 351 169 538t509 187h1114v-119h-720v-544h645v-121h-645v-551h731v-119h-1125zM244 729q0 -310 131.5 -460t421.5 -150h247v1216h-247q-291 0 -422 -151.5t-131 -454.5z" />
    <glyph glyph-name="oe" unicode="&#x153;" horiz-adv-x="2183" 
d="M637 -20q-109 0 -205 39.5t-168 110.5t-113.5 178t-41.5 235t41.5 235t113.5 178t168 110.5t205 39.5q151 0 273.5 -71.5t189.5 -200.5q65 127 184.5 199.5t271.5 72.5q237 0 386 -166t139 -432h-916v-2q11 -177 119 -295.5t272 -118.5q123 0 215 65.5t134 174.5h143
q-50 -161 -181.5 -256.5t-310.5 -95.5q-153 0 -272 72t-186 200q-67 -130 -189 -201t-272 -71zM244 543q0 -205 113 -328t280 -123t280 123t113 328t-113 327.5t-280 122.5t-280 -122.5t-113 -327.5zM1169 621h779q-22 164 -129 268t-263 104q-158 0 -262 -104t-125 -268z
" />
    <glyph glyph-name="Racute" unicode="&#x154;" horiz-adv-x="1298" 
d="M154 1360q0 41 26.5 67.5t67.5 26.5h459q198 0 320 -109t122 -298q0 -164 -88.5 -271t-243.5 -137l397 -639h-159l-381 631h-385v-631h-135v1360zM289 752h432q139 0 215 79t76 216q0 136 -81 212t-224 76h-418v-583zM502 1561l225 241h178l-278 -241h-125z" />
    <glyph glyph-name="racute" unicode="&#x155;" horiz-adv-x="706" 
d="M150 991q0 41 26.5 67.5t67.5 26.5h372v-118h-333v-967h-133v991zM279 1200l225 254h180l-281 -254h-124z" />
    <glyph glyph-name="uni0156" unicode="&#x156;" horiz-adv-x="1298" 
d="M154 1360q0 41 26.5 67.5t67.5 26.5h459q198 0 320 -109t122 -298q0 -164 -88.5 -271t-243.5 -137l397 -639h-159l-381 631h-385v-631h-135v1360zM289 752h432q139 0 215 79t76 216q0 136 -81 212t-224 76h-418v-583zM494 -430l61 336h139l-100 -336h-100z" />
    <glyph glyph-name="uni0157" unicode="&#x157;" horiz-adv-x="706" 
d="M150 991q0 41 26.5 67.5t67.5 26.5h372v-118h-333v-967h-133v991zM82 -430l61 336h140l-101 -336h-100z" />
    <glyph glyph-name="Rcaron" unicode="&#x158;" horiz-adv-x="1298" 
d="M154 1360q0 41 26.5 67.5t67.5 26.5h459q198 0 320 -109t122 -298q0 -164 -88.5 -271t-243.5 -137l397 -639h-159l-381 631h-385v-631h-135v1360zM289 752h432q139 0 215 79t76 216q0 136 -81 212t-224 76h-418v-583zM326 1802h131l147 -153h29l147 153h131l-209 -241
h-165z" />
    <glyph glyph-name="rcaron" unicode="&#x159;" horiz-adv-x="706" 
d="M150 991q0 41 26.5 67.5t67.5 26.5h372v-118h-333v-967h-133v991zM90 1454h131l148 -166h28l148 166h131l-209 -254h-166z" />
    <glyph glyph-name="Sacute" unicode="&#x15a;" horiz-adv-x="1269" 
d="M641 -20q-147 0 -268.5 56t-197.5 166t-79 255h135q9 -166 122.5 -261.5t287.5 -95.5q178 0 285.5 75t107.5 214q0 67 -31 117t-83.5 81t-120 54.5t-142.5 42.5t-150.5 39.5t-143 50t-120 69.5t-83.5 104t-31 147q0 121 67 209t175.5 130t244.5 42q227 0 372 -123.5
t151 -335.5h-133q-4 157 -114 247.5t-278 90.5q-152 0 -252 -67t-100 -189q0 -63 31 -110t83.5 -76.5t120.5 -52.5t143.5 -42t150.5 -40.5t143 -53t120.5 -73.5t83.5 -108.5t31 -152.5q0 -99 -43.5 -178t-117.5 -129t-168 -76t-199 -26zM498 1561l225 241h178l-278 -241
h-125z" />
    <glyph glyph-name="sacute" unicode="&#x15b;" horiz-adv-x="1087" 
d="M549 -20q-196 0 -317.5 91t-133.5 261h138q34 -240 317 -240q127 0 212 50.5t85 146.5q0 62 -39.5 104t-103 64t-139.5 38.5t-152.5 36.5t-140 49.5t-103 86t-39.5 137.5q0 141 111.5 221t287.5 80q192 0 307 -93.5t124 -254.5h-138q-6 112 -81.5 173.5t-211.5 61.5
q-116 0 -192 -48t-76 -130q0 -49 31 -85t81.5 -55.5t115 -38t132 -32.5t132 -39t115 -56.5t81.5 -86t31 -127.5q0 -103 -59.5 -175.5t-156 -106t-218.5 -33.5zM426 1200l225 254h180l-280 -254h-125z" />
    <glyph glyph-name="Scircumflex" unicode="&#x15c;" horiz-adv-x="1269" 
d="M641 -20q-147 0 -268.5 56t-197.5 166t-79 255h135q9 -166 122.5 -261.5t287.5 -95.5q178 0 285.5 75t107.5 214q0 67 -31 117t-83.5 81t-120 54.5t-142.5 42.5t-150.5 39.5t-143 50t-120 69.5t-83.5 104t-31 147q0 121 67 209t175.5 130t244.5 42q227 0 372 -123.5
t151 -335.5h-133q-4 157 -114 247.5t-278 90.5q-152 0 -252 -67t-100 -189q0 -63 31 -110t83.5 -76.5t120.5 -52.5t143.5 -42t150.5 -40.5t143 -53t120.5 -73.5t83.5 -108.5t31 -152.5q0 -99 -43.5 -178t-117.5 -129t-168 -76t-199 -26zM324 1561l211 241h165l209 -241h-131
l-147 153h-29l-147 -153h-131z" />
    <glyph glyph-name="scircumflex" unicode="&#x15d;" horiz-adv-x="1087" 
d="M549 -20q-196 0 -317.5 91t-133.5 261h138q34 -240 317 -240q127 0 212 50.5t85 146.5q0 62 -39.5 104t-103 64t-139.5 38.5t-152.5 36.5t-140 49.5t-103 86t-39.5 137.5q0 141 111.5 221t287.5 80q192 0 307 -93.5t124 -254.5h-138q-6 112 -81.5 173.5t-211.5 61.5
q-116 0 -192 -48t-76 -130q0 -49 31 -85t81.5 -55.5t115 -38t132 -32.5t132 -39t115 -56.5t81.5 -86t31 -127.5q0 -103 -59.5 -175.5t-156 -106t-218.5 -33.5zM238 1200l211 254h165l209 -254h-131l-147 166h-29l-147 -166h-131z" />
    <glyph glyph-name="Scedilla" unicode="&#x15e;" horiz-adv-x="1269" 
d="M510 -471v74h166q54 0 82 23.5t28 64.5v4q0 38 -28 61t-82 23h-141l-11 14l56 189q-100 9 -186.5 46t-152 96t-104.5 145t-41 188h135q9 -166 122.5 -261.5t287.5 -95.5q178 0 285.5 75t107.5 214q0 67 -31 117t-83.5 81t-120 54.5t-142.5 42.5t-150.5 39.5t-143 50
t-120 69.5t-83.5 104t-31 147q0 121 67 209t175.5 130t244.5 42q227 0 372 -123.5t151 -335.5h-133q-4 157 -114 247.5t-278 90.5q-152 0 -252 -67t-100 -189q0 -63 31 -110t83.5 -76.5t120.5 -52.5t143.5 -42t150.5 -40.5t143 -53t120.5 -73.5t83.5 -108.5t31 -152.5
q0 -94 -39 -170.5t-106 -126t-153.5 -77.5t-184.5 -33l-53 -117v-12h69q78 0 131.5 -41.5t53.5 -116.5v-4q0 -78 -53.5 -120t-131.5 -42h-192z" />
    <glyph glyph-name="scedilla" unicode="&#x15f;" horiz-adv-x="1087" 
d="M420 -471v74h166q54 0 82 23.5t28 64.5v4q0 38 -28 61t-82 23h-142l-10 14l55 189q-172 14 -276.5 104t-114.5 246h138q34 -240 317 -240q127 0 212 50.5t85 146.5q0 62 -39.5 104t-103 64t-139.5 38.5t-152.5 36.5t-140 49.5t-103 86t-39.5 137.5q0 141 111.5 221
t287.5 80q192 0 307 -93.5t124 -254.5h-138q-6 112 -81.5 173.5t-211.5 61.5q-116 0 -192 -48t-76 -130q0 -49 31 -85t81.5 -55.5t115 -38t132 -32.5t132 -39t115 -56.5t81.5 -86t31 -127.5q0 -143 -108 -223t-279 -90l-53 -117v-12h69q78 0 131.5 -41.5t53.5 -116.5v-4
q0 -78 -53.5 -120t-131.5 -42h-192z" />
    <glyph glyph-name="Scaron" unicode="&#x160;" horiz-adv-x="1269" 
d="M641 -20q-147 0 -268.5 56t-197.5 166t-79 255h135q9 -166 122.5 -261.5t287.5 -95.5q178 0 285.5 75t107.5 214q0 67 -31 117t-83.5 81t-120 54.5t-142.5 42.5t-150.5 39.5t-143 50t-120 69.5t-83.5 104t-31 147q0 121 67 209t175.5 130t244.5 42q227 0 372 -123.5
t151 -335.5h-133q-4 157 -114 247.5t-278 90.5q-152 0 -252 -67t-100 -189q0 -63 31 -110t83.5 -76.5t120.5 -52.5t143.5 -42t150.5 -40.5t143 -53t120.5 -73.5t83.5 -108.5t31 -152.5q0 -99 -43.5 -178t-117.5 -129t-168 -76t-199 -26zM324 1802h131l147 -153h29l147 153
h131l-209 -241h-165z" />
    <glyph glyph-name="scaron" unicode="&#x161;" horiz-adv-x="1087" 
d="M549 -20q-196 0 -317.5 91t-133.5 261h138q34 -240 317 -240q127 0 212 50.5t85 146.5q0 62 -39.5 104t-103 64t-139.5 38.5t-152.5 36.5t-140 49.5t-103 86t-39.5 137.5q0 141 111.5 221t287.5 80q192 0 307 -93.5t124 -254.5h-138q-6 112 -81.5 173.5t-211.5 61.5
q-116 0 -192 -48t-76 -130q0 -49 31 -85t81.5 -55.5t115 -38t132 -32.5t132 -39t115 -56.5t81.5 -86t31 -127.5q0 -103 -59.5 -175.5t-156 -106t-218.5 -33.5zM238 1454h131l147 -166h29l147 166h131l-209 -254h-165z" />
    <glyph glyph-name="uni0162" unicode="&#x162;" horiz-adv-x="1257" 
d="M561 0v1335h-475v119h1083v-119h-473v-1335h-12l-61 -135v-12h69q78 0 131.5 -41.5t53.5 -116.5v-4q0 -78 -53.5 -120t-131.5 -42h-192v74h166q54 0 82 23.5t28 64.5v4q0 38 -28 61t-82 23h-142l-10 14l61 207h-14z" />
    <glyph glyph-name="uni0163" unicode="&#x163;" horiz-adv-x="782" 
d="M682 1085v-118h-281v-848h281v-119h-174l-62 -135v-12h70q78 0 131 -41.5t53 -116.5v-4q0 -78 -53 -120t-131 -42h-192v74h165q54 0 82.5 23.5t28.5 64.5v4q0 38 -28.5 61t-82.5 23h-141l-10 14l61 207h-37q-41 0 -66.5 26.5t-25.5 67.5v873h-180v118h180v277h131v-277
h281z" />
    <glyph glyph-name="Tcaron" unicode="&#x164;" horiz-adv-x="1257" 
d="M561 0v1335h-475v119h1083v-119h-473v-1335h-135zM336 1802h131l147 -153h29l148 153h131l-209 -241h-166z" />
    <glyph glyph-name="tcaron" unicode="&#x165;" horiz-adv-x="782" 
d="M682 1085v-118h-281v-848h281v-119h-320q-41 0 -66.5 26.5t-25.5 67.5v873h-180v118h180v277h131v-277h281zM532 1241l29 315h146l-76 -315h-99z" />
    <glyph glyph-name="Tbar" unicode="&#x166;" horiz-adv-x="1257" 
d="M561 0v664h-289v124h289v547h-475v119h1083v-119h-473v-547h289v-124h-289v-664h-135z" />
    <glyph glyph-name="tbar" unicode="&#x167;" horiz-adv-x="782" 
d="M682 1085v-118h-281v-371h281v-107h-281v-370h281v-119h-320q-41 0 -66.5 26.5t-25.5 67.5v395h-180v107h180v371h-180v118h180v277h131v-277h281z" />
    <glyph glyph-name="Utilde" unicode="&#x168;" horiz-adv-x="1384" 
d="M694 -20q-123 0 -221 36t-157 91.5t-98 128t-53.5 139t-14.5 131.5v948h135v-936q0 -186 110 -301t299 -115q188 0 298 115t110 301v936h133v-948q0 -65 -14.5 -131.5t-53 -139t-97.5 -128t-156 -91.5t-220 -36zM338 1567q6 99 61.5 166t143.5 67q45 0 91 -21t77 -46.5
t68 -46.5t67 -21q48 0 73 30.5t31 100.5h111q-5 -97 -60.5 -165t-142.5 -68q-45 0 -91 21t-77 46.5t-68 46.5t-67 21q-50 0 -74 -30.5t-30 -100.5h-113z" />
    <glyph glyph-name="utilde" unicode="&#x169;" horiz-adv-x="1161" 
d="M545 0q-187 0 -297.5 111t-110.5 321v653h131v-641q0 -165 77 -245t222 -80h312v966h131v-991q0 -42 -26.5 -68t-68.5 -26h-370zM217 1208q6 99 61.5 166.5t143.5 67.5q45 0 91 -21t77 -46.5t68 -46.5t67 -21q48 0 73 30.5t31 100.5h111q-5 -97 -61 -165.5t-142 -68.5
q-45 0 -91 21t-77 46.5t-68 46.5t-67 21q-50 0 -74 -30.5t-30 -100.5h-113z" />
    <glyph glyph-name="Umacron" unicode="&#x16a;" horiz-adv-x="1384" 
d="M694 -20q-123 0 -221 36t-157 91.5t-98 128t-53.5 139t-14.5 131.5v948h135v-936q0 -186 110 -301t299 -115q188 0 298 115t110 301v936h133v-948q0 -65 -14.5 -131.5t-53 -139t-97.5 -128t-156 -91.5t-220 -36zM395 1622v107h594v-107h-594z" />
    <glyph glyph-name="umacron" unicode="&#x16b;" horiz-adv-x="1161" 
d="M545 0q-187 0 -297.5 111t-110.5 321v653h131v-641q0 -165 77 -245t222 -80h312v966h131v-991q0 -42 -26.5 -68t-68.5 -26h-370zM274 1274v106h594v-106h-594z" />
    <glyph glyph-name="Ubreve" unicode="&#x16c;" horiz-adv-x="1384" 
d="M694 -20q-123 0 -221 36t-157 91.5t-98 128t-53.5 139t-14.5 131.5v948h135v-936q0 -186 110 -301t299 -115q188 0 298 115t110 301v936h133v-948q0 -65 -14.5 -131.5t-53 -139t-97.5 -128t-156 -91.5t-220 -36zM514 1802q19 -153 178 -153q160 0 180 153h113
q-10 -129 -88.5 -189.5t-204.5 -60.5q-127 0 -204.5 61t-86.5 189h113z" />
    <glyph glyph-name="ubreve" unicode="&#x16d;" horiz-adv-x="1161" 
d="M545 0q-187 0 -297.5 111t-110.5 321v653h131v-641q0 -165 77 -245t222 -80h312v966h131v-991q0 -42 -26.5 -68t-68.5 -26h-370zM393 1454q10 -82 57.5 -124t120.5 -42q76 0 123 43t58 123h112q-10 -130 -89.5 -196t-203.5 -66q-125 0 -203 66.5t-87 195.5h112z" />
    <glyph glyph-name="Uring" unicode="&#x16e;" horiz-adv-x="1384" 
d="M694 -20q-123 0 -221 36t-157 91.5t-98 128t-53.5 139t-14.5 131.5v948h135v-936q0 -186 110 -301t299 -115q188 0 298 115t110 301v936h133v-948q0 -65 -14.5 -131.5t-53 -139t-97.5 -128t-156 -91.5t-220 -36zM504 1716q0 80 53 132.5t135 52.5t136.5 -53t54.5 -132
q0 -82 -55 -133t-136 -51t-134.5 51t-53.5 133zM584 1716q0 -49 31 -78.5t77 -29.5q47 0 79 29t32 79q0 45 -32 76t-79 31q-46 0 -77 -30t-31 -77z" />
    <glyph glyph-name="uring" unicode="&#x16f;" horiz-adv-x="1161" 
d="M545 0q-187 0 -297.5 111t-110.5 321v653h131v-641q0 -165 77 -245t222 -80h312v966h131v-991q0 -42 -26.5 -68t-68.5 -26h-370zM383 1366q0 78 53.5 131t134.5 53q82 0 136.5 -53t54.5 -131q0 -82 -55 -133t-136 -51t-134.5 51t-53.5 133zM463 1366q0 -50 31 -79.5
t77 -29.5q47 0 79 29.5t32 79.5q0 45 -32 76t-79 31q-46 0 -77 -30t-31 -77z" />
    <glyph glyph-name="Uhungarumlaut" unicode="&#x170;" horiz-adv-x="1384" 
d="M694 -20q-123 0 -221 36t-157 91.5t-98 128t-53.5 139t-14.5 131.5v948h135v-936q0 -186 110 -301t299 -115q188 0 298 115t110 301v936h133v-948q0 -65 -14.5 -131.5t-53 -139t-97.5 -128t-156 -91.5t-220 -36zM442 1561l172 241h179l-213 -241h-138zM827 1561l172 241
h179l-213 -241h-138z" />
    <glyph glyph-name="uhungarumlaut" unicode="&#x171;" horiz-adv-x="1161" 
d="M545 0q-187 0 -297.5 111t-110.5 321v653h131v-641q0 -165 77 -245t222 -80h312v966h131v-991q0 -42 -26.5 -68t-68.5 -26h-370zM319 1200l189 254h168l-244 -254h-113zM692 1200l189 254h168l-244 -254h-113z" />
    <glyph glyph-name="Uogonek" unicode="&#x172;" horiz-adv-x="1384" 
d="M729 -369q-111 0 -165 46t-54 114q0 114 104 193q-105 11 -188 51.5t-133.5 95t-84 123t-46 130.5t-12.5 122v948h135v-936q0 -186 110 -301t299 -115q188 0 298 115t110 301v936h133v-948q0 -60 -13 -122.5t-46.5 -131.5t-84.5 -124t-135 -95t-190 -49
q-139 -75 -139 -154q0 -80 116 -80h58v-119h-72z" />
    <glyph glyph-name="uogonek" unicode="&#x173;" horiz-adv-x="1161" 
d="M545 0q-187 0 -297.5 111t-110.5 321v653h131v-641q0 -165 77 -245t222 -80h312v966h131v-991q0 -42 -26.5 -68t-68.5 -26h-194q-174 -80 -174 -170q0 -80 117 -80h57v-119h-72q-111 0 -165 46t-54 114q0 124 129 209h-14z" />
    <glyph glyph-name="Wcircumflex" unicode="&#x174;" horiz-adv-x="2064" 
d="M1059 1327h-51l-82 -344l-238 -983h-242l-358 1454h135l238 -1005l76 -322h57l76 322l243 1005h238l246 -1005l76 -322h57l76 322l237 1005h135l-358 -1454h-242l-237 983zM741 1561l211 241h166l209 -241h-131l-147 153h-29l-148 -153h-131z" />
    <glyph glyph-name="wcircumflex" unicode="&#x175;" horiz-adv-x="1708" 
d="M1198 119h37l250 966h133v-16l-293 -1069h-217l-162 657l-72 310h-40l-72 -310l-162 -657h-217l-293 1069v16h133l170 -657l78 -309h39l72 309l159 657h226l159 -657zM561 1200l211 254h166l209 -254h-131l-148 166h-28l-148 -166h-131z" />
    <glyph glyph-name="Ycircumflex" unicode="&#x176;" horiz-adv-x="1255" 
d="M559 600l-475 846v8h145l392 -721h12l147 273l248 448h146v-8l-482 -846v-600h-133v600zM336 1561l211 241h166l209 -241h-131l-148 153h-29l-147 -153h-131z" />
    <glyph glyph-name="ycircumflex" unicode="&#x177;" horiz-adv-x="1196" 
d="M205 -369v119h289l86 250h-91l-401 1069v16h133l240 -657l114 -309h46l114 309l240 657h133v-16l-508 -1350q-35 -88 -125 -88h-270zM305 1200l211 254h166l209 -254h-131l-148 166h-28l-148 -166h-131z" />
    <glyph glyph-name="Ydieresis" unicode="&#x178;" horiz-adv-x="1255" 
d="M559 600l-475 846v8h145l392 -721h12l147 273l248 448h146v-8l-482 -846v-600h-133v600zM371 1583v197h133v-197h-133zM754 1583v197h133v-197h-133z" />
    <glyph glyph-name="Zacute" unicode="&#x179;" horiz-adv-x="1224" 
d="M96 0v160l856 1134v41h-835v119h991v-160l-858 -1134v-41h883v-119h-1037zM496 1561l225 241h178l-278 -241h-125z" />
    <glyph glyph-name="zacute" unicode="&#x17a;" horiz-adv-x="1081" 
d="M96 0v98l699 869h-676v118h852v-98l-701 -868h713v-119h-887zM436 1200l226 254h180l-281 -254h-125z" />
    <glyph glyph-name="Zdotaccent" unicode="&#x17b;" horiz-adv-x="1224" 
d="M96 0v160l856 1134v41h-835v119h991v-160l-858 -1134v-41h883v-119h-1037zM543 1579v207h145v-207h-145z" />
    <glyph glyph-name="zdotaccent" unicode="&#x17c;" horiz-adv-x="1081" 
d="M96 0v98l699 869h-676v118h852v-98l-701 -868h713v-119h-887zM475 1239v215h131v-215h-131z" />
    <glyph glyph-name="Zcaron" unicode="&#x17d;" horiz-adv-x="1224" 
d="M96 0v160l856 1134v41h-835v119h991v-160l-858 -1134v-41h883v-119h-1037zM322 1802h131l147 -153h29l147 153h131l-209 -241h-166z" />
    <glyph glyph-name="zcaron" unicode="&#x17e;" horiz-adv-x="1081" 
d="M96 0v98l699 869h-676v118h852v-98l-701 -868h713v-119h-887zM248 1454h131l147 -166h29l147 166h132l-209 -254h-166z" />
    <glyph glyph-name="uni018F" unicode="&#x18f;" horiz-adv-x="1628" 
d="M811 -20q-112 0 -217 31.5t-197 96t-160 155t-106 216t-35 271.5v6h1293q-4 140 -53 255t-129 189t-182 114t-214 40q-103 0 -193 -31t-154.5 -83.5t-109.5 -114.5t-71 -132h-146q28 96 87.5 182t144.5 153.5t199.5 107t242.5 39.5q141 0 269 -50.5t228 -143t159 -236
t59 -316.5q0 -175 -59.5 -319.5t-159.5 -237t-227.5 -142.5t-268.5 -50zM238 637q19 -168 103 -291.5t205.5 -184.5t264.5 -61q142 0 263.5 60.5t206 184.5t103.5 292h-1146z" />
    <glyph glyph-name="uni0191" unicode="&#x191;" horiz-adv-x="905" 
d="M-223 -369v121h323l185 1110h-189v121h209l64 377q7 45 36.5 69.5t75.5 24.5h338v-121h-323l-60 -350h299v-121h-317l-191 -1136q-7 -46 -36.5 -70.5t-75.5 -24.5h-338z" />
    <glyph glyph-name="florin" unicode="&#x192;" horiz-adv-x="905" 
d="M-223 -369v121h323l185 1110h-189v121h209l64 377q7 45 36.5 69.5t75.5 24.5h338v-121h-323l-60 -350h299v-121h-317l-191 -1136q-7 -46 -36.5 -70.5t-75.5 -24.5h-338z" />
    <glyph glyph-name="Aringacute" unicode="&#x1fa;" horiz-adv-x="1456" 
d="M84 0l524 1454h250l524 -1454h-139l-178 506h-666l-178 -506h-137zM442 627h580l-129 362l-117 338h-88zM543 1688q0 78 53.5 131t134.5 53q82 0 136.5 -53t54.5 -131q0 -82 -55 -133.5t-136 -51.5t-134.5 51.5t-53.5 133.5zM623 1688q0 -50 31 -79.5t77 -29.5
q47 0 79 29.5t32 79.5q0 44 -32 75t-79 31q-46 0 -77 -29.5t-31 -76.5zM657 1915l226 254h180l-281 -254h-125z" />
    <glyph glyph-name="aringacute" unicode="&#x1fb;" horiz-adv-x="1146" 
d="M485 0q-175 0 -279 75.5t-104 225.5q0 80 28.5 137t86.5 92t130.5 54t176.5 30l357 37v86q0 129 -78 192.5t-215 63.5q-135 0 -215 -60.5t-92 -174.5h-136q7 161 132 254.5t315 93.5q191 0 304.5 -95t113.5 -274v-643q0 -41 -26 -67.5t-66 -26.5h-433zM238 305
q0 -186 251 -186h392v424l-328 -35q-165 -18 -240 -62t-75 -141zM401 1339q0 78 54 131.5t135 53.5t135.5 -53.5t54.5 -131.5q0 -82 -54.5 -133t-135.5 -51t-135 51t-54 133zM481 1339q0 -49 31.5 -78.5t77.5 -29.5q47 0 78.5 29t31.5 79q0 45 -31.5 76t-78.5 31
q-46 0 -77.5 -30t-31.5 -77zM516 1567l225 254h181l-281 -254h-125z" />
    <glyph glyph-name="AEacute" unicode="&#x1fc;" horiz-adv-x="1964" 
d="M86 0l524 1454h1252v-119h-721v-544h645v-121h-645v-551h731v-119h-866v506h-605l-178 -506h-137zM444 627h562v706h-314l-119 -344zM1081 1561l226 241h178l-279 -241h-125z" />
    <glyph glyph-name="aeacute" unicode="&#x1fd;" horiz-adv-x="2033" 
d="M485 0q-175 0 -279 75.5t-104 225.5q0 80 28.5 137t86.5 92t130.5 54t176.5 30l357 37v86q0 129 -78 192.5t-215 63.5q-135 0 -215 -60.5t-92 -174.5h-136q7 161 132 254.5t315 93.5q144 0 246.5 -55t144.5 -162q70 103 179.5 160t244.5 57q237 0 385.5 -166t138.5 -432
h-915q9 -178 117 -297t274 -119q123 0 214 65.5t134 174.5h143q-50 -161 -181.5 -256.5t-309.5 -95.5q-123 0 -225 47t-172 133v-66q0 -41 -26 -67.5t-66 -26.5h-433zM238 305q0 -186 251 -186h392v424l-328 -35q-165 -18 -240 -62t-75 -141zM909 1200l226 254h180
l-281 -254h-125zM1020 621h778q-22 164 -128.5 268t-262.5 104q-158 0 -262 -104t-125 -268z" />
    <glyph glyph-name="Oslashacute" unicode="&#x1fe;" horiz-adv-x="1636" 
d="M817 -20q-223 0 -395 114l-133 -176h-142l185 248q-108 99 -169 241.5t-61 319.5q0 173 59.5 317t159 237t228 143.5t268.5 50.5q220 0 397 -115l132 176h141l-182 -246q108 -99 168.5 -241t60.5 -320q0 -174 -59.5 -318t-159.5 -237t-228.5 -143.5t-269.5 -50.5z
M240 727q0 -282 168 -457l733 987q-145 97 -324 97q-114 0 -217.5 -42.5t-184 -120t-128 -198t-47.5 -266.5zM496 197q145 -97 321 -97q115 0 218.5 42t184.5 119.5t129 198.5t48 269q0 280 -168 455zM700 1561l226 241h178l-279 -241h-125z" />
    <glyph glyph-name="oslashacute" unicode="&#x1ff;" horiz-adv-x="1273" 
d="M637 -20q-157 0 -287 79l-106 -141h-140l158 213q-153 160 -153 412q0 128 41.5 235t113.5 178t168 110.5t205 39.5q155 0 287 -80l104 141h139l-155 -213q153 -156 153 -411q0 -128 -41.5 -235t-113.5 -178t-168 -110.5t-205 -39.5zM244 543q0 -184 94 -305l514 690
q-92 65 -215 65q-167 0 -280 -122.5t-113 -327.5zM422 158q94 -66 215 -66q167 0 280 123t113 328q0 183 -96 307zM532 1200l226 254h180l-281 -254h-125z" />
    <glyph glyph-name="uni0218" unicode="&#x218;" horiz-adv-x="1269" 
d="M641 -20q-147 0 -268.5 56t-197.5 166t-79 255h135q9 -166 122.5 -261.5t287.5 -95.5q178 0 285.5 75t107.5 214q0 67 -31 117t-83.5 81t-120 54.5t-142.5 42.5t-150.5 39.5t-143 50t-120 69.5t-83.5 104t-31 147q0 121 67 209t175.5 130t244.5 42q227 0 372 -123.5
t151 -335.5h-133q-4 157 -114 247.5t-278 90.5q-152 0 -252 -67t-100 -189q0 -63 31 -110t83.5 -76.5t120.5 -52.5t143.5 -42t150.5 -40.5t143 -53t120.5 -73.5t83.5 -108.5t31 -152.5q0 -99 -43.5 -178t-117.5 -129t-168 -76t-199 -26zM506 -430l61 336h140l-101 -336h-100
z" />
    <glyph glyph-name="uni0219" unicode="&#x219;" horiz-adv-x="1087" 
d="M549 -20q-196 0 -317.5 91t-133.5 261h138q34 -240 317 -240q127 0 212 50.5t85 146.5q0 62 -39.5 104t-103 64t-139.5 38.5t-152.5 36.5t-140 49.5t-103 86t-39.5 137.5q0 141 111.5 221t287.5 80q192 0 307 -93.5t124 -254.5h-138q-6 112 -81.5 173.5t-211.5 61.5
q-116 0 -192 -48t-76 -130q0 -49 31 -85t81.5 -55.5t115 -38t132 -32.5t132 -39t115 -56.5t81.5 -86t31 -127.5q0 -103 -59.5 -175.5t-156 -106t-218.5 -33.5zM416 -430l61 336h139l-100 -336h-100z" />
    <glyph glyph-name="uni021A" unicode="&#x21a;" horiz-adv-x="1257" 
d="M561 0v1335h-475v119h1083v-119h-473v-1335h-135zM496 -430l61 336h139l-100 -336h-100z" />
    <glyph glyph-name="uni021B" unicode="&#x21b;" horiz-adv-x="782" 
d="M682 1085v-118h-281v-848h281v-119h-320q-41 0 -66.5 26.5t-25.5 67.5v873h-180v118h180v277h131v-277h281zM319 -430l62 336h139l-100 -336h-101z" />
    <glyph glyph-name="uni0237" unicode="&#x237;" horiz-adv-x="434" 
d="M-129 -369v121h281v1333h131v-1355q0 -46 -26.5 -72.5t-72.5 -26.5h-313z" />
    <glyph glyph-name="uni0259" unicode="&#x259;" horiz-adv-x="1259" 
d="M627 1106q231 0 377.5 -157.5t146.5 -405.5q0 -246 -147 -404.5t-377 -158.5q-237 0 -386 166t-139 432h916q-9 178 -117 296.5t-274 118.5q-123 0 -214.5 -65t-133.5 -174h-144q50 161 181.5 256.5t310.5 95.5zM236 465q22 -164 128.5 -268.5t262.5 -104.5
q158 0 262 104.5t125 268.5h-778z" />
    <glyph glyph-name="uni02BC" unicode="&#x2bc;" horiz-adv-x="512" 
d="M150 983l69 471h143l-102 -471h-110z" />
    <glyph glyph-name="circumflex" unicode="&#x2c6;" horiz-adv-x="790" 
d="M557 1200l-147 166h-29l-148 -166h-131l211 254h166l209 -254h-131z" />
    <glyph glyph-name="caron" unicode="&#x2c7;" horiz-adv-x="790" 
d="M557 1454h131l-209 -254h-166l-211 254h131l148 -166h29z" />
    <glyph glyph-name="breve" unicode="&#x2d8;" horiz-adv-x="788" 
d="M393 1192q-125 0 -203.5 66.5t-87.5 195.5h113q10 -82 57.5 -124t120.5 -42q76 0 122.5 43t57.5 123h113q-10 -130 -89.5 -196t-203.5 -66z" />
    <glyph glyph-name="dotaccent" unicode="&#x2d9;" horiz-adv-x="350" 
d="M102 1219v215h146v-215h-146z" />
    <glyph glyph-name="ring" unicode="&#x2da;" horiz-adv-x="583" 
d="M291 1182q-81 0 -135 51t-54 133q0 78 54 131t135 53t135.5 -53t54.5 -131q0 -82 -54.5 -133t-135.5 -51zM182 1366q0 -49 31.5 -79t77.5 -30q47 0 78.5 29.5t31.5 79.5q0 45 -31.5 76t-78.5 31q-46 0 -77.5 -30t-31.5 -77z" />
    <glyph glyph-name="ogonek" unicode="&#x2db;" horiz-adv-x="559" 
d="M297 -403q-94 0 -144.5 47.5t-50.5 117.5q0 62 33.5 123.5t110.5 134.5l80 -20q-107 -99 -107 -184q0 -103 129 -103h109v-116h-160z" />
    <glyph glyph-name="tilde" unicode="&#x2dc;" horiz-adv-x="927" 
d="M102 1210q6 99 61.5 166.5t143.5 67.5q45 0 91 -21t77 -46.5t68 -46.5t67 -21q48 0 73.5 31t31.5 100h110q-5 -98 -60.5 -166t-141.5 -68q-45 0 -91 21t-77 46.5t-68.5 46.5t-67.5 21q-50 0 -74 -30.5t-30 -100.5h-113z" />
    <glyph glyph-name="hungarumlaut" unicode="&#x2dd;" horiz-adv-x="958" 
d="M500 1200l188 254h168l-244 -254h-112zM102 1200l189 254h168l-244 -254h-113z" />
    <glyph glyph-name="gravecomb" unicode="&#x300;" 
d="M383 1200l-281 254h179l227 -254h-125z" />
    <glyph glyph-name="acutecomb" unicode="&#x301;" 
d="M102 1200l226 254h180l-281 -254h-125z" />
    <glyph glyph-name="uni0302" unicode="&#x302;" 
d="M557 1200l-147 166h-29l-148 -166h-131l211 254h166l209 -254h-131z" />
    <glyph glyph-name="tildecomb" unicode="&#x303;" 
d="M102 1210q6 99 61.5 166.5t143.5 67.5q45 0 91 -21t77 -46.5t68 -46.5t67 -21q48 0 73.5 31t31.5 100h110q-5 -98 -60.5 -166t-141.5 -68q-45 0 -91 21t-77 46.5t-68.5 46.5t-67.5 21q-50 0 -74 -30.5t-30 -100.5h-113z" />
    <glyph glyph-name="uni0304" unicode="&#x304;" 
d="M102 1380h594v-106h-594v106z" />
    <glyph glyph-name="uni0306" unicode="&#x306;" 
d="M393 1192q-125 0 -203.5 66.5t-87.5 195.5h113q10 -82 57.5 -124t120.5 -42q76 0 122.5 43t57.5 123h113q-10 -130 -89.5 -196t-203.5 -66z" />
    <glyph glyph-name="uni0307" unicode="&#x307;" 
d="M102 1239v215h131v-215h-131z" />
    <glyph glyph-name="uni0308" unicode="&#x308;" 
d="M485 1229v196h133v-196h-133zM102 1229v196h131v-196h-131z" />
    <glyph glyph-name="uni030A" unicode="&#x30a;" 
d="M291 1182q-81 0 -135 51t-54 133q0 78 54 131t135 53t135.5 -53t54.5 -131q0 -82 -54.5 -133t-135.5 -51zM182 1366q0 -49 31.5 -79t77.5 -30q47 0 78.5 29.5t31.5 79.5q0 45 -31.5 76t-78.5 31q-46 0 -77.5 -30t-31.5 -77z" />
    <glyph glyph-name="uni030B" unicode="&#x30b;" 
d="M475 1200l189 254h167l-243 -254h-113zM102 1200l189 254h168l-244 -254h-113z" />
    <glyph glyph-name="uni030C" unicode="&#x30c;" 
d="M557 1454h131l-209 -254h-166l-211 254h131l148 -166h29z" />
    <glyph glyph-name="uni0312" unicode="&#x312;" 
d="M102 1200l220 254h122l-163 -254h-179z" />
    <glyph glyph-name="uni0326" unicode="&#x326;" 
d="M102 -430l62 336h139l-100 -336h-101z" />
    <glyph glyph-name="uni0327" unicode="&#x327;" 
d="M102 -471v74h166q54 0 82.5 23.5t28.5 64.5v4q0 38 -28.5 61t-82.5 23h-141l-10 14l61 209l109 -2l-62 -135v-12h70q78 0 131 -41.5t53 -116.5v-4q0 -78 -53 -120t-131 -42h-193z" />
    <glyph glyph-name="uni0328" unicode="&#x328;" 
d="M322 -369q-111 0 -165.5 46t-54.5 114q0 152 191 244l100 -35q-174 -80 -174 -170q0 -80 117 -80h57v-119h-71z" />
    <glyph glyph-name="uni0337" unicode="&#x337;" 
d="M102 571v134l502 280v-133z" />
    <glyph glyph-name="uni0338" unicode="&#x338;" 
d="M102 -82l179 242l38 55l549 737l39 56l119 159h139l-209 -284l-550 -744l-35 -51l-129 -170h-140z" />
    <glyph glyph-name="uni03A9" unicode="&#x3a9;" horiz-adv-x="1656" 
d="M109 0v121h385q-76 35 -142 90.5t-121 132.5t-86.5 182t-31.5 226q0 149 52 282t144 230.5t226.5 154t291.5 56.5q127 0 239.5 -36.5t199 -103t149.5 -155.5t96 -199t33 -229q0 -121 -32 -226t-87 -182t-121 -132.5t-143 -90.5h387v-121h-608v119q65 12 127.5 40.5
t124.5 79t108.5 117t75.5 163t29 208.5q0 144 -48.5 263.5t-130 196.5t-184.5 119t-215 42q-111 0 -213.5 -42t-183.5 -119t-129.5 -196.5t-48.5 -263.5q0 -112 29 -208.5t75.5 -163t108 -117.5t124 -79t126.5 -40v-119h-606z" />
    <glyph glyph-name="pi" unicode="&#x3c0;" horiz-adv-x="1409" 
d="M989 0q-40 0 -66 26.5t-26 67.5v873h-496v-967h-131v967h-180v118h1219v-118h-281v-848h281v-119h-320z" />
    <glyph glyph-name="Wgrave" unicode="&#x1e80;" horiz-adv-x="2064" 
d="M1059 1327h-51l-82 -344l-238 -983h-242l-358 1454h135l238 -1005l76 -322h57l76 322l243 1005h238l246 -1005l76 -322h57l76 322l237 1005h135l-358 -1454h-242l-237 983zM756 1802h178l225 -241h-125z" />
    <glyph glyph-name="wgrave" unicode="&#x1e81;" horiz-adv-x="1708" 
d="M1198 119h37l250 966h133v-16l-293 -1069h-217l-162 657l-72 310h-40l-72 -310l-162 -657h-217l-293 1069v16h133l170 -657l78 -309h39l72 309l159 657h226l159 -657zM586 1454h178l227 -254h-125z" />
    <glyph glyph-name="Wacute" unicode="&#x1e82;" horiz-adv-x="2064" 
d="M1059 1327h-51l-82 -344l-238 -983h-242l-358 1454h135l238 -1005l76 -322h57l76 322l243 1005h238l246 -1005l76 -322h57l76 322l237 1005h135l-358 -1454h-242l-237 983zM915 1561l226 241h178l-279 -241h-125z" />
    <glyph glyph-name="wacute" unicode="&#x1e83;" horiz-adv-x="1708" 
d="M1198 119h37l250 966h133v-16l-293 -1069h-217l-162 657l-72 310h-40l-72 -310l-162 -657h-217l-293 1069v16h133l170 -657l78 -309h39l72 309l159 657h226l159 -657zM750 1200l225 254h180l-281 -254h-124z" />
    <glyph glyph-name="Wdieresis" unicode="&#x1e84;" horiz-adv-x="2064" 
d="M1059 1327h-51l-82 -344l-238 -983h-242l-358 1454h135l238 -1005l76 -322h57l76 322l243 1005h238l246 -1005l76 -322h57l76 322l237 1005h135l-358 -1454h-242l-237 983zM776 1583v197h133v-197h-133zM1159 1583v197h133v-197h-133z" />
    <glyph glyph-name="wdieresis" unicode="&#x1e85;" horiz-adv-x="1708" 
d="M1198 119h37l250 966h133v-16l-293 -1069h-217l-162 657l-72 310h-40l-72 -310l-162 -657h-217l-293 1069v16h133l170 -657l78 -309h39l72 309l159 657h226l159 -657zM596 1229v196h131v-196h-131zM979 1229v196h133v-196h-133z" />
    <glyph glyph-name="uni1E9E" unicode="&#x1e9e;" horiz-adv-x="1253" 
d="M154 1360q0 41 26.5 67.5t67.5 26.5h819v-158l-377 -491h31q196 -3 314 -116t118 -286q0 -175 -123.5 -289t-318.5 -114h-219v119h213q146 0 228.5 80.5t82.5 203.5q0 118 -78 199.5t-221 81.5h-176v119l377 491v41h-629v-1335h-135v1360z" />
    <glyph glyph-name="uni1EBC" unicode="&#x1ebc;" horiz-adv-x="1114" 
d="M154 1360q0 41 26.5 67.5t67.5 26.5h762v-119h-721v-544h645v-121h-645v-551h731v-119h-866v1360zM233 1567q6 99 61.5 166t143.5 67q45 0 91 -21t77 -46.5t68 -46.5t67 -21q48 0 73.5 31t31.5 100h110q-5 -97 -60.5 -165t-141.5 -68q-45 0 -91 21t-77 46.5t-68 46.5
t-67 21q-50 0 -74.5 -30.5t-30.5 -100.5h-113z" />
    <glyph glyph-name="uni1EBD" unicode="&#x1ebd;" horiz-adv-x="1259" 
d="M633 -20q-231 0 -377.5 157.5t-146.5 405.5q0 246 147 404.5t377 158.5q237 0 385.5 -166t138.5 -432h-915q9 -178 117 -297t274 -119q123 0 214 65.5t134 174.5h143q-50 -161 -181.5 -256.5t-309.5 -95.5zM246 621h778q-22 164 -128.5 268t-262.5 104q-158 0 -262 -104
t-125 -268zM279 1208q6 99 61 166.5t143 67.5q45 0 91 -21t77 -46.5t68 -46.5t67 -21q48 0 73.5 31t31.5 100h110q-5 -98 -60.5 -166t-141.5 -68q-45 0 -91 21t-77 46.5t-68 46.5t-67 21q-50 0 -74.5 -30.5t-30.5 -100.5h-112z" />
    <glyph glyph-name="Ygrave" unicode="&#x1ef2;" horiz-adv-x="1255" 
d="M559 600l-475 846v8h145l392 -721h12l147 273l248 448h146v-8l-482 -846v-600h-133v600zM352 1802h178l226 -241h-125z" />
    <glyph glyph-name="ygrave" unicode="&#x1ef3;" horiz-adv-x="1196" 
d="M205 -369v119h289l86 250h-91l-401 1069v16h133l240 -657l114 -309h46l114 309l240 657h133v-16l-508 -1350q-35 -88 -125 -88h-270zM330 1454h178l227 -254h-125z" />
    <glyph glyph-name="uni1EF8" unicode="&#x1ef8;" horiz-adv-x="1255" 
d="M559 600l-475 846v8h145l392 -721h12l147 273l248 448h146v-8l-482 -846v-600h-133v600zM274 1567q6 99 61.5 166t143.5 67q45 0 91 -21t77 -46.5t68 -46.5t67 -21q48 0 73.5 31t31.5 100h110q-5 -97 -60.5 -165t-141.5 -68q-45 0 -91 21t-77 46.5t-68 46.5t-67 21
q-50 0 -74.5 -30.5t-30.5 -100.5h-113z" />
    <glyph glyph-name="uni1EF9" unicode="&#x1ef9;" horiz-adv-x="1196" 
d="M205 -369v119h289l86 250h-91l-401 1069v16h133l240 -657l114 -309h46l114 309l240 657h133v-16l-508 -1350q-35 -88 -125 -88h-270zM244 1208q6 99 61.5 166.5t143.5 67.5q45 0 91 -21t77 -46.5t68 -46.5t67 -21q48 0 73 30.5t31 100.5h111q-5 -97 -61 -165.5
t-142 -68.5q-45 0 -91 21t-77 46.5t-68 46.5t-67 21q-50 0 -74.5 -30.5t-30.5 -100.5h-112z" />
    <glyph glyph-name="uni2002" unicode="&#x2002;" horiz-adv-x="1024" 
 />
    <glyph glyph-name="uni2003" unicode="&#x2003;" horiz-adv-x="2048" 
 />
    <glyph glyph-name="uni2004" unicode="&#x2004;" horiz-adv-x="681" 
 />
    <glyph glyph-name="uni2005" unicode="&#x2005;" horiz-adv-x="512" 
 />
    <glyph glyph-name="uni2009" unicode="&#x2009;" horiz-adv-x="256" 
 />
    <glyph glyph-name="uni200A" unicode="&#x200a;" horiz-adv-x="86" 
 />
    <glyph glyph-name="uni200B" unicode="&#x200b;" 
 />
    <glyph glyph-name="endash" unicode="&#x2013;" horiz-adv-x="1267" 
d="M111 506v115h1046v-115h-1046z" />
    <glyph glyph-name="emdash" unicode="&#x2014;" horiz-adv-x="1964" 
d="M152 506v115h1660v-115h-1660z" />
    <glyph glyph-name="quoteleft" unicode="&#x2018;" horiz-adv-x="512" 
d="M150 983l102 471h110l-69 -471h-143z" />
    <glyph glyph-name="quoteright" unicode="&#x2019;" horiz-adv-x="512" 
d="M150 983l69 471h143l-102 -471h-110z" />
    <glyph glyph-name="quotesinglbase" unicode="&#x201a;" horiz-adv-x="512" 
d="M150 -225l69 471h143l-102 -471h-110z" />
    <glyph glyph-name="quotedblleft" unicode="&#x201c;" horiz-adv-x="864" 
d="M150 983l102 471h110l-69 -471h-143zM502 983l102 471h111l-70 -471h-143z" />
    <glyph glyph-name="quotedblright" unicode="&#x201d;" horiz-adv-x="864" 
d="M150 983l69 471h143l-102 -471h-110zM502 983l69 471h144l-103 -471h-110z" />
    <glyph glyph-name="quotedblbase" unicode="&#x201e;" horiz-adv-x="864" 
d="M150 -225l69 471h143l-102 -471h-110zM502 -225l69 471h144l-103 -471h-110z" />
    <glyph glyph-name="dagger" unicode="&#x2020;" horiz-adv-x="1263" 
d="M565 -205v1139h-401v125h401v395h133v-395h402v-125h-402v-1139h-133z" />
    <glyph glyph-name="daggerdbl" unicode="&#x2021;" horiz-adv-x="1280" 
d="M575 -205v645h-403v125h403v369h-403v125h403v395h132v-395h401v-125h-401v-369h401v-125h-401v-645h-132z" />
    <glyph glyph-name="bullet" unicode="&#x2022;" horiz-adv-x="712" 
d="M356 395q-85 0 -142.5 58t-57.5 143t57.5 143t142.5 58q84 0 142.5 -58.5t58.5 -142.5t-58.5 -142.5t-142.5 -58.5z" />
    <glyph glyph-name="ellipsis" unicode="&#x2026;" horiz-adv-x="1161" 
d="M152 0v211h131v-211h-131zM514 0v211h131v-211h-131zM877 0v211h131v-211h-131z" />
    <glyph glyph-name="uni202F" unicode="&#x202f;" horiz-adv-x="256" 
 />
    <glyph glyph-name="perthousand" unicode="&#x2030;" horiz-adv-x="2662" 
d="M375 639q-108 0 -181 54.5t-105 145.5t-32 216q0 123 32.5 213.5t105.5 144t180 53.5q161 0 240 -112t79 -299q0 -193 -79 -304.5t-240 -111.5zM174 1055q0 -93 18 -162.5t64.5 -114.5t118.5 -45q55 0 96 25.5t64 71t34 101.5t11 124q0 143 -48.5 230t-156.5 87
q-201 0 -201 -317zM580 0l624 1454h109l-623 -1454h-110zM1184 403q0 189 79 300.5t238 111.5q161 0 240.5 -112.5t79.5 -299.5q0 -193 -79.5 -304t-240.5 -111q-82 0 -143.5 30.5t-99 86.5t-56 130.5t-18.5 167.5zM1300 403q0 -93 18 -162t64.5 -114t118.5 -45q55 0 96 25
t64 70.5t34 101.5t11 124q0 143 -48.5 230.5t-156.5 87.5q-201 0 -201 -318zM1968 403q0 189 79.5 300.5t238.5 111.5q161 0 240 -112t79 -300q0 -193 -79 -304t-240 -111t-239.5 112t-78.5 303zM2085 403q0 -93 18 -162t64.5 -114t118.5 -45q73 0 120 45.5t65.5 114.5
t18.5 161q0 93 -18 161t-65 112.5t-121 44.5q-201 0 -201 -318z" />
    <glyph glyph-name="guilsinglleft" unicode="&#x2039;" horiz-adv-x="657" 
d="M373 145l-240 400l240 397h147l-244 -397l244 -400h-147z" />
    <glyph glyph-name="guilsinglright" unicode="&#x203a;" horiz-adv-x="657" 
d="M285 942l239 -399l-239 -398h-148l244 398l-244 399h148z" />
    <glyph glyph-name="fraction" unicode="&#x2044;" horiz-adv-x="391" 
d="M-154 0l625 1454h109l-623 -1454h-111z" />
    <glyph glyph-name="uni2070" unicode="&#x2070;" horiz-adv-x="751" 
d="M375 842q-161 0 -239.5 112t-78.5 303q0 189 79.5 300.5t238.5 111.5q161 0 240 -112t79 -300q0 -193 -79 -304t-240 -111zM174 1257q0 -93 18 -162t64.5 -114t118.5 -45q55 0 96 25t64 70.5t34 101.5t11 124q0 143 -48.5 230.5t-156.5 87.5q-201 0 -201 -318z" />
    <glyph glyph-name="uni2074" unicode="&#x2074;" horiz-adv-x="675" 
d="M477 854v182h-440v103l369 518h114q27 0 46.5 -18.5t19.5 -47.5v-737h-109zM156 1133h321v251l2 172h-28l-295 -407v-16z" />
    <glyph glyph-name="uni2075" unicode="&#x2075;" horiz-adv-x="708" 
d="M354 842q-133 0 -213 68t-88 171h111q13 -71 64 -111t124 -40q87 0 140 49.5t53 130.5q0 79 -52.5 128.5t-132.5 49.5q-129 0 -178 -96h-71q-13 0 -23.5 9.5t-9.5 23.5l26 366q1 29 20 47.5t46 18.5h453v-96h-422l-23 -267q71 76 203 76q125 0 201.5 -72t76.5 -188
q0 -120 -85 -194t-220 -74z" />
    <glyph glyph-name="uni2076" unicode="&#x2076;" horiz-adv-x="724" 
d="M371 842q-156 0 -235 98t-79 268q0 99 18.5 180.5t56.5 145.5t102.5 99.5t150.5 35.5q113 0 189.5 -61.5t91.5 -163.5h-117q-15 66 -59 100.5t-111 34.5q-53 0 -93.5 -25.5t-65 -71t-37.5 -100t-15 -118.5q37 52 97 77t124 25q128 0 206.5 -72.5t78.5 -187.5
q0 -118 -86 -191t-217 -73zM180 1104q0 -78 54.5 -126t134.5 -48q85 0 137.5 48.5t52.5 129.5q0 77 -52.5 125.5t-135.5 48.5t-137 -50t-54 -128z" />
    <glyph glyph-name="uni2077" unicode="&#x2077;" horiz-adv-x="614" 
d="M119 854l340 707h-426v96h549v-80l-338 -723h-125z" />
    <glyph glyph-name="uni2078" unicode="&#x2078;" horiz-adv-x="708" 
d="M352 842q-127 0 -215 63.5t-88 167.5q0 74 46 125.5t118 73.5v6q-59 19 -97 63.5t-38 114.5q0 97 80.5 155t193.5 58q115 0 197 -58t82 -155q0 -69 -38.5 -114t-96.5 -64v-6q72 -23 117.5 -74t45.5 -125q0 -106 -87.5 -168.5t-219.5 -62.5zM164 1081q0 -70 55.5 -110.5
t134.5 -40.5t135 40.5t56 110.5t-56 109t-135 39t-134.5 -39t-55.5 -109zM188 1448q0 -63 47 -99t119 -36q70 0 118 36.5t48 98.5t-48 97.5t-118 35.5t-118 -35.5t-48 -97.5z" />
    <glyph glyph-name="uni2079" unicode="&#x2079;" horiz-adv-x="724" 
d="M342 842q-112 0 -188.5 62t-90.5 163h115q15 -65 60 -100t112 -35q101 0 153.5 89t57.5 228q-73 -104 -223 -104q-127 0 -207 72t-80 188q0 119 87 191.5t220 72.5q156 0 234 -98.5t78 -267.5q0 -99 -18.5 -180.5t-56.5 -145.5t-102.5 -99.5t-150.5 -35.5zM166 1403
q0 -77 53.5 -125.5t136.5 -48.5q84 0 137.5 49.5t53.5 128.5q0 78 -54 126t-135 48q-86 0 -139 -48.5t-53 -129.5z" />
    <glyph glyph-name="Euro" unicode="&#x20ac;" horiz-adv-x="1347" 
d="M752 -20q-207 0 -341.5 139t-174.5 391h-138v119h125q-4 66 -4 98q0 57 2 84h-123v119h135q38 258 173.5 401.5t345.5 143.5q104 0 192.5 -39.5t150 -107.5t101 -153t55.5 -182h-145q-13 71 -39 132t-67.5 114.5t-105 84t-142.5 30.5q-157 0 -253.5 -109.5t-127.5 -314.5
h530v-119h-543q-2 -27 -2 -84q0 -67 2 -98h543v-119h-528q33 -200 128.5 -305t250.5 -105q79 0 142.5 30.5t105 84t67.5 114.5t39 132h145q-16 -97 -55.5 -182t-101 -152.5t-150 -107t-192.5 -39.5z" />
    <glyph glyph-name="uni2116" unicode="&#x2116;" horiz-adv-x="2404" 
d="M1597 631v90h629v-90h-629zM225 0v1360q0 41 26.5 67.5t67.5 26.5h175l469 -975l163 -354h66v1329h129v-1454h-266l-469 975l-166 354h-64v-1329h-131zM1597 1153q0 143 90 228t224 85q136 0 225.5 -85t89.5 -228q0 -142 -89 -226.5t-226 -84.5q-134 0 -224 85t-90 226z
M1710 1153q0 -103 57 -164t144 -61q89 0 147 60.5t58 164.5t-58 164.5t-147 60.5q-87 0 -144 -60.5t-57 -164.5z" />
    <glyph glyph-name="uni2117" unicode="&#x2117;" horiz-adv-x="1849" 
d="M924 -20q-204 0 -376 99.5t-272 272t-100 377.5q0 153 59 291t159 237.5t239 158.5t293 59q153 0 291.5 -59t238.5 -158.5t158.5 -237.5t58.5 -291q0 -206 -100 -378.5t-272 -271.5t-377 -99zM252 729q0 -139 53 -265t142.5 -217.5t214.5 -145.5t262 -54t261.5 53.5
t215.5 144.5t144.5 218t53.5 266q0 184 -90.5 339.5t-245 245t-337.5 89.5q-139 0 -264 -53t-215 -143t-142.5 -215t-52.5 -263zM643 264v856q0 30 19 49t49 19h286q138 0 222 -69.5t84 -205.5q0 -133 -81.5 -204.5t-220.5 -71.5h-247v-373h-111zM754 733h245q93 0 141 46
t48 134q0 85 -51.5 132t-147.5 47h-235v-359z" />
    <glyph glyph-name="trademark" unicode="&#x2122;" horiz-adv-x="1970" 
d="M416 651v697h-248v106h614v-106h-247v-697h-119zM891 651v752q0 23 14.5 37t36.5 14h170l141 -500l54 -192h24l53 192l144 500h215v-803h-111v490l2 202h-30l-58 -202l-141 -490h-172l-146 490l-57 202h-26v-692h-113z" />
    <glyph glyph-name="estimated" unicode="&#x212e;" horiz-adv-x="1777" 
d="M889 0q-235 0 -418 89.5t-286 257t-103 388.5q0 163 60 301.5t166 234.5t255.5 150t325.5 54q362 0 577 -197.5t230 -560.5h-1284q-11 0 -16.5 -2t-10 -10.5t-4.5 -26.5v-361q0 -30 37.5 -73t101 -85.5t162.5 -72t207 -29.5q147 0 283 66t227 170h151
q-145 -161 -291 -227t-370 -66zM381 780q0 -18 31 -18h950q21 0 27 7t6 28v354q0 56 -78.5 120.5t-198.5 108t-231 43.5q-102 0 -200.5 -31t-162.5 -73.5t-103.5 -85t-39.5 -68.5v-385z" />
    <glyph glyph-name="uni2153" unicode="&#x2153;" horiz-adv-x="1533" 
d="M244 651v707h-211v96h256q28 0 46.5 -18t18.5 -47v-738h-110zM293 0l625 1454h108l-623 -1454h-110zM1001 223q7 -69 55.5 -107t125.5 -38q78 0 130 39.5t52 109.5q0 72 -56.5 108t-133.5 36h-72v88h72q73 0 126.5 37t53.5 102q0 60 -49 93.5t-119 33.5q-74 0 -119.5 -35
t-52.5 -100h-113q6 105 85 165t200 60t200.5 -57t79.5 -152q0 -66 -41.5 -115t-103.5 -69v-6q70 -20 114 -71t44 -124q0 -109 -83.5 -171t-209.5 -62q-125 0 -208.5 59.5t-90.5 175.5h114z" />
    <glyph glyph-name="uni2154" unicode="&#x2154;" horiz-adv-x="1781" 
d="M53 762q265 195 357 287.5t92 179.5q0 69 -45.5 107t-118.5 38q-76 0 -124.5 -42t-51.5 -115h-115q6 122 88 184.5t203 62.5q122 0 201 -63t79 -164q0 -112 -94 -215t-325 -260v-17l172 3h250v-97h-568v111zM541 0l624 1454h109l-623 -1454h-110zM1249 223
q7 -69 55.5 -107t125.5 -38q78 0 130 39.5t52 109.5q0 72 -57 108t-134 36h-71v88h71q73 0 127 37t54 102q0 60 -49 93.5t-119 33.5q-74 0 -119.5 -35t-52.5 -100h-113q6 105 85 165t200 60t200.5 -57t79.5 -152q0 -66 -41.5 -115t-103.5 -69v-6q69 -20 113 -71t44 -124
q0 -109 -83 -171t-209 -62q-125 0 -208.5 59.5t-90.5 175.5h114z" />
    <glyph glyph-name="oneeighth" unicode="&#x215b;" horiz-adv-x="1554" 
d="M244 651v707h-211v96h256q28 0 46.5 -18t18.5 -47v-738h-110zM293 0l625 1454h108l-623 -1454h-110zM895 219q0 74 46 125.5t118 73.5v6q-59 19 -97 63.5t-38 114.5q0 97 80.5 155t193.5 58q115 0 197 -58t82 -155q0 -69 -39 -114t-97 -64v-6q73 -23 118.5 -74t45.5 -125
q0 -106 -87.5 -168.5t-219.5 -62.5q-127 0 -215 63.5t-88 167.5zM1010 227q0 -70 55.5 -110.5t134.5 -40.5t135 40.5t56 110.5t-56 109t-135 39t-134.5 -39t-55.5 -109zM1034 594q0 -63 47 -99t119 -36q70 0 118 36.5t48 98.5t-48 97.5t-118 35.5t-118 -35.5t-48 -97.5z" />
    <glyph glyph-name="threeeighths" unicode="&#x215c;" horiz-adv-x="1798" 
d="M342 639q-125 0 -208.5 59.5t-90.5 175.5h115q7 -69 55 -107t125 -38q78 0 130 40t52 110q0 72 -56.5 107.5t-133.5 35.5h-72v88h72q73 0 126.5 37t53.5 102q0 60 -49 93.5t-119 33.5q-74 0 -119.5 -35t-52.5 -100h-113q6 105 85 165t200 60t201 -57t80 -152
q0 -66 -42 -115t-104 -69v-6q70 -20 114 -71t44 -124q0 -109 -83.5 -171t-209.5 -62zM537 0l624 1454h109l-623 -1454h-110zM1139 219q0 74 46 125.5t118 73.5v6q-59 19 -97.5 63.5t-38.5 114.5q0 97 81 155t194 58q114 0 196 -58t82 -155q0 -69 -38.5 -114t-96.5 -64v-6
q73 -23 118.5 -74t45.5 -125q0 -106 -87.5 -168.5t-219.5 -62.5q-127 0 -215 63.5t-88 167.5zM1253 227q0 -70 56 -110.5t135 -40.5t134.5 40.5t55.5 110.5t-55.5 109t-134.5 39t-135 -39t-56 -109zM1278 594q0 -63 47 -99t119 -36q70 0 118 36.5t48 98.5t-48 97.5
t-118 35.5t-118 -35.5t-48 -97.5z" />
    <glyph glyph-name="fiveeighths" unicode="&#x215d;" horiz-adv-x="1816" 
d="M354 639q-133 0 -213 68.5t-88 171.5h111q13 -71 64 -111.5t124 -40.5q87 0 140 49.5t53 130.5q0 79 -52.5 128.5t-132.5 49.5q-129 0 -178 -96h-71q-13 0 -23.5 9.5t-9.5 23.5l26 367q1 29 20 47t46 18h453v-96h-422l-23 -266q70 75 203 75q125 0 201.5 -72t76.5 -188
q0 -120 -85 -194t-220 -74zM555 0l625 1454h108l-622 -1454h-111zM1157 219q0 74 46 125.5t118 73.5v6q-59 19 -97 63.5t-38 114.5q0 97 80.5 155t193.5 58q115 0 197 -58t82 -155q0 -69 -38.5 -114t-96.5 -64v-6q72 -23 117.5 -74t45.5 -125q0 -106 -87.5 -168.5
t-219.5 -62.5q-127 0 -215 63.5t-88 167.5zM1272 227q0 -70 55.5 -110.5t134.5 -40.5t135 40.5t56 110.5t-56 109t-135 39t-134.5 -39t-55.5 -109zM1296 594q0 -63 47 -99t119 -36q70 0 118 36.5t48 98.5t-48 97.5t-118 35.5t-118 -35.5t-48 -97.5z" />
    <glyph glyph-name="seveneighths" unicode="&#x215e;" horiz-adv-x="1587" 
d="M119 651l340 707h-426v96h549v-80l-338 -723h-125zM324 0l624 1454h109l-623 -1454h-110zM928 219q0 74 46 125.5t118 73.5v6q-59 19 -97.5 63.5t-38.5 114.5q0 97 81 155t194 58q114 0 196 -58t82 -155q0 -69 -38.5 -114t-96.5 -64v-6q73 -23 118.5 -74t45.5 -125
q0 -106 -87.5 -168.5t-219.5 -62.5q-127 0 -215 63.5t-88 167.5zM1042 227q0 -70 56 -110.5t135 -40.5t134.5 40.5t55.5 110.5t-55.5 109t-134.5 39t-135 -39t-56 -109zM1067 594q0 -63 47 -99t119 -36q70 0 118 36.5t48 98.5t-48 97.5t-118 35.5t-118 -35.5t-48 -97.5z" />
    <glyph glyph-name="arrowleft" unicode="&#x2190;" horiz-adv-x="1847" 
d="M1661 795v-136h-1239l496 -485h-181l-551 553l551 553h181l-496 -485h1239z" />
    <glyph glyph-name="arrowup" unicode="&#x2191;" horiz-adv-x="1476" 
d="M672 0v1239l-486 -496v181l553 551l553 -551v-181l-485 496v-1239h-135z" />
    <glyph glyph-name="arrowright" unicode="&#x2192;" horiz-adv-x="1847" 
d="M186 795h1239l-495 485h180l551 -553l-551 -553h-180l495 485h-1239v136z" />
    <glyph glyph-name="arrowdown" unicode="&#x2193;" horiz-adv-x="1476" 
d="M672 1454h135v-1239l485 496v-181l-553 -550l-553 550v181l486 -496v1239z" />
    <glyph glyph-name="uni2196" unicode="&#x2196;" horiz-adv-x="1462" 
d="M1278 276l-96 -96l-877 877l8 -695l-127 127v781l783 2l127 -127l-697 8z" />
    <glyph glyph-name="uni2197" unicode="&#x2197;" horiz-adv-x="1462" 
d="M186 276l877 877l-694 -8l127 127l780 -2l2 -781l-129 -127l8 695l-876 -877z" />
    <glyph glyph-name="uni2198" unicode="&#x2198;" horiz-adv-x="1462" 
d="M186 1178l95 96l876 -877l-8 695l129 -127l-2 -781l-780 -2l-127 127l694 -8z" />
    <glyph glyph-name="uni2199" unicode="&#x2199;" horiz-adv-x="1462" 
d="M1278 1178l-879 -877l697 8l-127 -127l-783 2v781l127 127l-8 -695l877 877z" />
    <glyph glyph-name="partialdiff" unicode="&#x2202;" horiz-adv-x="1275" 
d="M637 -20q-229 0 -377.5 157t-148.5 406q0 247 145 405t367 158q104 0 187.5 -38t154.5 -126q-161 333 -492 508v4h176q239 -157 375.5 -386.5t136.5 -512.5q0 -251 -146.5 -413t-377.5 -162zM246 543q0 -194 111 -322.5t282 -128.5q173 0 283 128t110 323t-109 322.5
t-284 127.5q-172 0 -282.5 -128t-110.5 -322z" />
    <glyph glyph-name="emptyset" unicode="&#x2205;" horiz-adv-x="1548" 
d="M774 -20q-181 0 -336 102l-86 -102h-149l149 176q-81 81 -125.5 187t-44.5 226q0 160 79 296t215.5 215t297.5 79q179 0 334 -102l86 102h149l-147 -176q80 -81 124 -188t44 -226q0 -160 -79 -296t-215 -214.5t-296 -78.5zM303 569q0 -189 127 -319l600 713
q-113 75 -256 75q-196 0 -333.5 -137t-137.5 -332zM516 176q115 -76 258 -76q195 0 332 137t137 332q0 187 -125 322z" />
    <glyph glyph-name="uni2206" unicode="&#x2206;" horiz-adv-x="1617" 
d="M160 0l524 1454h250l524 -1454h-1298zM340 121h936l-307 868l-117 338h-88z" />
    <glyph glyph-name="product" unicode="&#x220f;" horiz-adv-x="1419" 
d="M1192 1454v-1679h-135v1558h-695v-1558h-135v1679h965z" />
    <glyph glyph-name="summation" unicode="&#x2211;" horiz-adv-x="1335" 
d="M170 -225v121l555 725l-551 712v121h973v-121h-817l555 -712l-566 -725h848v-121h-997z" />
    <glyph glyph-name="minus" unicode="&#x2212;" horiz-adv-x="1189" 
d="M94 668v120h1004v-120h-1004z" />
    <glyph glyph-name="radical" unicode="&#x221a;" horiz-adv-x="1767" 
d="M793 -225l-310 878h-321v121h418l192 -563l102 -309h70l103 309l426 1243h133v-16l-582 -1663h-231z" />
    <glyph glyph-name="infinity" unicode="&#x221e;" horiz-adv-x="2068" 
d="M1477 299q-82 0 -150.5 25.5t-122 75t-91.5 101t-79 124.5q-43 -74 -80 -124.5t-90.5 -100.5t-121.5 -75.5t-150 -25.5q-123 0 -217.5 62t-142.5 162.5t-48 219.5q0 120 48.5 220.5t143 162.5t216.5 62q66 0 124.5 -18.5t102 -47t84.5 -73.5t70 -88t61 -101q32 58 61 101
t70 88t85 73.5t102.5 47t124.5 18.5q121 0 215.5 -62t143 -163t48.5 -222q0 -118 -48 -217.5t-142 -162t-217 -62.5zM301 741q0 -134 81 -230.5t216 -96.5q54 0 102 19t82 45.5t71 74.5t60.5 86.5t57.5 101.5q-24 45 -40.5 73t-41.5 67t-46 63t-49.5 50.5t-57 41.5t-64 25
t-74.5 10q-136 0 -216.5 -96.5t-80.5 -233.5zM1098 743q33 -62 56.5 -101.5t60 -87.5t71 -75t82.5 -46t102 -19q135 0 215 96t80 231q0 137 -80 233.5t-215 96.5q-54 0 -102 -19t-82.5 -46t-71 -74.5t-60 -87t-56.5 -101.5z" />
    <glyph glyph-name="integral" unicode="&#x222b;" horiz-adv-x="1114" 
d="M162 -369v121h330v1608q0 41 26 67.5t66 26.5h368v-121h-329v-1607q0 -41 -26.5 -68t-66.5 -27h-368z" />
    <glyph glyph-name="approxequal" unicode="&#x2248;" horiz-adv-x="1265" 
d="M885 836q-60 0 -128.5 19t-120 41t-113.5 41t-111 19q-148 0 -172 -118h-136q20 108 90 174.5t193 66.5q75 0 163.5 -29.5t169.5 -59t140 -29.5q146 0 170 118h135q-14 -107 -85 -175t-195 -68zM100 375q16 109 86.5 176t194.5 67q75 0 163.5 -30t169.5 -60t140 -30
q147 0 172 118h133q-15 -107 -85 -174t-195 -67q-60 0 -128.5 19t-120 41.5t-113.5 41.5t-111 19q-148 0 -170 -121h-136z" />
    <glyph glyph-name="notequal" unicode="&#x2260;" horiz-adv-x="1222" 
d="M1114 889h-369l-143 -322h512v-121h-565l-80 -180h-125l80 180h-313v121h366l144 322h-510v121h563l80 178h125l-80 -178h315v-121z" />
    <glyph glyph-name="lessequal" unicode="&#x2264;" horiz-adv-x="1222" 
d="M1108 399l-1002 334v170l1002 334l2 -129l-860 -266v-45l860 -269zM106 195v118h1004v-118h-1004z" />
    <glyph glyph-name="greaterequal" unicode="&#x2265;" horiz-adv-x="1222" 
d="M115 399v129l858 269v45l-858 266v129l1001 -334v-170zM113 195v118h1003v-118h-1003z" />
    <glyph glyph-name="lozenge" unicode="&#x25ca;" horiz-adv-x="1445" 
d="M635 0l-475 727l475 727h176l475 -727l-475 -727h-176zM305 727l400 -602h36l400 602l-400 602h-36z" />
    <glyph glyph-name="uniA78B" unicode="&#xa78b;" horiz-adv-x="364" 
d="M135 719l-24 735h143l-25 -735h-94z" />
    <glyph glyph-name="uniA78C" unicode="&#xa78c;" horiz-adv-x="301" 
d="M102 866l-22 588h141l-22 -588h-97z" />
    <glyph glyph-name="fi" unicode="&#xfb01;" horiz-adv-x="1183" 
d="M285 1360q0 41 25.5 67.5t66.5 26.5h352v-119h-313v-250h313v-118h-313v-967h-131v967h-195v118h195v275zM899 1239v215h131v-215h-131zM901 0v1085h131v-1085h-131z" />
    <glyph glyph-name="fl" unicode="&#xfb02;" horiz-adv-x="1183" 
d="M285 1360q0 41 25.5 67.5t66.5 26.5h352v-119h-313v-250h313v-118h-313v-967h-131v967h-195v118h195v275zM901 0v1454h131v-1454h-131z" />
    <glyph glyph-name="uni004A0301" horiz-adv-x="706" 
d="M86 0v119h332v1335h135v-1360q0 -41 -26.5 -67.5t-69.5 -26.5h-371zM367 1561l225 241h178l-278 -241h-125z" />
    <glyph glyph-name="B.ss01" horiz-adv-x="1253" 
d="M154 0v1454h514q194 0 312 -102.5t118 -272.5q0 -112 -54 -201t-161 -124q87 -22 149.5 -77.5t91.5 -126t29 -147.5q0 -173 -124.5 -288t-317.5 -115h-557zM289 119h416q144 0 227.5 81t83.5 203q0 114 -77.5 197.5t-221.5 83.5h-428v-565zM289 801h377q143 0 219 78.5
t76 199.5q0 118 -77.5 187t-226.5 69h-368v-534z" />
    <glyph glyph-name="D.ss01" horiz-adv-x="1447" 
d="M154 0v1454h493q206 0 365.5 -92t246.5 -256.5t87 -374.5q0 -216 -88 -382.5t-247 -257.5t-364 -91h-493zM289 119h352q255 0 411 169.5t156 442.5q0 271 -156.5 437.5t-410.5 166.5h-352v-1216z" />
    <glyph glyph-name="Eth.ss01" horiz-adv-x="1468" 
d="M174 0v668h-172v120h172v666h494q206 0 365.5 -92t246 -256.5t86.5 -374.5q0 -216 -88 -382.5t-246.5 -257.5t-363.5 -91h-494zM309 119h353q255 0 411 169.5t156 442.5q0 271 -156.5 437.5t-410.5 166.5h-353v-547h406v-120h-406v-549z" />
    <glyph glyph-name="Dcaron.ss01" horiz-adv-x="1447" 
d="M154 0v1454h493q206 0 365.5 -92t246.5 -256.5t87 -374.5q0 -216 -88 -382.5t-247 -257.5t-364 -91h-493zM289 119h352q255 0 411 169.5t156 442.5q0 271 -156.5 437.5t-410.5 166.5h-352v-1216zM324 1802h131l147 -153h29l147 153h131l-209 -241h-165z" />
    <glyph glyph-name="Dcroat.ss01" horiz-adv-x="1468" 
d="M174 0v668h-172v120h172v666h494q206 0 365.5 -92t246 -256.5t86.5 -374.5q0 -216 -88 -382.5t-246.5 -257.5t-363.5 -91h-494zM309 119h353q255 0 411 169.5t156 442.5q0 271 -156.5 437.5t-410.5 166.5h-353v-547h406v-120h-406v-549z" />
    <glyph glyph-name="E.ss01" horiz-adv-x="1114" 
d="M154 0v1454h856v-119h-721v-544h645v-121h-645v-551h731v-119h-866z" />
    <glyph glyph-name="Eacute.ss01" horiz-adv-x="1114" 
d="M467 1561l225 241h178l-278 -241h-125zM154 0v1454h856v-119h-721v-544h645v-121h-645v-551h731v-119h-866z" />
    <glyph glyph-name="Ebreve.ss01" horiz-adv-x="1114" 
d="M586 1552q-127 0 -204.5 61t-86.5 189h113q19 -153 178 -153q160 0 180 153h113q-10 -129 -88.5 -189.5t-204.5 -60.5zM154 0v1454h856v-119h-721v-544h645v-121h-645v-551h731v-119h-866z" />
    <glyph glyph-name="Ecaron.ss01" horiz-adv-x="1114" 
d="M748 1802h131l-209 -241h-166l-211 241h131l147 -153h29zM154 0v1454h856v-119h-721v-544h645v-121h-645v-551h731v-119h-866z" />
    <glyph glyph-name="Ecircumflex.ss01" horiz-adv-x="1114" 
d="M748 1561l-148 153h-29l-147 -153h-131l211 241h166l209 -241h-131zM154 0v1454h856v-119h-721v-544h645v-121h-645v-551h731v-119h-866z" />
    <glyph glyph-name="Edieresis.ss01" horiz-adv-x="1114" 
d="M711 1583v197h133v-197h-133zM154 0v1454h856v-119h-721v-544h645v-121h-645v-551h731v-119h-866zM328 1583v197h133v-197h-133z" />
    <glyph glyph-name="Edotaccent.ss01" horiz-adv-x="1114" 
d="M514 1579v207h145v-207h-145zM154 0v1454h856v-119h-721v-544h645v-121h-645v-551h731v-119h-866z" />
    <glyph glyph-name="Egrave.ss01" horiz-adv-x="1114" 
d="M586 1561l-279 241h178l226 -241h-125zM154 0v1454h856v-119h-721v-544h645v-121h-645v-551h731v-119h-866z" />
    <glyph glyph-name="Emacron.ss01" horiz-adv-x="1114" 
d="M268 1737h635v-109h-635v109zM154 0v1454h856v-119h-721v-544h645v-121h-645v-551h731v-119h-866z" />
    <glyph glyph-name="Eogonek.ss01" horiz-adv-x="1114" 
d="M946 -369q-111 0 -165 46t-54 114q0 127 127 209h-700v1454h856v-119h-721v-544h645v-121h-645v-551h731v-119h-2q-174 -80 -174 -170q0 -80 117 -80h57v-119h-72z" />
    <glyph glyph-name="uni1EBC.ss01" horiz-adv-x="1114" 
d="M231 1567q6 99 61.5 166t143.5 67q45 0 91 -21t77 -46.5t68 -46.5t67 -21q48 0 73.5 31t31.5 100h110q-5 -97 -60.5 -165t-141.5 -68q-45 0 -91 21t-77 46.5t-68 46.5t-67 21q-50 0 -74.5 -30.5t-30.5 -100.5h-113zM154 0v1454h856v-119h-721v-544h645v-121h-645v-551
h731v-119h-866z" />
    <glyph glyph-name="F.ss01" horiz-adv-x="1124" 
d="M289 0h-135v1454h856v-119h-721v-544h643v-121h-643v-670z" />
    <glyph glyph-name="G.ss01" horiz-adv-x="1632" 
d="M803 -20q-139 0 -264.5 50t-222.5 142.5t-154.5 236.5t-57.5 320q0 173 59 316.5t158.5 236t227.5 143t268 50.5q135 0 252.5 -39.5t200.5 -107t138 -153.5t77 -182h-146q-19 70 -60 132t-104 114.5t-155 83.5t-201 31q-115 0 -218 -41.5t-183.5 -118t-128 -197
t-47.5 -268.5t47.5 -269.5t127.5 -199t183.5 -119t218.5 -41.5q148 0 272.5 65t197.5 182.5t73 262.5v6h-586v119h711v-735h-103l-10 324q-79 -161 -228.5 -252.5t-342.5 -91.5z" />
    <glyph glyph-name="Gbreve.ss01" horiz-adv-x="1632" 
d="M803 -20q-139 0 -264.5 50t-222.5 142.5t-154.5 236.5t-57.5 320q0 173 59 316.5t158.5 236t227.5 143t268 50.5q135 0 252.5 -39.5t200.5 -107t138 -153.5t77 -182h-146q-19 70 -60 132t-104 114.5t-155 83.5t-201 31q-115 0 -218 -41.5t-183.5 -118t-128 -197
t-47.5 -268.5t47.5 -269.5t127.5 -199t183.5 -119t218.5 -41.5q148 0 272.5 65t197.5 182.5t73 262.5v6h-586v119h711v-735h-103l-10 324q-79 -161 -228.5 -252.5t-342.5 -91.5zM639 1802q19 -153 178 -153q160 0 180 153h113q-10 -129 -88.5 -189.5t-204.5 -60.5
q-127 0 -204.5 61t-86.5 189h113z" />
    <glyph glyph-name="Gcircumflex.ss01" horiz-adv-x="1632" 
d="M803 -20q-139 0 -264.5 50t-222.5 142.5t-154.5 236.5t-57.5 320q0 173 59 316.5t158.5 236t227.5 143t268 50.5q135 0 252.5 -39.5t200.5 -107t138 -153.5t77 -182h-146q-19 70 -60 132t-104 114.5t-155 83.5t-201 31q-115 0 -218 -41.5t-183.5 -118t-128 -197
t-47.5 -268.5t47.5 -269.5t127.5 -199t183.5 -119t218.5 -41.5q148 0 272.5 65t197.5 182.5t73 262.5v6h-586v119h711v-735h-103l-10 324q-79 -161 -228.5 -252.5t-342.5 -91.5zM524 1561l211 241h166l209 -241h-131l-148 153h-28l-148 -153h-131z" />
    <glyph glyph-name="uni0122.ss01" horiz-adv-x="1632" 
d="M803 -20q-139 0 -264.5 50t-222.5 142.5t-154.5 236.5t-57.5 320q0 173 59 316.5t158.5 236t227.5 143t268 50.5q135 0 252.5 -39.5t200.5 -107t138 -153.5t77 -182h-146q-19 70 -60 132t-104 114.5t-155 83.5t-201 31q-115 0 -218 -41.5t-183.5 -118t-128 -197
t-47.5 -268.5t47.5 -269.5t127.5 -199t183.5 -119t218.5 -41.5q148 0 272.5 65t197.5 182.5t73 262.5v6h-586v119h711v-735h-103l-10 324q-79 -161 -228.5 -252.5t-342.5 -91.5zM680 -430l61 336h140l-101 -336h-100z" />
    <glyph glyph-name="Gdotaccent.ss01" horiz-adv-x="1632" 
d="M803 -20q-139 0 -264.5 50t-222.5 142.5t-154.5 236.5t-57.5 320q0 173 59 316.5t158.5 236t227.5 143t268 50.5q135 0 252.5 -39.5t200.5 -107t138 -153.5t77 -182h-146q-19 70 -60 132t-104 114.5t-155 83.5t-201 31q-115 0 -218 -41.5t-183.5 -118t-128 -197
t-47.5 -268.5t47.5 -269.5t127.5 -199t183.5 -119t218.5 -41.5q148 0 272.5 65t197.5 182.5t73 262.5v6h-586v119h711v-735h-103l-10 324q-79 -161 -228.5 -252.5t-342.5 -91.5zM748 1579v207h145v-207h-145z" />
    <glyph glyph-name="M.ss01" horiz-adv-x="1781" 
d="M283 0h-129v1454h278l305 -946l125 -381h58l124 381l306 946h278v-1454h-129v1327h-61l-127 -395l-303 -932h-234l-303 932l-127 395h-61v-1327z" />
    <glyph glyph-name="N.ss01" horiz-adv-x="1402" 
d="M154 0v1454h268l467 -975l166 -354h63v1329h131v-1454h-266l-469 975l-166 354h-63v-1329h-131z" />
    <glyph glyph-name="Nacute.ss01" horiz-adv-x="1402" 
d="M154 0v1454h268l467 -975l166 -354h63v1329h131v-1454h-266l-469 975l-166 354h-63v-1329h-131zM584 1561l225 241h178l-278 -241h-125z" />
    <glyph glyph-name="Ncaron.ss01" horiz-adv-x="1402" 
d="M154 0v1454h268l467 -975l166 -354h63v1329h131v-1454h-266l-469 975l-166 354h-63v-1329h-131zM410 1802h131l147 -153h29l147 153h131l-209 -241h-165z" />
    <glyph glyph-name="uni0145.ss01" horiz-adv-x="1402" 
d="M154 0v1454h268l467 -975l166 -354h63v1329h131v-1454h-266l-469 975l-166 354h-63v-1329h-131zM567 -430l62 336h139l-100 -336h-101z" />
    <glyph glyph-name="Eng.ss01" horiz-adv-x="1402" 
d="M784 -369v121h334v248h-135l-469 975l-164 352h-65v-1327h-131v1454h266l469 -975l164 -352h65v1327h131v-1728q0 -41 -26.5 -68t-67.5 -27h-371z" />
    <glyph glyph-name="Ntilde.ss01" horiz-adv-x="1402" 
d="M154 0v1454h268l467 -975l166 -354h63v1329h131v-1454h-266l-469 975l-166 354h-63v-1329h-131zM348 1567q6 99 61.5 166t143.5 67q45 0 91 -21t77 -46.5t68 -46.5t67 -21q48 0 73.5 31t31.5 100h110q-5 -97 -60.5 -165t-142.5 -68q-45 0 -91 21t-77 46.5t-68 46.5
t-67 21q-50 0 -74 -30.5t-30 -100.5h-113z" />
    <glyph glyph-name="P.ss01" horiz-adv-x="1202" 
d="M154 0v1454h514q195 0 316.5 -110t121.5 -297q0 -195 -120 -305.5t-314 -110.5h-383v-631h-135zM289 750h391q132 0 210.5 80.5t78.5 216.5q0 133 -83 210.5t-218 77.5h-379v-585z" />
    <glyph glyph-name="Q.ss01" horiz-adv-x="1636" 
d="M817 -20q-112 0 -217 31.5t-195 94.5t-158 151.5t-106.5 209.5t-38.5 260q0 173 59.5 317t159 237t228 143.5t268.5 50.5q141 0 269.5 -50.5t228.5 -143.5t159.5 -236t59.5 -316q0 -180 -61 -323t-170 -242l217 -240h-170l-148 162q-174 -106 -385 -106zM240 727
q0 -118 31 -219.5t85.5 -175.5t127.5 -127t157.5 -79t175.5 -26q163 0 299 82l-233 258h170l164 -182q180 175 180 471q0 146 -48 266t-128.5 197.5t-184.5 119.5t-219 42q-114 0 -217.5 -42.5t-184 -120t-128 -198t-47.5 -266.5z" />
    <glyph glyph-name="R.ss01" horiz-adv-x="1298" 
d="M154 0v1454h553q198 0 320 -109t122 -298q0 -164 -88.5 -271t-243.5 -137l397 -639h-159l-381 631h-385v-631h-135zM289 752h432q139 0 215 79t76 216q0 136 -81 212t-224 76h-418v-583z" />
    <glyph glyph-name="Racute.ss01" horiz-adv-x="1298" 
d="M154 0v1454h553q198 0 320 -109t122 -298q0 -164 -88.5 -271t-243.5 -137l397 -639h-159l-381 631h-385v-631h-135zM289 752h432q139 0 215 79t76 216q0 136 -81 212t-224 76h-418v-583zM473 1561l225 241h179l-279 -241h-125z" />
    <glyph glyph-name="Rcaron.ss01" horiz-adv-x="1298" 
d="M154 0v1454h553q198 0 320 -109t122 -298q0 -164 -88.5 -271t-243.5 -137l397 -639h-159l-381 631h-385v-631h-135zM289 752h432q139 0 215 79t76 216q0 136 -81 212t-224 76h-418v-583zM297 1802h131l147 -153h29l148 153h131l-209 -241h-166z" />
    <glyph glyph-name="uni0156.ss01" horiz-adv-x="1298" 
d="M154 0v1454h553q198 0 320 -109t122 -298q0 -164 -88.5 -271t-243.5 -137l397 -639h-159l-381 631h-385v-631h-135zM289 752h432q139 0 215 79t76 216q0 136 -81 212t-224 76h-418v-583zM494 -430l61 336h139l-100 -336h-100z" />
    <glyph glyph-name="uni1E9E.ss01" horiz-adv-x="1249" 
d="M154 0v1454h913v-158l-377 -491h31q196 -3 314 -116t118 -286q0 -175 -123.5 -289t-318.5 -114h-219v119h213q146 0 228.5 80.5t82.5 203.5q0 118 -78 199.5t-221 81.5h-176v119l377 491v41h-629v-1335h-135z" />
    <glyph glyph-name="G.ss09" horiz-adv-x="1589" 
d="M797 0q-210 0 -369 94t-242.5 258.5t-83.5 376.5q0 174 56.5 317t152.5 235.5t221 143t265 50.5q135 0 249.5 -39.5t193 -107.5t130 -153t72.5 -182h-146q-19 71 -56.5 132.5t-96.5 114.5t-148 83.5t-198 30.5q-114 0 -214 -41.5t-177 -118.5t-121.5 -197t-44.5 -268
q0 -278 150.5 -444t406.5 -166h514v497h-557v119h690v-641q0 -41 -26 -67.5t-66 -26.5h-555z" />
    <glyph glyph-name="Gbreve.ss09" horiz-adv-x="1589" 
d="M797 0q-210 0 -369 94t-242.5 258.5t-83.5 376.5q0 174 56.5 317t152.5 235.5t221 143t265 50.5q135 0 249.5 -39.5t193 -107.5t130 -153t72.5 -182h-146q-19 71 -56.5 132.5t-96.5 114.5t-148 83.5t-198 30.5q-114 0 -214 -41.5t-177 -118.5t-121.5 -197t-44.5 -268
q0 -278 150.5 -444t406.5 -166h514v497h-557v119h690v-641q0 -41 -26 -67.5t-66 -26.5h-555zM618 1802q19 -153 179 -153t180 153h113q-10 -129 -88.5 -189.5t-204.5 -60.5q-127 0 -204.5 61t-86.5 189h112z" />
    <glyph glyph-name="Gcircumflex.ss09" horiz-adv-x="1589" 
d="M797 0q-210 0 -369 94t-242.5 258.5t-83.5 376.5q0 174 56.5 317t152.5 235.5t221 143t265 50.5q135 0 249.5 -39.5t193 -107.5t130 -153t72.5 -182h-146q-19 71 -56.5 132.5t-96.5 114.5t-148 83.5t-198 30.5q-114 0 -214 -41.5t-177 -118.5t-121.5 -197t-44.5 -268
q0 -278 150.5 -444t406.5 -166h514v497h-557v119h690v-641q0 -41 -26 -67.5t-66 -26.5h-555zM504 1561l211 241h166l209 -241h-132l-147 153h-29l-147 -153h-131z" />
    <glyph glyph-name="uni0122.ss09" horiz-adv-x="1589" 
d="M797 0q-210 0 -369 94t-242.5 258.5t-83.5 376.5q0 174 56.5 317t152.5 235.5t221 143t265 50.5q135 0 249.5 -39.5t193 -107.5t130 -153t72.5 -182h-146q-19 71 -56.5 132.5t-96.5 114.5t-148 83.5t-198 30.5q-114 0 -214 -41.5t-177 -118.5t-121.5 -197t-44.5 -268
q0 -278 150.5 -444t406.5 -166h514v497h-557v119h690v-641q0 -41 -26 -67.5t-66 -26.5h-555zM705 -430l61 336h139l-100 -336h-100z" />
    <glyph glyph-name="Gdotaccent.ss09" horiz-adv-x="1589" 
d="M797 0q-210 0 -369 94t-242.5 258.5t-83.5 376.5q0 174 56.5 317t152.5 235.5t221 143t265 50.5q135 0 249.5 -39.5t193 -107.5t130 -153t72.5 -182h-146q-19 71 -56.5 132.5t-96.5 114.5t-148 83.5t-198 30.5q-114 0 -214 -41.5t-177 -118.5t-121.5 -197t-44.5 -268
q0 -278 150.5 -444t406.5 -166h514v497h-557v119h690v-641q0 -41 -26 -67.5t-66 -26.5h-555zM727 1579v207h145v-207h-145z" />
    <glyph glyph-name="G.ss01.ss08" horiz-adv-x="1601" 
d="M819 -20q-141 0 -268.5 50t-227.5 142.5t-159.5 237t-59.5 319.5q0 173 59 316.5t158.5 236t227.5 143t268 50.5q135 0 252.5 -39.5t200.5 -107t138 -153.5t77 -182h-146q-19 70 -60 132t-104 114.5t-155 83.5t-201 31q-115 0 -218 -41.5t-183.5 -118t-128 -197
t-47.5 -268.5t47.5 -269.5t127.5 -199t183.5 -119t218.5 -41.5q250 0 391.5 122t141.5 349v45h-576v119h711v-166q0 -180 -87 -314.5t-237.5 -204.5t-343.5 -70z" />
    <glyph glyph-name="Gbreve.ss01.ss08" horiz-adv-x="1601" 
d="M819 -20q-141 0 -268.5 50t-227.5 142.5t-159.5 237t-59.5 319.5q0 173 59 316.5t158.5 236t227.5 143t268 50.5q135 0 252.5 -39.5t200.5 -107t138 -153.5t77 -182h-146q-19 70 -60 132t-104 114.5t-155 83.5t-201 31q-115 0 -218 -41.5t-183.5 -118t-128 -197
t-47.5 -268.5t47.5 -269.5t127.5 -199t183.5 -119t218.5 -41.5q250 0 391.5 122t141.5 349v45h-576v119h711v-166q0 -180 -87 -314.5t-237.5 -204.5t-343.5 -70zM639 1802q19 -153 178 -153q160 0 180 153h113q-10 -129 -88.5 -189.5t-204.5 -60.5q-127 0 -204.5 61
t-86.5 189h113z" />
    <glyph glyph-name="Gcircumflex.ss01.ss08" horiz-adv-x="1601" 
d="M819 -20q-141 0 -268.5 50t-227.5 142.5t-159.5 237t-59.5 319.5q0 173 59 316.5t158.5 236t227.5 143t268 50.5q135 0 252.5 -39.5t200.5 -107t138 -153.5t77 -182h-146q-19 70 -60 132t-104 114.5t-155 83.5t-201 31q-115 0 -218 -41.5t-183.5 -118t-128 -197
t-47.5 -268.5t47.5 -269.5t127.5 -199t183.5 -119t218.5 -41.5q250 0 391.5 122t141.5 349v45h-576v119h711v-166q0 -180 -87 -314.5t-237.5 -204.5t-343.5 -70zM524 1561l211 241h166l209 -241h-131l-148 153h-28l-148 -153h-131z" />
    <glyph glyph-name="uni0122.ss01.ss08" horiz-adv-x="1601" 
d="M819 -20q-141 0 -268.5 50t-227.5 142.5t-159.5 237t-59.5 319.5q0 173 59 316.5t158.5 236t227.5 143t268 50.5q135 0 252.5 -39.5t200.5 -107t138 -153.5t77 -182h-146q-19 70 -60 132t-104 114.5t-155 83.5t-201 31q-115 0 -218 -41.5t-183.5 -118t-128 -197
t-47.5 -268.5t47.5 -269.5t127.5 -199t183.5 -119t218.5 -41.5q250 0 391.5 122t141.5 349v45h-576v119h711v-166q0 -180 -87 -314.5t-237.5 -204.5t-343.5 -70zM684 -430l61 336h140l-101 -336h-100z" />
    <glyph glyph-name="Gdotaccent.ss01.ss08" horiz-adv-x="1601" 
d="M819 -20q-141 0 -268.5 50t-227.5 142.5t-159.5 237t-59.5 319.5q0 173 59 316.5t158.5 236t227.5 143t268 50.5q135 0 252.5 -39.5t200.5 -107t138 -153.5t77 -182h-146q-19 70 -60 132t-104 114.5t-155 83.5t-201 31q-115 0 -218 -41.5t-183.5 -118t-128 -197
t-47.5 -268.5t47.5 -269.5t127.5 -199t183.5 -119t218.5 -41.5q250 0 391.5 122t141.5 349v45h-576v119h711v-166q0 -180 -87 -314.5t-237.5 -204.5t-343.5 -70zM748 1579v207h145v-207h-145z" />
    <glyph glyph-name="a.dnom" horiz-adv-x="684" 
d="M276 0q-104 0 -164.5 42.5t-60.5 125.5q0 86 59 125.5t189 50.5l201 16v43q0 127 -154 127q-150 0 -162 -116h-106q4 95 79.5 146.5t190.5 51.5q119 0 187.5 -54t68.5 -159v-336q0 -28 -18.5 -45.5t-46.5 -17.5h-263zM162 170q0 -92 133 -92h205v211l-176 -19
q-80 -7 -121 -29t-41 -71z" />
    <glyph glyph-name="b.dnom" horiz-adv-x="724" 
d="M156 0q-28 0 -47 18t-19 45v740h109v-203h174q131 0 214 -82.5t83 -218.5t-83 -217.5t-214 -81.5h-217zM199 88h155q95 0 149 56.5t54 154.5q0 99 -53.5 156t-149.5 57h-155v-424z" />
    <glyph glyph-name="c.dnom" horiz-adv-x="712" 
d="M369 -12q-134 0 -224 85t-90 226q0 143 90 228t224 85q119 0 196 -61t101 -150h-115q-16 49 -62 86t-120 37q-87 0 -144 -60.5t-57 -164.5q0 -103 57 -164t144 -61q73 0 119.5 37t62.5 86h115q-24 -88 -101.5 -148.5t-195.5 -60.5z" />
    <glyph glyph-name="d.dnom" horiz-adv-x="724" 
d="M350 0q-130 0 -213.5 81.5t-83.5 217.5t83 218.5t214 82.5h174v203h111v-740q0 -27 -19.5 -45t-46.5 -18h-219zM166 299q0 -98 54 -154.5t149 -56.5h155v424h-155q-95 0 -149 -57t-54 -156z" />
    <glyph glyph-name="e.dnom" horiz-adv-x="733" 
d="M367 -12q-137 0 -224.5 86.5t-87.5 224.5q0 137 88 225t224 88q142 0 231 -92.5t82 -245.5h-514q8 -91 62.5 -146.5t140.5 -55.5q64 0 109.5 31t66.5 85h117q-28 -91 -106.5 -145.5t-188.5 -54.5zM168 350h401q-12 83 -66 132.5t-136 49.5q-78 0 -132.5 -50.5
t-66.5 -131.5z" />
    <glyph glyph-name="f.dnom" horiz-adv-x="448" 
d="M139 739q0 29 19 46.5t47 17.5h209v-86h-164v-117h164v-90h-164v-510h-111v510h-104v90h104v139z" />
    <glyph glyph-name="g.dnom" horiz-adv-x="724" 
d="M135 -203v86h389v123h-174q-130 0 -213.5 81.5t-83.5 213.5q0 135 84 217t213 82h219q27 0 46.5 -19t19.5 -46v-674q0 -28 -20 -46t-50 -18h-430zM166 301q0 -95 54 -152t149 -57h155v420h-155q-94 0 -148.5 -57t-54.5 -154z" />
    <glyph glyph-name="h.dnom" horiz-adv-x="702" 
d="M514 354q0 158 -162 158h-151v-512h-111v803h111v-203h188q105 0 169.5 -61.5t64.5 -173.5v-365h-109v354z" />
    <glyph glyph-name="i.dnom" horiz-adv-x="290" 
d="M90 0v600h111v-600h-111zM90 682v121h111v-121h-111z" />
    <glyph glyph-name="j.dnom" horiz-adv-x="290" 
d="M-63 -203v86h153v717h111v-739q0 -28 -19.5 -46t-48.5 -18h-196zM90 682v121h111v-121h-111z" />
    <glyph glyph-name="k.dnom" horiz-adv-x="655" 
d="M424 315l197 -307v-8h-121l-170 279h-129v-279h-111v803h111v-434h129l170 231h121v-8l-197 -262v-15z" />
    <glyph glyph-name="l.dnom" horiz-adv-x="290" 
d="M201 0h-111v803h111v-803z" />
    <glyph glyph-name="m.dnom" horiz-adv-x="1040" 
d="M90 535q0 29 19 47t47 18h567q103 0 170.5 -65t67.5 -173v-362h-109v354q0 77 -42.5 117.5t-117.5 40.5h-112v-512h-111v512h-270v-512h-109v535z" />
    <glyph glyph-name="n.dnom" horiz-adv-x="700" 
d="M90 535q0 29 19 47t47 18h227q108 0 173 -63t65 -175v-362h-109v354q0 158 -160 158h-153v-512h-109v535z" />
    <glyph glyph-name="o.dnom" horiz-adv-x="739" 
d="M369 -12q-134 0 -224 85t-90 226q0 143 90 228t224 85q136 0 225.5 -85t89.5 -228q0 -142 -89 -226.5t-226 -84.5zM168 299q0 -103 57 -164t144 -61q89 0 146.5 60.5t57.5 164.5t-57.5 164.5t-146.5 60.5q-87 0 -144 -60.5t-57 -164.5z" />
    <glyph glyph-name="p.dnom" horiz-adv-x="724" 
d="M90 535q0 28 19 46.5t47 18.5h217q131 0 214 -82.5t83 -218.5t-83 -217.5t-214 -81.5h-174v-203h-109v738zM199 88h155q95 0 149 56.5t54 154.5q0 99 -53.5 156t-149.5 57h-155v-424z" />
    <glyph glyph-name="q.dnom" horiz-adv-x="724" 
d="M524 -203v203h-174q-130 0 -213.5 81.5t-83.5 217.5t83 218.5t214 82.5h219q27 0 46.5 -19t19.5 -46v-738h-111zM166 299q0 -98 54 -154.5t149 -56.5h155v424h-155q-96 0 -149.5 -57t-53.5 -156z" />
    <glyph glyph-name="r.dnom" horiz-adv-x="415" 
d="M90 535q0 30 18.5 47.5t47.5 17.5h225v-90h-180v-510h-111v535z" />
    <glyph glyph-name="s.dnom" horiz-adv-x="641" 
d="M322 -12q-120 0 -192.5 51t-78.5 149h113q14 -120 162 -120q66 0 108.5 23.5t42.5 70.5q0 36 -30 59t-75.5 32t-98 22t-98 27.5t-75.5 49t-30 86.5q0 81 67.5 127.5t177.5 46.5q119 0 186.5 -52t73.5 -146h-110q-6 121 -150 121q-61 0 -99 -23.5t-38 -62.5
q0 -28 22.5 -47.5t59 -30.5t80 -21t87 -23t80 -31t59 -50.5t22.5 -77.5q0 -86 -73 -133t-193 -47z" />
    <glyph glyph-name="t.dnom" horiz-adv-x="440" 
d="M391 600v-90h-149v-424h149v-86h-194q-27 0 -45.5 18t-18.5 45v447h-98v90h98v152h109v-152h149z" />
    <glyph glyph-name="u.dnom" horiz-adv-x="677" 
d="M600 66q0 -29 -19 -47.5t-46 -18.5h-218q-108 0 -172.5 63t-64.5 175v362h108v-354q0 -158 160 -158h141v512h111v-534z" />
    <glyph glyph-name="v.dnom" horiz-adv-x="675" 
d="M254 0l-221 590v10h114l121 -350l58 -160h26l58 160l120 350h113v-10l-219 -590h-170z" />
    <glyph glyph-name="w.dnom" horiz-adv-x="1040" 
d="M215 0l-180 588v12h110l138 -510h24l39 160l88 350h170l90 -350l37 -160h27l137 510h111v-12l-181 -588h-166l-86 350l-41 160h-24l-41 -160l-86 -350h-166z" />
    <glyph glyph-name="x.dnom" horiz-adv-x="686" 
d="M471 297l180 -289v-8h-119l-153 260h-72l-153 -260h-119v8l178 289v20l-178 275v8h117l155 -250h72l156 250h116v-8l-180 -275v-20z" />
    <glyph glyph-name="y.dnom" horiz-adv-x="675" 
d="M106 -203v86h179l41 121h-74l-219 586v10h114l121 -350l58 -160h26l56 160l122 350h113v-10l-274 -733q-22 -60 -84 -60h-179z" />
    <glyph glyph-name="z.dnom" horiz-adv-x="614" 
d="M47 0v80l379 430h-367v90h500v-80l-379 -432h385v-88h-518z" />
    <glyph glyph-name="a.numr" horiz-adv-x="684" 
d="M276 651q-104 0 -164.5 42.5t-60.5 125.5q0 84 59.5 124.5t188.5 51.5l201 17v43q0 127 -154 127q-150 0 -162 -117h-106q4 95 79.5 147t190.5 52q119 0 187.5 -54t68.5 -159v-336q0 -28 -18.5 -46t-46.5 -18h-263zM162 821q0 -92 133 -92h205v211l-176 -18
q-80 -7 -121 -29.5t-41 -71.5z" />
    <glyph glyph-name="b.numr" horiz-adv-x="724" 
d="M156 651q-28 0 -47 18t-19 46v739h109v-203h174q131 0 214 -82.5t83 -218.5t-83 -217.5t-214 -81.5h-217zM199 739h155q95 0 149 56.5t54 154.5q0 99 -53.5 156t-149.5 57h-155v-424z" />
    <glyph glyph-name="c.numr" horiz-adv-x="712" 
d="M369 639q-134 0 -224 85t-90 226q0 143 90 228.5t224 85.5q119 0 196 -61t101 -150h-115q-16 49 -62 86t-120 37q-87 0 -144 -61t-57 -165q0 -103 57 -164t144 -61q73 0 119.5 37t62.5 86h115q-24 -88 -101.5 -148.5t-195.5 -60.5z" />
    <glyph glyph-name="d.numr" horiz-adv-x="724" 
d="M350 651q-130 0 -213.5 81.5t-83.5 217.5t83 218.5t214 82.5h174v203h111v-739q0 -27 -19.5 -45.5t-46.5 -18.5h-219zM166 950q0 -98 54 -154.5t149 -56.5h155v424h-155q-95 0 -149 -57t-54 -156z" />
    <glyph glyph-name="e.numr" horiz-adv-x="733" 
d="M367 639q-137 0 -224.5 86.5t-87.5 224.5t88.5 226t223.5 88q142 0 231 -92.5t82 -245.5h-514q8 -92 62.5 -147.5t140.5 -55.5q64 0 109.5 31.5t66.5 85.5h117q-28 -91 -106.5 -146t-188.5 -55zM168 1001h401q-12 83 -66 133t-136 50q-78 0 -132.5 -51t-66.5 -132z" />
    <glyph glyph-name="f.numr" horiz-adv-x="448" 
d="M139 1391q0 29 19 46t47 17h209v-86h-164v-117h164v-90h-164v-510h-111v510h-104v90h104v140z" />
    <glyph glyph-name="g.numr" horiz-adv-x="724" 
d="M135 449v86h389v122h-174q-130 0 -213.5 81.5t-83.5 213.5q0 135 84 217t213 82h219q27 0 46.5 -19t19.5 -46v-674q0 -27 -20 -45t-50 -18h-430zM166 952q0 -95 54 -152t149 -57h155v420h-155q-94 0 -148.5 -57t-54.5 -154z" />
    <glyph glyph-name="h.numr" horiz-adv-x="702" 
d="M514 1006q0 157 -162 157h-151v-512h-111v803h111v-203h188q105 0 169.5 -61.5t64.5 -173.5v-365h-109v355z" />
    <glyph glyph-name="i.numr" horiz-adv-x="290" 
d="M90 651v600h111v-600h-111zM90 1333v121h111v-121h-111z" />
    <glyph glyph-name="j.numr" horiz-adv-x="290" 
d="M-63 449v86h153v716h111v-739q0 -28 -19.5 -45.5t-48.5 -17.5h-196zM90 1333v121h111v-121h-111z" />
    <glyph glyph-name="k.numr" horiz-adv-x="655" 
d="M424 967l197 -308v-8h-121l-170 279h-129v-279h-111v803h111v-434h129l170 231h121v-8l-197 -262v-14z" />
    <glyph glyph-name="l.numr" horiz-adv-x="290" 
d="M201 651h-111v803h111v-803z" />
    <glyph glyph-name="m.numr" horiz-adv-x="1040" 
d="M90 1186q0 29 19 47t47 18h567q104 0 171 -64.5t67 -172.5v-363h-109v355q0 77 -42.5 117t-117.5 40h-112v-512h-111v512h-270v-512h-109v535z" />
    <glyph glyph-name="n.numr" horiz-adv-x="700" 
d="M90 1186q0 29 19 47t47 18h227q108 0 173 -62.5t65 -174.5v-363h-109v355q0 157 -160 157h-153v-512h-109v535z" />
    <glyph glyph-name="o.numr" horiz-adv-x="739" 
d="M369 639q-134 0 -224 85t-90 226q0 143 90 228.5t224 85.5q136 0 225.5 -85.5t89.5 -228.5q0 -142 -89 -226.5t-226 -84.5zM168 950q0 -103 57 -164t144 -61q89 0 146.5 60.5t57.5 164.5q0 105 -57.5 165.5t-146.5 60.5q-87 0 -144 -61t-57 -165z" />
    <glyph glyph-name="p.numr" horiz-adv-x="724" 
d="M90 1186q0 28 19 46.5t47 18.5h217q131 0 214 -82.5t83 -218.5t-83 -217.5t-214 -81.5h-174v-202h-109v737zM199 739h155q95 0 149 56.5t54 154.5q0 99 -53.5 156t-149.5 57h-155v-424z" />
    <glyph glyph-name="q.numr" horiz-adv-x="724" 
d="M524 449v202h-174q-130 0 -213.5 81.5t-83.5 217.5t83 218.5t214 82.5h219q27 0 46.5 -19t19.5 -46v-737h-111zM166 950q0 -98 54 -154.5t149 -56.5h155v424h-155q-96 0 -149.5 -57t-53.5 -156z" />
    <glyph glyph-name="r.numr" horiz-adv-x="415" 
d="M90 1186q0 30 18.5 47.5t47.5 17.5h225v-90h-180v-510h-111v535z" />
    <glyph glyph-name="s.numr" horiz-adv-x="641" 
d="M322 639q-120 0 -192.5 51.5t-78.5 149.5h113q14 -121 162 -121q66 0 108.5 23.5t42.5 70.5q0 42 -42 66t-101.5 35.5t-119.5 26t-102 51.5t-42 98q0 81 67.5 127.5t177.5 46.5q119 0 186.5 -52.5t73.5 -146.5h-110q-6 121 -150 121q-61 0 -99 -23.5t-38 -62.5
q0 -28 22.5 -47.5t59 -30.5t80 -21t87 -23t80 -31t59 -50.5t22.5 -77.5q0 -86 -73 -133t-193 -47z" />
    <glyph glyph-name="t.numr" horiz-adv-x="440" 
d="M391 1251v-90h-149v-424h149v-86h-194q-27 0 -45.5 18.5t-18.5 45.5v446h-98v90h98v152h109v-152h149z" />
    <glyph glyph-name="u.numr" horiz-adv-x="677" 
d="M600 717q0 -29 -19 -47.5t-46 -18.5h-218q-108 0 -172.5 63t-64.5 175v362h108v-354q0 -158 160 -158h141v512h111v-534z" />
    <glyph glyph-name="v.numr" horiz-adv-x="675" 
d="M254 651l-221 590v10h114l121 -350l58 -160h26l58 160l120 350h113v-10l-219 -590h-170z" />
    <glyph glyph-name="w.numr" horiz-adv-x="1040" 
d="M215 651l-180 588v12h110l138 -510h24l39 160l88 350h170l90 -350l37 -160h27l137 510h111v-12l-181 -588h-166l-86 350l-41 160h-24l-41 -160l-86 -350h-166z" />
    <glyph glyph-name="x.numr" horiz-adv-x="686" 
d="M471 948l180 -289v-8h-119l-153 260h-72l-153 -260h-119v8l178 289v21l-178 274v8h117l155 -250h72l156 250h116v-8l-180 -274v-21z" />
    <glyph glyph-name="y.numr" horiz-adv-x="675" 
d="M106 449v86h179l41 120h-74l-219 586v10h114l121 -350l58 -160h26l56 160l122 350h113v-10l-274 -733q-22 -59 -84 -59h-179z" />
    <glyph glyph-name="z.numr" horiz-adv-x="614" 
d="M47 651v80l379 430h-367v90h500v-80l-379 -432h385v-88h-518z" />
    <glyph glyph-name="a.dnom.ss01" horiz-adv-x="677" 
d="M274 -12q-100 0 -160.5 48t-60.5 132t59 124.5t185 51.5l195 16v43q0 127 -150 127q-69 0 -110.5 -29.5t-47.5 -86.5h-104q3 95 77.5 146.5t188.5 51.5q116 0 184 -54.5t68 -158.5v-399h-96l-10 90q-73 -102 -218 -102zM162 170q0 -50 37 -76t104 -26q83 0 136 43.5
t53 103.5v72l-170 -19q-85 -7 -122.5 -30.5t-37.5 -67.5z" />
    <glyph glyph-name="b.dnom.ss01" horiz-adv-x="770" 
d="M426 -12q-74 0 -134.5 32.5t-92.5 90.5v-111h-109v803h111v-309q33 56 92.5 87t132.5 31q122 0 205.5 -87.5t83.5 -225.5t-84 -224.5t-205 -86.5zM197 299q0 -103 57 -164t145 -61t145.5 61t57.5 164q0 105 -57 165t-146 60t-145.5 -60t-56.5 -165z" />
    <glyph glyph-name="d.dnom.ss01" horiz-adv-x="770" 
d="M346 -12q-123 0 -207 86.5t-84 224.5t84 225.5t207 87.5q69 0 129 -30t94 -86v307h111v-803h-107v111q-33 -59 -94 -91t-133 -32zM168 299q0 -104 57.5 -164.5t145.5 -60.5t146 60.5t58 164.5t-57.5 164.5t-146.5 60.5q-88 0 -145.5 -60.5t-57.5 -164.5z" />
    <glyph glyph-name="g.dnom.ss01" horiz-adv-x="768" 
d="M139 -203v86h428v246q-34 -59 -94.5 -90t-128.5 -31q-126 0 -208.5 86.5t-82.5 216.5q0 129 83 215t208 86q69 0 130 -32.5t95 -92.5v113h109v-739q0 -28 -19.5 -46t-48.5 -18h-471zM166 311q0 -96 56.5 -156.5t148.5 -60.5t147 61.5t55 155.5t-55 153.5t-147 59.5
t-148.5 -60.5t-56.5 -152.5z" />
    <glyph glyph-name="h.dnom.ss01" horiz-adv-x="712" 
d="M90 0v803h111v-301q60 110 200 110q100 0 166 -64t66 -173v-375h-109v369q0 76 -42.5 115.5t-116.5 39.5q-76 0 -120 -43t-44 -121v-360h-111z" />
    <glyph glyph-name="m.dnom.ss01" horiz-adv-x="1120" 
d="M90 0v600h105v-104h4q56 116 196 116q66 0 119 -30.5t82 -89.5q57 120 213 120q103 0 168 -64t65 -175v-373h-110v369q0 76 -40.5 115.5t-111.5 39.5q-75 0 -116 -43.5t-41 -120.5v-360h-111v369q0 76 -41 115.5t-113 39.5q-73 0 -115 -43t-42 -121v-360h-111z" />
    <glyph glyph-name="n.dnom.ss01" horiz-adv-x="712" 
d="M199 496q60 116 202 116q101 0 166.5 -62.5t65.5 -172.5v-377h-109v369q0 76 -42.5 115.5t-116.5 39.5q-76 0 -120 -43t-44 -121v-360h-111v600h107v-104h2z" />
    <glyph glyph-name="p.dnom.ss01" horiz-adv-x="770" 
d="M90 -203v803h109v-111q32 58 92.5 90.5t132.5 32.5q124 0 207.5 -87t83.5 -226q0 -137 -84 -224t-207 -87q-71 0 -130.5 31t-92.5 87v-309h-111zM197 299q0 -103 57 -164t145 -61t145.5 61t57.5 164q0 105 -57 165t-146 60t-145.5 -60t-56.5 -165z" />
    <glyph glyph-name="q.dnom.ss01" horiz-adv-x="770" 
d="M569 -203v309q-33 -57 -93 -87.5t-132 -30.5q-123 0 -206 86.5t-83 224.5t83.5 225.5t205.5 87.5q72 0 133 -32t94 -91v111h107v-803h-109zM168 299q0 -103 58 -164t145 -61q89 0 146.5 61t57.5 164q0 104 -57.5 164.5t-146.5 60.5t-146 -60t-57 -165z" />
    <glyph glyph-name="r.dnom.ss01" horiz-adv-x="423" 
d="M201 496q23 56 60.5 80t100.5 24h27v-98h-49q-66 0 -102.5 -37.5t-36.5 -112.5v-352h-111v600h107v-104h4z" />
    <glyph glyph-name="u.dnom.ss01" horiz-adv-x="710" 
d="M512 104q-56 -116 -199 -116q-102 0 -166.5 61.5t-64.5 173.5v377h111v-371q0 -75 40.5 -115t112.5 -40q77 0 120.5 43t43.5 121v362h108v-600h-104v104h-2z" />
    <glyph glyph-name="a.numr.ss01" horiz-adv-x="677" 
d="M274 639q-100 0 -160.5 48t-60.5 132t59 124.5t185 51.5l195 17v43q0 127 -150 127q-69 0 -110.5 -30t-47.5 -87h-104q3 95 77.5 147t188.5 52q116 0 184 -54.5t68 -158.5v-400h-96l-10 90q-73 -102 -218 -102zM162 821q0 -50 37 -76t104 -26q83 0 136 43.5t53 103.5v72
l-170 -18q-84 -7 -122 -31t-38 -68z" />
    <glyph glyph-name="b.numr.ss01" horiz-adv-x="770" 
d="M426 639q-74 0 -134.5 32.5t-92.5 90.5v-111h-109v803h111v-309q34 57 93.5 88t131.5 31q122 0 205.5 -87.5t83.5 -226.5q0 -138 -84 -224.5t-205 -86.5zM197 950q0 -103 57 -164t145 -61t145.5 61t57.5 164q0 105 -57 165.5t-146 60.5t-145.5 -60.5t-56.5 -165.5z" />
    <glyph glyph-name="d.numr.ss01" horiz-adv-x="770" 
d="M346 639q-123 0 -207 86.5t-84 224.5t84 226t207 88q69 0 128.5 -30.5t94.5 -86.5v307h111v-803h-107v111q-33 -59 -94 -91t-133 -32zM168 950q0 -104 57.5 -164.5t145.5 -60.5t146 60.5t58 164.5q0 105 -57.5 165.5t-146.5 60.5q-88 0 -145.5 -61t-57.5 -165z" />
    <glyph glyph-name="g.numr.ss01" horiz-adv-x="768" 
d="M139 449v86h428v245q-34 -59 -94.5 -90t-128.5 -31q-125 0 -208 87t-83 217q0 129 83 215t208 86q69 0 130 -32.5t95 -92.5v112h109v-739q0 -28 -19.5 -45.5t-48.5 -17.5h-471zM166 963q0 -96 56.5 -157t148.5 -61t147 62t55 156t-55 153.5t-147 59.5t-148.5 -60.5
t-56.5 -152.5z" />
    <glyph glyph-name="h.numr.ss01" horiz-adv-x="712" 
d="M90 651v803h111v-301q60 111 200 111q100 0 166 -64.5t66 -173.5v-375h-109v369q0 76 -42.5 116t-116.5 40q-76 0 -120 -43t-44 -121v-361h-111z" />
    <glyph glyph-name="m.numr.ss01" horiz-adv-x="1120" 
d="M90 651v600h105v-104h4q57 117 196 117q66 0 119 -31t82 -90q57 121 213 121q102 0 167.5 -64.5t65.5 -175.5v-373h-110v369q0 76 -40.5 116t-111.5 40q-75 0 -116 -43.5t-41 -120.5v-361h-111v369q0 76 -41 116t-113 40q-73 0 -115 -43t-42 -121v-361h-111z" />
    <glyph glyph-name="n.numr.ss01" horiz-adv-x="712" 
d="M199 1147q60 117 202 117q101 0 166.5 -63t65.5 -173v-377h-109v369q0 76 -42.5 116t-116.5 40q-76 0 -120 -43t-44 -121v-361h-111v600h107v-104h2z" />
    <glyph glyph-name="p.numr.ss01" horiz-adv-x="770" 
d="M90 449v802h109v-110q32 58 92.5 90.5t132.5 32.5q124 0 207.5 -87.5t83.5 -226.5q0 -137 -84 -224t-207 -87q-71 0 -130.5 31t-92.5 88v-309h-111zM197 950q0 -103 57 -164t145 -61t145.5 61t57.5 164q0 105 -57 165.5t-146 60.5t-145.5 -60.5t-56.5 -165.5z" />
    <glyph glyph-name="q.numr.ss01" horiz-adv-x="770" 
d="M569 449v309q-33 -57 -93 -88t-132 -31q-123 0 -206 86.5t-83 224.5q0 139 83.5 226.5t205.5 87.5q72 0 133 -32t94 -91v110h107v-802h-109zM168 950q0 -103 58 -164t145 -61q89 0 146.5 61t57.5 164q0 105 -57.5 165.5t-146.5 60.5t-146 -60.5t-57 -165.5z" />
    <glyph glyph-name="r.numr.ss01" horiz-adv-x="423" 
d="M201 1147q23 56 60.5 80t100.5 24h27v-98h-49q-66 0 -102.5 -37t-36.5 -112v-353h-111v600h107v-104h4z" />
    <glyph glyph-name="u.numr.ss01" horiz-adv-x="710" 
d="M512 756q-57 -117 -199 -117q-102 0 -166.5 61.5t-64.5 173.5v377h111v-370q0 -75 40.5 -115.5t112.5 -40.5q77 0 120.5 43t43.5 121v362h108v-600h-104v105h-2z" />
    <glyph glyph-name="a.dnom.ss01.ss02" horiz-adv-x="708" 
d="M268 -12q-96 0 -155.5 48.5t-59.5 131.5q0 85 58 125t182 51l190 16v43q0 65 -39.5 96t-107.5 31q-65 0 -105.5 -29.5t-46.5 -86.5h-104q1 91 75 144.5t185 53.5t178.5 -54.5t67.5 -158.5v-311h84v-88h-131q-22 0 -36 13.5t-14 35.5v55h-2q-32 -56 -89 -86t-130 -30z
M162 170q0 -50 36.5 -76t100.5 -26q78 0 131 43.5t53 103.5v72l-166 -19q-83 -8 -119 -30.5t-36 -67.5z" />
    <glyph glyph-name="a.numr.ss01.ss02" horiz-adv-x="708" 
d="M268 639q-96 0 -155.5 48.5t-59.5 131.5q0 85 58 125t182 51l190 17v43q0 65 -39.5 96t-107.5 31q-65 0 -105.5 -30t-46.5 -87h-104q1 91 75 145t185 54t178.5 -54.5t67.5 -158.5v-312h84v-88h-131q-22 0 -36 13.5t-14 35.5v56h-2q-32 -57 -89 -87t-130 -30zM162 821
q0 -50 36.5 -76t100.5 -26q78 0 131 43.5t53 103.5v72l-166 -18q-82 -8 -118.5 -31t-36.5 -68z" />
    <glyph glyph-name="i.loclTRK" horiz-adv-x="434" 
d="M152 0v1085h131v-1085h-131zM152 1239v215h131v-215h-131z" />
    <glyph glyph-name="uni006A0301" horiz-adv-x="434" 
d="M-129 -369v121h281v1333h131v-1355q0 -46 -26.5 -72.5t-72.5 -26.5h-313zM113 1200l225 254h180l-280 -254h-125z" />
    <glyph glyph-name="r.calt" horiz-adv-x="706" 
d="M150 991q0 41 26.5 67.5t67.5 26.5h372v-118h-333v-967h-133v991z" />
    <glyph glyph-name="racute.calt" horiz-adv-x="706" 
d="M150 991q0 41 26.5 67.5t67.5 26.5h372v-118h-333v-967h-133v991zM279 1200l225 254h180l-281 -254h-124z" />
    <glyph glyph-name="rcaron.calt" horiz-adv-x="706" 
d="M150 991q0 41 26.5 67.5t67.5 26.5h372v-118h-333v-967h-133v991zM90 1454h131l148 -166h28l148 166h131l-209 -254h-166z" />
    <glyph glyph-name="uni0157.calt" horiz-adv-x="706" 
d="M150 991q0 41 26.5 67.5t67.5 26.5h372v-118h-333v-967h-133v991zM82 -430l61 336h140l-101 -336h-100z" />
    <glyph glyph-name="a.ss01" horiz-adv-x="1148" 
d="M489 -20q-174 0 -280.5 84.5t-106.5 236.5q0 80 28.5 137t86.5 92t130.5 54t176.5 30l357 37v86q0 129 -78 192.5t-215 63.5q-135 0 -215 -60.5t-92 -174.5h-136q7 161 132 254.5t315 93.5q191 0 304.5 -95t113.5 -274v-737h-117l-14 184q-55 -98 -157 -151t-233 -53z
M238 305q0 -103 71 -158t203 -55q159 0 264 88t105 211v152l-328 -35q-164 -18 -239.5 -62.5t-75.5 -140.5z" />
    <glyph glyph-name="aacute.ss01" horiz-adv-x="1148" 
d="M489 -20q-174 0 -280.5 84.5t-106.5 236.5q0 80 28.5 137t86.5 92t130.5 54t176.5 30l357 37v86q0 129 -78 192.5t-215 63.5q-135 0 -215 -60.5t-92 -174.5h-136q7 161 132 254.5t315 93.5q191 0 304.5 -95t113.5 -274v-737h-117l-14 184q-55 -98 -157 -151t-233 -53z
M238 305q0 -103 71 -158t203 -55q159 0 264 88t105 211v152l-328 -35q-164 -18 -239.5 -62.5t-75.5 -140.5zM487 1200l226 254h180l-281 -254h-125z" />
    <glyph glyph-name="abreve.ss01" horiz-adv-x="1148" 
d="M489 -20q-174 0 -280.5 84.5t-106.5 236.5q0 80 28.5 137t86.5 92t130.5 54t176.5 30l357 37v86q0 129 -78 192.5t-215 63.5q-135 0 -215 -60.5t-92 -174.5h-136q7 161 132 254.5t315 93.5q191 0 304.5 -95t113.5 -274v-737h-117l-14 184q-55 -98 -157 -151t-233 -53z
M238 305q0 -103 71 -158t203 -55q159 0 264 88t105 211v152l-328 -35q-164 -18 -239.5 -62.5t-75.5 -140.5zM414 1454q10 -82 57.5 -124t120.5 -42q76 0 122.5 43t57.5 123h113q-10 -130 -89.5 -196t-203.5 -66q-125 0 -203.5 66.5t-87.5 195.5h113z" />
    <glyph glyph-name="acircumflex.ss01" horiz-adv-x="1148" 
d="M489 -20q-174 0 -280.5 84.5t-106.5 236.5q0 80 28.5 137t86.5 92t130.5 54t176.5 30l357 37v86q0 129 -78 192.5t-215 63.5q-135 0 -215 -60.5t-92 -174.5h-136q7 161 132 254.5t315 93.5q191 0 304.5 -95t113.5 -274v-737h-117l-14 184q-55 -98 -157 -151t-233 -53z
M238 305q0 -103 71 -158t203 -55q159 0 264 88t105 211v152l-328 -35q-164 -18 -239.5 -62.5t-75.5 -140.5zM299 1200l211 254h166l209 -254h-131l-148 166h-28l-148 -166h-131z" />
    <glyph glyph-name="adieresis.ss01" horiz-adv-x="1148" 
d="M489 -20q-174 0 -280.5 84.5t-106.5 236.5q0 80 28.5 137t86.5 92t130.5 54t176.5 30l357 37v86q0 129 -78 192.5t-215 63.5q-135 0 -215 -60.5t-92 -174.5h-136q7 161 132 254.5t315 93.5q191 0 304.5 -95t113.5 -274v-737h-117l-14 184q-55 -98 -157 -151t-233 -53z
M238 305q0 -103 71 -158t203 -55q159 0 264 88t105 211v152l-328 -35q-164 -18 -239.5 -62.5t-75.5 -140.5zM334 1229v196h131v-196h-131zM717 1229v196h133v-196h-133z" />
    <glyph glyph-name="agrave.ss01" horiz-adv-x="1148" 
d="M489 -20q-174 0 -280.5 84.5t-106.5 236.5q0 80 28.5 137t86.5 92t130.5 54t176.5 30l357 37v86q0 129 -78 192.5t-215 63.5q-135 0 -215 -60.5t-92 -174.5h-136q7 161 132 254.5t315 93.5q191 0 304.5 -95t113.5 -274v-737h-117l-14 184q-55 -98 -157 -151t-233 -53z
M238 305q0 -103 71 -158t203 -55q159 0 264 88t105 211v152l-328 -35q-164 -18 -239.5 -62.5t-75.5 -140.5zM324 1454h178l227 -254h-125z" />
    <glyph glyph-name="amacron.ss01" horiz-adv-x="1148" 
d="M489 -20q-174 0 -280.5 84.5t-106.5 236.5q0 80 28.5 137t86.5 92t130.5 54t176.5 30l357 37v86q0 129 -78 192.5t-215 63.5q-135 0 -215 -60.5t-92 -174.5h-136q7 161 132 254.5t315 93.5q191 0 304.5 -95t113.5 -274v-737h-117l-14 184q-55 -98 -157 -151t-233 -53z
M238 305q0 -103 71 -158t203 -55q159 0 264 88t105 211v152l-328 -35q-164 -18 -239.5 -62.5t-75.5 -140.5zM295 1274v106h594v-106h-594z" />
    <glyph glyph-name="aogonek.ss01" horiz-adv-x="1148" 
d="M489 -20q-174 0 -280.5 84.5t-106.5 236.5q0 80 28.5 137t86.5 92t130.5 54t176.5 30l357 37v86q0 129 -78 192.5t-215 63.5q-135 0 -215 -60.5t-92 -174.5h-136q7 161 132 254.5t315 93.5q191 0 304.5 -95t113.5 -274v-737q-174 -80 -174 -170q0 -80 116 -80h58v-119
h-72q-111 0 -165 46t-54 114q0 144 172 236l-12 157q-55 -98 -157 -151t-233 -53zM238 305q0 -103 71 -158t203 -55q159 0 264 88t105 211v152l-328 -35q-164 -18 -239.5 -62.5t-75.5 -140.5z" />
    <glyph glyph-name="aring.ss01" horiz-adv-x="1148" 
d="M489 -20q-174 0 -280.5 84.5t-106.5 236.5q0 80 28.5 137t86.5 92t130.5 54t176.5 30l357 37v86q0 129 -78 192.5t-215 63.5q-135 0 -215 -60.5t-92 -174.5h-136q7 161 132 254.5t315 93.5q191 0 304.5 -95t113.5 -274v-737h-117l-14 184q-55 -98 -157 -151t-233 -53z
M238 305q0 -103 71 -158t203 -55q159 0 264 88t105 211v152l-328 -35q-164 -18 -239.5 -62.5t-75.5 -140.5zM401 1366q0 78 54 131t135 53t135.5 -53t54.5 -131q0 -82 -54.5 -133t-135.5 -51t-135 51t-54 133zM481 1366q0 -49 31.5 -79t77.5 -30q47 0 78.5 29.5t31.5 79.5
q0 45 -31.5 76t-78.5 31q-46 0 -77.5 -30t-31.5 -77z" />
    <glyph glyph-name="aringacute.ss01" horiz-adv-x="1148" 
d="M489 -20q-174 0 -280.5 84.5t-106.5 236.5q0 80 28.5 137t86.5 92t130.5 54t176.5 30l357 37v86q0 129 -78 192.5t-215 63.5q-135 0 -215 -60.5t-92 -174.5h-136q7 161 132 254.5t315 93.5q191 0 304.5 -95t113.5 -274v-737h-117l-14 184q-55 -98 -157 -151t-233 -53z
M238 305q0 -103 71 -158t203 -55q159 0 264 88t105 211v152l-328 -35q-164 -18 -239.5 -62.5t-75.5 -140.5zM401 1339q0 78 54 131.5t135 53.5t135.5 -53.5t54.5 -131.5q0 -82 -54.5 -133t-135.5 -51t-135 51t-54 133zM481 1339q0 -49 31.5 -78.5t77.5 -29.5q47 0 78.5 29
t31.5 79q0 45 -31.5 76t-78.5 31q-46 0 -77.5 -30t-31.5 -77zM516 1567l225 254h181l-281 -254h-125z" />
    <glyph glyph-name="atilde.ss01" horiz-adv-x="1148" 
d="M489 -20q-174 0 -280.5 84.5t-106.5 236.5q0 80 28.5 137t86.5 92t130.5 54t176.5 30l357 37v86q0 129 -78 192.5t-215 63.5q-135 0 -215 -60.5t-92 -174.5h-136q7 161 132 254.5t315 93.5q191 0 304.5 -95t113.5 -274v-737h-117l-14 184q-55 -98 -157 -151t-233 -53z
M238 305q0 -103 71 -158t203 -55q159 0 264 88t105 211v152l-328 -35q-164 -18 -239.5 -62.5t-75.5 -140.5zM238 1208q6 99 61 166.5t143 67.5q45 0 91 -21t77 -46.5t68 -46.5t67 -21q48 0 73.5 31t31.5 100h111q-5 -97 -61 -165.5t-142 -68.5q-45 0 -91 21t-77 46.5
t-68 46.5t-67 21q-50 0 -74.5 -30.5t-30.5 -100.5h-112z" />
    <glyph glyph-name="ae.ss01" horiz-adv-x="2027" 
d="M489 -20q-175 0 -281 86t-106 243q0 77 28.5 132.5t86 89.5t130.5 53t177 30l357 37v86q0 129 -78 192.5t-215 63.5q-135 0 -215 -60.5t-92 -174.5h-136q7 161 132 254.5t315 93.5q143 0 244 -54.5t143 -160.5q70 101 179.5 158t242.5 57q237 0 385.5 -166t138.5 -432
h-915q9 -178 117 -297t274 -119q123 0 214 65.5t134 174.5h143q-50 -161 -181.5 -256.5t-309.5 -95.5q-146 0 -262 66.5t-183 184.5q-132 -251 -467 -251zM238 313q0 -108 70.5 -164.5t203.5 -56.5q161 0 265 86t104 213v152l-328 -35q-163 -18 -239 -61.5t-76 -133.5z
M1014 621h778q-22 164 -128.5 268t-262.5 104q-158 0 -262 -104t-125 -268z" />
    <glyph glyph-name="aeacute.ss01" horiz-adv-x="2027" 
d="M489 -20q-175 0 -281 86t-106 243q0 77 28.5 132.5t86 89.5t130.5 53t177 30l357 37v86q0 129 -78 192.5t-215 63.5q-135 0 -215 -60.5t-92 -174.5h-136q7 161 132 254.5t315 93.5q143 0 244 -54.5t143 -160.5q70 101 179.5 158t242.5 57q237 0 385.5 -166t138.5 -432
h-915q9 -178 117 -297t274 -119q123 0 214 65.5t134 174.5h143q-50 -161 -181.5 -256.5t-309.5 -95.5q-146 0 -262 66.5t-183 184.5q-132 -251 -467 -251zM238 313q0 -108 70.5 -164.5t203.5 -56.5q161 0 265 86t104 213v152l-328 -35q-163 -18 -239 -61.5t-76 -133.5z
M899 1200l225 254h181l-281 -254h-125zM1014 621h778q-22 164 -128.5 268t-262.5 104q-158 0 -262 -104t-125 -268z" />
    <glyph glyph-name="b.ss01" horiz-adv-x="1308" 
d="M696 -20q-137 0 -247.5 64.5t-165.5 176.5v-221h-131v1454h131v-590q56 113 166.5 177.5t246.5 64.5q101 0 192 -39.5t160.5 -110.5t110.5 -178t41 -235q0 -127 -41.5 -234t-111 -178.5t-160.5 -111t-191 -39.5zM276 543q0 -103 31.5 -188.5t86 -142.5t126 -88.5
t152.5 -31.5q166 0 279.5 123.5t113.5 327.5t-113.5 327t-279.5 123q-167 0 -281.5 -123t-114.5 -327z" />
    <glyph glyph-name="d.ss01" horiz-adv-x="1308" 
d="M616 -20q-103 0 -195 39.5t-161.5 110.5t-110 178t-40.5 235t40.5 235t110 178t161.5 110.5t195 39.5q134 0 244 -65t164 -177v590h133v-1454h-133v221q-54 -112 -164 -176.5t-244 -64.5zM244 543q0 -204 113.5 -327.5t279.5 -123.5q80 0 151.5 31t125 88t85 143
t31.5 189q0 205 -113 327.5t-280 122.5t-280 -122.5t-113 -327.5z" />
    <glyph glyph-name="dcaron.ss01" horiz-adv-x="1308" 
d="M616 -20q-103 0 -195 39.5t-161.5 110.5t-110 178t-40.5 235t40.5 235t110 178t161.5 110.5t195 39.5q134 0 244 -65t164 -177v590h133v-1454h-133v221q-54 -112 -164 -176.5t-244 -64.5zM244 543q0 -204 113.5 -327.5t279.5 -123.5q80 0 151.5 31t125 88t85 143
t31.5 189q0 205 -113 327.5t-280 122.5t-280 -122.5t-113 -327.5zM1268 1139l28 315h146l-76 -315h-98z" />
    <glyph glyph-name="dcroat.ss01" horiz-adv-x="1308" 
d="M616 -20q-103 0 -195 39.5t-161.5 110.5t-110 178t-40.5 235t40.5 235t110 178t161.5 110.5t195 39.5q134 0 244 -65t164 -177v332h-287v107h287v151h133v-151h172v-107h-172v-1196h-133v221q-54 -112 -164 -176.5t-244 -64.5zM244 543q0 -204 113.5 -327.5t279.5 -123.5
q80 0 151.5 31t125 88t85 143t31.5 189q0 205 -113 327.5t-280 122.5t-280 -122.5t-113 -327.5z" />
    <glyph glyph-name="g.ss01" horiz-adv-x="1306" 
d="M250 -369v121h774v502q-59 -117 -168 -179.5t-240 -62.5q-218 0 -362.5 155.5t-144.5 391.5q0 154 66 279.5t182 196.5t259 71q131 0 240 -63.5t168 -180.5v223h131v-1355q0 -46 -26 -72.5t-72 -26.5h-807zM242 559q0 -187 111.5 -310.5t287.5 -123.5t282.5 124
t106.5 310q0 187 -107 310.5t-282 123.5q-178 0 -288.5 -125t-110.5 -309z" />
    <glyph glyph-name="gbreve.ss01" horiz-adv-x="1306" 
d="M250 -369v121h774v502q-59 -117 -168 -179.5t-240 -62.5q-218 0 -362.5 155.5t-144.5 391.5q0 154 66 279.5t182 196.5t259 71q131 0 240 -63.5t168 -180.5v223h131v-1355q0 -46 -26 -72.5t-72 -26.5h-807zM242 559q0 -187 111.5 -310.5t287.5 -123.5t282.5 124
t106.5 310q0 187 -107 310.5t-282 123.5q-178 0 -288.5 -125t-110.5 -309zM461 1454q10 -82 57.5 -124t120.5 -42q76 0 122.5 43t57.5 123h113q-10 -130 -89.5 -196t-203.5 -66q-125 0 -203.5 66.5t-87.5 195.5h113z" />
    <glyph glyph-name="gcircumflex.ss01" horiz-adv-x="1306" 
d="M250 -369v121h774v502q-59 -117 -168 -179.5t-240 -62.5q-218 0 -362.5 155.5t-144.5 391.5q0 154 66 279.5t182 196.5t259 71q131 0 240 -63.5t168 -180.5v223h131v-1355q0 -46 -26 -72.5t-72 -26.5h-807zM242 559q0 -187 111.5 -310.5t287.5 -123.5t282.5 124
t106.5 310q0 187 -107 310.5t-282 123.5q-178 0 -288.5 -125t-110.5 -309zM346 1200l211 254h166l209 -254h-131l-148 166h-28l-148 -166h-131z" />
    <glyph glyph-name="uni0123.ss01" horiz-adv-x="1306" 
d="M250 -369v121h774v502q-59 -117 -168 -179.5t-240 -62.5q-218 0 -362.5 155.5t-144.5 391.5q0 154 66 279.5t182 196.5t259 71q131 0 240 -63.5t168 -180.5v223h131v-1355q0 -46 -26 -72.5t-72 -26.5h-807zM242 559q0 -187 111.5 -310.5t287.5 -123.5t282.5 124
t106.5 310q0 187 -107 310.5t-282 123.5q-178 0 -288.5 -125t-110.5 -309zM549 1200l219 254h123l-164 -254h-178z" />
    <glyph glyph-name="gdotaccent.ss01" horiz-adv-x="1306" 
d="M250 -369v121h774v502q-59 -117 -168 -179.5t-240 -62.5q-218 0 -362.5 155.5t-144.5 391.5q0 154 66 279.5t182 196.5t259 71q131 0 240 -63.5t168 -180.5v223h131v-1355q0 -46 -26 -72.5t-72 -26.5h-807zM242 559q0 -187 111.5 -310.5t287.5 -123.5t282.5 124
t106.5 310q0 187 -107 310.5t-282 123.5q-178 0 -288.5 -125t-110.5 -309zM571 1239v215h131v-215h-131z" />
    <glyph glyph-name="h.ss01" horiz-adv-x="1183" 
d="M152 0v1454h131v-569h4q45 108 138 164.5t218 56.5q178 0 292 -114.5t114 -317.5v-674h-134v662q0 160 -83 245.5t-226 85.5q-150 0 -236.5 -92.5t-86.5 -257.5v-643h-131z" />
    <glyph glyph-name="hbar.ss01" horiz-adv-x="1183" 
d="M152 0v1196h-172v107h172v151h131v-151h288v-107h-288v-311h4q45 108 138 164.5t218 56.5q178 0 292 -114.5t114 -317.5v-674h-134v662q0 160 -83 245.5t-226 85.5q-150 0 -236.5 -92.5t-86.5 -257.5v-643h-131z" />
    <glyph glyph-name="hcircumflex.ss01" horiz-adv-x="1183" 
d="M152 0v1454h131v-569h4q45 108 138 164.5t218 56.5q178 0 292 -114.5t114 -317.5v-674h-134v662q0 160 -83 245.5t-226 85.5q-150 0 -236.5 -92.5t-86.5 -257.5v-643h-131zM-74 1561l211 241h166l209 -241h-131l-148 153h-28l-148 -153h-131z" />
    <glyph glyph-name="m.ss01" horiz-adv-x="1906" 
d="M152 0v1085h124v-200h9q44 107 134.5 164t209.5 57q116 0 209.5 -58t142.5 -163q48 106 144.5 163.5t236.5 57.5q181 0 294 -118.5t113 -321.5v-666h-131v662q0 160 -80.5 245.5t-220.5 85.5q-141 0 -222 -85t-89 -236v-39v-633h-131v659q0 161 -81 247.5t-220 86.5
q-146 0 -228.5 -92t-82.5 -260v-641h-131z" />
    <glyph glyph-name="n.ss01" horiz-adv-x="1183" 
d="M152 0v1085h131v-202h2q46 110 139 166.5t219 56.5q178 0 292 -114.5t114 -317.5v-674h-134v662q0 160 -83 245.5t-226 85.5q-150 0 -236.5 -92.5t-86.5 -257.5v-643h-131z" />
    <glyph glyph-name="nacute.ss01" horiz-adv-x="1183" 
d="M152 0v1085h131v-202h2q46 110 139 166.5t219 56.5q178 0 292 -114.5t114 -317.5v-674h-134v662q0 160 -83 245.5t-226 85.5q-150 0 -236.5 -92.5t-86.5 -257.5v-643h-131zM483 1200l226 254h180l-281 -254h-125z" />
    <glyph glyph-name="ncaron.ss01" horiz-adv-x="1183" 
d="M152 0v1085h131v-202h2q46 110 139 166.5t219 56.5q178 0 292 -114.5t114 -317.5v-674h-134v662q0 160 -83 245.5t-226 85.5q-150 0 -236.5 -92.5t-86.5 -257.5v-643h-131zM295 1454h131l147 -166h29l148 166h131l-209 -254h-166z" />
    <glyph glyph-name="uni0146.ss01" horiz-adv-x="1183" 
d="M152 0v1085h131v-202h2q46 110 139 166.5t219 56.5q178 0 292 -114.5t114 -317.5v-674h-134v662q0 160 -83 245.5t-226 85.5q-150 0 -236.5 -92.5t-86.5 -257.5v-643h-131zM465 -430l61 336h140l-101 -336h-100z" />
    <glyph glyph-name="eng.ss01" horiz-adv-x="1183" 
d="M637 -369v121h278v910q0 160 -83 245.5t-226 85.5q-150 0 -236.5 -92.5t-86.5 -257.5v-643h-131v1085h131v-200h4q45 108 138 164.5t218 56.5q178 0 292 -114.5t114 -317.5v-944q0 -46 -27.5 -72.5t-73.5 -26.5h-311z" />
    <glyph glyph-name="ntilde.ss01" horiz-adv-x="1183" 
d="M152 0v1085h131v-202h2q46 110 139 166.5t219 56.5q178 0 292 -114.5t114 -317.5v-674h-134v662q0 160 -83 245.5t-226 85.5q-150 0 -236.5 -92.5t-86.5 -257.5v-643h-131zM233 1208q6 99 61.5 166.5t143.5 67.5q45 0 91 -21t77 -46.5t68 -46.5t67 -21q48 0 73.5 31
t31.5 100h110q-5 -98 -60.5 -166t-141.5 -68q-45 0 -91 21t-77 46.5t-68 46.5t-67 21q-50 0 -74.5 -30.5t-30.5 -100.5h-113z" />
    <glyph glyph-name="p.ss01" horiz-adv-x="1308" 
d="M152 -369v1454h131v-221q55 112 165 177t244 65q102 0 194 -39.5t162 -111t111 -178.5t41 -234t-41.5 -234t-112 -178.5t-162 -111t-192.5 -39.5q-134 0 -244 64.5t-165 176.5v-590h-131zM276 543q0 -103 31.5 -188.5t86 -142.5t126 -88.5t152.5 -31.5q166 0 279.5 123.5
t113.5 327.5q0 103 -31.5 189t-85 142.5t-125 87.5t-151.5 31q-167 0 -281.5 -123t-114.5 -327z" />
    <glyph glyph-name="thorn.ss01" horiz-adv-x="1308" 
d="M152 -369v1823h131v-590q55 112 165 177t244 65q102 0 194 -39.5t162 -111t111 -178.5t41 -234t-41.5 -234t-112 -178.5t-162 -111t-192.5 -39.5q-134 0 -244 64.5t-165 176.5v-590h-131zM276 543q0 -103 31.5 -188.5t86 -142.5t126 -88.5t152.5 -31.5q166 0 279.5 123.5
t113.5 327.5q0 103 -31.5 189t-85 142.5t-125 87.5t-151.5 31q-167 0 -281.5 -123t-114.5 -327z" />
    <glyph glyph-name="q.ss01" horiz-adv-x="1308" 
d="M1024 -369v590q-54 -112 -164 -176.5t-244 -64.5q-103 0 -195 39.5t-161.5 110.5t-110 178t-40.5 235t40.5 235t110 178t161.5 110.5t195 39.5q134 0 244 -65t164 -177v221h133v-1454h-133zM244 543q0 -204 113.5 -327.5t279.5 -123.5q80 0 151.5 31t125 88t85 143
t31.5 189q0 206 -113 328t-280 122t-280 -122.5t-113 -327.5z" />
    <glyph glyph-name="r.ss01" horiz-adv-x="708" 
d="M152 0v1085h131v-202h2q40 106 106.5 154t173.5 48h53v-127h-61q-132 0 -203 -78.5t-71 -236.5v-643h-131z" />
    <glyph glyph-name="racute.ss01" horiz-adv-x="708" 
d="M152 0v1085h131v-202h2q40 106 106.5 154t173.5 48h53v-127h-61q-132 0 -203 -78.5t-71 -236.5v-643h-131zM272 1200l226 254h180l-281 -254h-125z" />
    <glyph glyph-name="rcaron.ss01" horiz-adv-x="708" 
d="M152 0v1085h131v-202h2q40 106 106.5 154t173.5 48h53v-127h-61q-132 0 -203 -78.5t-71 -236.5v-643h-131zM86 1454h131l148 -166h28l148 166h131l-209 -254h-166z" />
    <glyph glyph-name="uni0157.ss01" horiz-adv-x="708" 
d="M152 0v1085h131v-202h2q40 106 106.5 154t173.5 48h53v-127h-61q-132 0 -203 -78.5t-71 -236.5v-643h-131zM84 -430l61 336h140l-101 -336h-100z" />
    <glyph glyph-name="u.ss01" horiz-adv-x="1177" 
d="M539 -20q-176 0 -289 114.5t-113 317.5v673h131v-661q0 -160 82.5 -246t224.5 -86q150 0 235 92.5t85 257.5v643h131v-1085h-131v203h-2q-47 -111 -138 -167t-216 -56z" />
    <glyph glyph-name="uacute.ss01" horiz-adv-x="1177" 
d="M539 -20q-176 0 -289 114.5t-113 317.5v673h131v-661q0 -160 82.5 -246t224.5 -86q150 0 235 92.5t85 257.5v643h131v-1085h-131v203h-2q-47 -111 -138 -167t-216 -56zM475 1200l225 254h181l-281 -254h-125z" />
    <glyph glyph-name="ubreve.ss01" horiz-adv-x="1177" 
d="M539 -20q-176 0 -289 114.5t-113 317.5v673h131v-661q0 -160 82.5 -246t224.5 -86q150 0 235 92.5t85 257.5v643h131v-1085h-131v203h-2q-47 -111 -138 -167t-216 -56zM401 1454q10 -82 58 -124t121 -42q76 0 122.5 43t57.5 123h112q-10 -130 -89 -196t-203 -66
q-125 0 -203.5 66.5t-87.5 195.5h112z" />
    <glyph glyph-name="ucircumflex.ss01" horiz-adv-x="1177" 
d="M539 -20q-176 0 -289 114.5t-113 317.5v673h131v-661q0 -160 82.5 -246t224.5 -86q150 0 235 92.5t85 257.5v643h131v-1085h-131v203h-2q-47 -111 -138 -167t-216 -56zM287 1200l211 254h166l208 -254h-131l-147 166h-29l-147 -166h-131z" />
    <glyph glyph-name="udieresis.ss01" horiz-adv-x="1177" 
d="M539 -20q-176 0 -289 114.5t-113 317.5v673h131v-661q0 -160 82.5 -246t224.5 -86q150 0 235 92.5t85 257.5v643h131v-1085h-131v203h-2q-47 -111 -138 -167t-216 -56zM322 1229v196h131v-196h-131zM705 1229v196h133v-196h-133z" />
    <glyph glyph-name="ugrave.ss01" horiz-adv-x="1177" 
d="M539 -20q-176 0 -289 114.5t-113 317.5v673h131v-661q0 -160 82.5 -246t224.5 -86q150 0 235 92.5t85 257.5v643h131v-1085h-131v203h-2q-47 -111 -138 -167t-216 -56zM311 1454h178l228 -254h-125z" />
    <glyph glyph-name="uhungarumlaut.ss01" horiz-adv-x="1177" 
d="M539 -20q-176 0 -289 114.5t-113 317.5v673h131v-661q0 -160 82.5 -246t224.5 -86q150 0 235 92.5t85 257.5v643h131v-1085h-131v203h-2q-47 -111 -138 -167t-216 -56zM328 1200l188 254h168l-244 -254h-112zM700 1200l189 254h168l-244 -254h-113z" />
    <glyph glyph-name="umacron.ss01" horiz-adv-x="1177" 
d="M539 -20q-176 0 -289 114.5t-113 317.5v673h131v-661q0 -160 82.5 -246t224.5 -86q150 0 235 92.5t85 257.5v643h131v-1085h-131v203h-2q-47 -111 -138 -167t-216 -56zM283 1274v106h594v-106h-594z" />
    <glyph glyph-name="uogonek.ss01" horiz-adv-x="1177" 
d="M539 -20q-176 0 -289 114.5t-113 317.5v673h131v-661q0 -160 82.5 -246t224.5 -86q150 0 235 92.5t85 257.5v643h131v-1085q-174 -80 -174 -170q0 -80 117 -80h57v-119h-72q-111 0 -165 46t-54 114q0 140 160 227v185h-2q-47 -111 -138 -167t-216 -56z" />
    <glyph glyph-name="uring.ss01" horiz-adv-x="1177" 
d="M539 -20q-176 0 -289 114.5t-113 317.5v673h131v-661q0 -160 82.5 -246t224.5 -86q150 0 235 92.5t85 257.5v643h131v-1085h-131v203h-2q-47 -111 -138 -167t-216 -56zM391 1366q0 78 54 131t135 53t135.5 -53t54.5 -131q0 -82 -54.5 -133t-135.5 -51t-135 51t-54 133z
M471 1366q0 -49 31.5 -79t77.5 -30q47 0 78.5 29.5t31.5 79.5q0 45 -31.5 76t-78.5 31q-46 0 -77.5 -30t-31.5 -77z" />
    <glyph glyph-name="utilde.ss01" horiz-adv-x="1177" 
d="M539 -20q-176 0 -289 114.5t-113 317.5v673h131v-661q0 -160 82.5 -246t224.5 -86q150 0 235 92.5t85 257.5v643h131v-1085h-131v203h-2q-47 -111 -138 -167t-216 -56zM225 1208q6 99 61.5 166.5t143.5 67.5q45 0 91 -21t77 -46.5t68 -46.5t67 -21q48 0 73.5 31t31.5 100
h110q-5 -97 -61 -165.5t-142 -68.5q-45 0 -91 21t-77 46.5t-68 46.5t-67 21q-50 0 -74 -30.5t-30 -100.5h-113z" />
    <glyph glyph-name="a.ss01.ss02" horiz-adv-x="1236" 
d="M479 -20q-168 0 -272.5 85t-104.5 236q0 81 27 138t83 92t127.5 53.5t176.5 29.5l344 35v88q0 129 -76.5 192.5t-208.5 63.5q-127 0 -204.5 -61t-89.5 -174h-136q3 158 127.5 253t309.5 95q182 0 294.5 -95.5t112.5 -273.5v-618h160v-119h-184q-39 0 -65 26.5t-26 67.5
v119h-2q-52 -112 -155.5 -172.5t-237.5 -60.5zM238 305q0 -102 69 -157.5t195 -55.5q154 0 256 88t102 211v150l-317 -33q-166 -17 -235.5 -63t-69.5 -140z" />
    <glyph glyph-name="aacute.ss01.ss02" horiz-adv-x="1236" 
d="M479 -20q-168 0 -272.5 85t-104.5 236q0 81 27 138t83 92t127.5 53.5t176.5 29.5l344 35v88q0 129 -76.5 192.5t-208.5 63.5q-127 0 -204.5 -61t-89.5 -174h-136q3 158 127.5 253t309.5 95q182 0 294.5 -95.5t112.5 -273.5v-618h160v-119h-184q-39 0 -65 26.5t-26 67.5
v119h-2q-52 -112 -155.5 -172.5t-237.5 -60.5zM238 305q0 -102 69 -157.5t195 -55.5q154 0 256 88t102 211v150l-317 -33q-166 -17 -235.5 -63t-69.5 -140zM477 1200l225 254h181l-281 -254h-125z" />
    <glyph glyph-name="abreve.ss01.ss02" horiz-adv-x="1236" 
d="M479 -20q-168 0 -272.5 85t-104.5 236q0 81 27 138t83 92t127.5 53.5t176.5 29.5l344 35v88q0 129 -76.5 192.5t-208.5 63.5q-127 0 -204.5 -61t-89.5 -174h-136q3 158 127.5 253t309.5 95q182 0 294.5 -95.5t112.5 -273.5v-618h160v-119h-184q-39 0 -65 26.5t-26 67.5
v119h-2q-52 -112 -155.5 -172.5t-237.5 -60.5zM238 305q0 -102 69 -157.5t195 -55.5q154 0 256 88t102 211v150l-317 -33q-166 -17 -235.5 -63t-69.5 -140zM403 1454q10 -82 58 -124t121 -42q76 0 122.5 43t57.5 123h112q-10 -130 -89 -196t-203 -66q-125 0 -203.5 66.5
t-87.5 195.5h112z" />
    <glyph glyph-name="acircumflex.ss01.ss02" horiz-adv-x="1236" 
d="M479 -20q-168 0 -272.5 85t-104.5 236q0 81 27 138t83 92t127.5 53.5t176.5 29.5l344 35v88q0 129 -76.5 192.5t-208.5 63.5q-127 0 -204.5 -61t-89.5 -174h-136q3 158 127.5 253t309.5 95q182 0 294.5 -95.5t112.5 -273.5v-618h160v-119h-184q-39 0 -65 26.5t-26 67.5
v119h-2q-52 -112 -155.5 -172.5t-237.5 -60.5zM238 305q0 -102 69 -157.5t195 -55.5q154 0 256 88t102 211v150l-317 -33q-166 -17 -235.5 -63t-69.5 -140zM289 1200l211 254h166l208 -254h-131l-147 166h-29l-147 -166h-131z" />
    <glyph glyph-name="adieresis.ss01.ss02" horiz-adv-x="1236" 
d="M479 -20q-168 0 -272.5 85t-104.5 236q0 81 27 138t83 92t127.5 53.5t176.5 29.5l344 35v88q0 129 -76.5 192.5t-208.5 63.5q-127 0 -204.5 -61t-89.5 -174h-136q3 158 127.5 253t309.5 95q182 0 294.5 -95.5t112.5 -273.5v-618h160v-119h-184q-39 0 -65 26.5t-26 67.5
v119h-2q-52 -112 -155.5 -172.5t-237.5 -60.5zM238 305q0 -102 69 -157.5t195 -55.5q154 0 256 88t102 211v150l-317 -33q-166 -17 -235.5 -63t-69.5 -140zM324 1229v196h131v-196h-131zM707 1229v196h133v-196h-133z" />
    <glyph glyph-name="agrave.ss01.ss02" horiz-adv-x="1236" 
d="M479 -20q-168 0 -272.5 85t-104.5 236q0 81 27 138t83 92t127.5 53.5t176.5 29.5l344 35v88q0 129 -76.5 192.5t-208.5 63.5q-127 0 -204.5 -61t-89.5 -174h-136q3 158 127.5 253t309.5 95q182 0 294.5 -95.5t112.5 -273.5v-618h160v-119h-184q-39 0 -65 26.5t-26 67.5
v119h-2q-52 -112 -155.5 -172.5t-237.5 -60.5zM238 305q0 -102 69 -157.5t195 -55.5q154 0 256 88t102 211v150l-317 -33q-166 -17 -235.5 -63t-69.5 -140zM313 1454h179l227 -254h-125z" />
    <glyph glyph-name="amacron.ss01.ss02" horiz-adv-x="1236" 
d="M479 -20q-168 0 -272.5 85t-104.5 236q0 81 27 138t83 92t127.5 53.5t176.5 29.5l344 35v88q0 129 -76.5 192.5t-208.5 63.5q-127 0 -204.5 -61t-89.5 -174h-136q3 158 127.5 253t309.5 95q182 0 294.5 -95.5t112.5 -273.5v-618h160v-119h-184q-39 0 -65 26.5t-26 67.5
v119h-2q-52 -112 -155.5 -172.5t-237.5 -60.5zM238 305q0 -102 69 -157.5t195 -55.5q154 0 256 88t102 211v150l-317 -33q-166 -17 -235.5 -63t-69.5 -140zM285 1274v106h594v-106h-594z" />
    <glyph glyph-name="aogonek.ss01.ss02" horiz-adv-x="1236" 
d="M479 -20q-168 0 -272.5 85t-104.5 236q0 81 27 138t83 92t127.5 53.5t176.5 29.5l344 35v88q0 129 -76.5 192.5t-208.5 63.5q-127 0 -204.5 -61t-89.5 -174h-136q3 158 127.5 253t309.5 95q182 0 294.5 -95.5t112.5 -273.5v-618h160v-119h-109q-174 -80 -174 -170
q0 -80 117 -80h57v-119h-71q-111 0 -165 46t-54 114q0 140 159 227q-35 24 -35 76v119h-2q-52 -112 -155.5 -172.5t-237.5 -60.5zM238 305q0 -102 69 -157.5t195 -55.5q154 0 256 88t102 211v150l-317 -33q-166 -17 -235.5 -63t-69.5 -140z" />
    <glyph glyph-name="aring.ss01.ss02" horiz-adv-x="1236" 
d="M479 -20q-168 0 -272.5 85t-104.5 236q0 81 27 138t83 92t127.5 53.5t176.5 29.5l344 35v88q0 129 -76.5 192.5t-208.5 63.5q-127 0 -204.5 -61t-89.5 -174h-136q3 158 127.5 253t309.5 95q182 0 294.5 -95.5t112.5 -273.5v-618h160v-119h-184q-39 0 -65 26.5t-26 67.5
v119h-2q-52 -112 -155.5 -172.5t-237.5 -60.5zM238 305q0 -102 69 -157.5t195 -55.5q154 0 256 88t102 211v150l-317 -33q-166 -17 -235.5 -63t-69.5 -140zM391 1366q0 78 54 131t135 53t135.5 -53t54.5 -131q0 -82 -54.5 -133t-135.5 -51t-135 51t-54 133zM471 1366
q0 -49 31.5 -79t77.5 -30q47 0 78.5 29.5t31.5 79.5q0 45 -31.5 76t-78.5 31q-46 0 -77.5 -30t-31.5 -77z" />
    <glyph glyph-name="aringacute.ss01.ss02" horiz-adv-x="1236" 
d="M479 -20q-168 0 -272.5 85t-104.5 236q0 81 27 138t83 92t127.5 53.5t176.5 29.5l344 35v88q0 129 -76.5 192.5t-208.5 63.5q-127 0 -204.5 -61t-89.5 -174h-136q3 158 127.5 253t309.5 95q182 0 294.5 -95.5t112.5 -273.5v-618h160v-119h-184q-39 0 -65 26.5t-26 67.5
v119h-2q-52 -112 -155.5 -172.5t-237.5 -60.5zM238 305q0 -102 69 -157.5t195 -55.5q154 0 256 88t102 211v150l-317 -33q-166 -17 -235.5 -63t-69.5 -140zM391 1339q0 78 54 131.5t135 53.5t135.5 -53.5t54.5 -131.5q0 -82 -54.5 -133t-135.5 -51t-135 51t-54 133z
M471 1339q0 -49 31.5 -78.5t77.5 -29.5q47 0 78.5 29t31.5 79q0 45 -31.5 76t-78.5 31q-46 0 -77.5 -30t-31.5 -77zM506 1567l225 254h180l-280 -254h-125z" />
    <glyph glyph-name="atilde.ss01.ss02" horiz-adv-x="1236" 
d="M479 -20q-168 0 -272.5 85t-104.5 236q0 81 27 138t83 92t127.5 53.5t176.5 29.5l344 35v88q0 129 -76.5 192.5t-208.5 63.5q-127 0 -204.5 -61t-89.5 -174h-136q3 158 127.5 253t309.5 95q182 0 294.5 -95.5t112.5 -273.5v-618h160v-119h-184q-39 0 -65 26.5t-26 67.5
v119h-2q-52 -112 -155.5 -172.5t-237.5 -60.5zM227 1208q6 99 61.5 166.5t143.5 67.5q45 0 91 -21t77 -46.5t68 -46.5t67 -21q48 0 73.5 31t31.5 100h110q-5 -98 -60.5 -166t-141.5 -68q-45 0 -91 21t-77 46.5t-68.5 46.5t-67.5 21q-50 0 -74 -30.5t-30 -100.5h-113z
M238 305q0 -102 69 -157.5t195 -55.5q154 0 256 88t102 211v150l-317 -33q-166 -17 -235.5 -63t-69.5 -140z" />
    <glyph glyph-name="a.ss01.ss03" horiz-adv-x="1308" 
d="M616 -20q-103 0 -195 39.5t-161.5 110.5t-110 178t-40.5 235t40.5 235t110 178t161.5 110.5t195 39.5q134 0 244 -65t164 -177v221h133v-1085h-133v221q-54 -112 -164 -176.5t-244 -64.5zM244 543q0 -204 113.5 -327.5t279.5 -123.5q80 0 151.5 31t125 88t85 143
t31.5 189q0 205 -113 327.5t-280 122.5t-280 -122.5t-113 -327.5z" />
    <glyph glyph-name="aacute.ss01.ss03" horiz-adv-x="1308" 
d="M616 -20q-103 0 -195 39.5t-161.5 110.5t-110 178t-40.5 235t40.5 235t110 178t161.5 110.5t195 39.5q134 0 244 -65t164 -177v221h133v-1085h-133v221q-54 -112 -164 -176.5t-244 -64.5zM244 543q0 -204 113.5 -327.5t279.5 -123.5q80 0 151.5 31t125 88t85 143
t31.5 189q0 205 -113 327.5t-280 122.5t-280 -122.5t-113 -327.5zM532 1200l226 254h180l-281 -254h-125z" />
    <glyph glyph-name="abreve.ss01.ss03" horiz-adv-x="1308" 
d="M616 -20q-103 0 -195 39.5t-161.5 110.5t-110 178t-40.5 235t40.5 235t110 178t161.5 110.5t195 39.5q134 0 244 -65t164 -177v221h133v-1085h-133v221q-54 -112 -164 -176.5t-244 -64.5zM244 543q0 -204 113.5 -327.5t279.5 -123.5q80 0 151.5 31t125 88t85 143
t31.5 189q0 205 -113 327.5t-280 122.5t-280 -122.5t-113 -327.5zM459 1454q10 -82 57.5 -124t120.5 -42q76 0 122.5 43t57.5 123h113q-10 -130 -89.5 -196t-203.5 -66q-125 0 -203.5 66.5t-87.5 195.5h113z" />
    <glyph glyph-name="acircumflex.ss01.ss03" horiz-adv-x="1308" 
d="M616 -20q-103 0 -195 39.5t-161.5 110.5t-110 178t-40.5 235t40.5 235t110 178t161.5 110.5t195 39.5q134 0 244 -65t164 -177v221h133v-1085h-133v221q-54 -112 -164 -176.5t-244 -64.5zM244 543q0 -204 113.5 -327.5t279.5 -123.5q80 0 151.5 31t125 88t85 143
t31.5 189q0 205 -113 327.5t-280 122.5t-280 -122.5t-113 -327.5zM344 1200l211 254h166l209 -254h-131l-148 166h-28l-148 -166h-131z" />
    <glyph glyph-name="adieresis.ss01.ss03" horiz-adv-x="1308" 
d="M616 -20q-103 0 -195 39.5t-161.5 110.5t-110 178t-40.5 235t40.5 235t110 178t161.5 110.5t195 39.5q134 0 244 -65t164 -177v221h133v-1085h-133v221q-54 -112 -164 -176.5t-244 -64.5zM244 543q0 -204 113.5 -327.5t279.5 -123.5q80 0 151.5 31t125 88t85 143
t31.5 189q0 205 -113 327.5t-280 122.5t-280 -122.5t-113 -327.5zM379 1229v196h131v-196h-131zM762 1229v196h133v-196h-133z" />
    <glyph glyph-name="agrave.ss01.ss03" horiz-adv-x="1308" 
d="M616 -20q-103 0 -195 39.5t-161.5 110.5t-110 178t-40.5 235t40.5 235t110 178t161.5 110.5t195 39.5q134 0 244 -65t164 -177v221h133v-1085h-133v221q-54 -112 -164 -176.5t-244 -64.5zM244 543q0 -204 113.5 -327.5t279.5 -123.5q80 0 151.5 31t125 88t85 143
t31.5 189q0 205 -113 327.5t-280 122.5t-280 -122.5t-113 -327.5zM369 1454h178l227 -254h-125z" />
    <glyph glyph-name="amacron.ss01.ss03" horiz-adv-x="1308" 
d="M616 -20q-103 0 -195 39.5t-161.5 110.5t-110 178t-40.5 235t40.5 235t110 178t161.5 110.5t195 39.5q134 0 244 -65t164 -177v221h133v-1085h-133v221q-54 -112 -164 -176.5t-244 -64.5zM244 543q0 -204 113.5 -327.5t279.5 -123.5q80 0 151.5 31t125 88t85 143
t31.5 189q0 205 -113 327.5t-280 122.5t-280 -122.5t-113 -327.5zM340 1274v106h594v-106h-594z" />
    <glyph glyph-name="aogonek.ss01.ss03" horiz-adv-x="1308" 
d="M616 -20q-103 0 -195 39.5t-161.5 110.5t-110 178t-40.5 235t40.5 235t110 178t161.5 110.5t195 39.5q134 0 244 -65t164 -177v221h133v-1085h-2q-174 -80 -174 -170q0 -80 117 -80h57v-119h-72q-111 0 -165 46t-54 114q0 140 160 227v203q-54 -112 -164 -176.5
t-244 -64.5zM244 543q0 -204 113.5 -327.5t279.5 -123.5q80 0 151.5 31t125 88t85 143t31.5 189q0 205 -113 327.5t-280 122.5t-280 -122.5t-113 -327.5z" />
    <glyph glyph-name="aring.ss01.ss03" horiz-adv-x="1308" 
d="M616 -20q-103 0 -195 39.5t-161.5 110.5t-110 178t-40.5 235t40.5 235t110 178t161.5 110.5t195 39.5q134 0 244 -65t164 -177v221h133v-1085h-133v221q-54 -112 -164 -176.5t-244 -64.5zM244 543q0 -204 113.5 -327.5t279.5 -123.5q80 0 151.5 31t125 88t85 143
t31.5 189q0 205 -113 327.5t-280 122.5t-280 -122.5t-113 -327.5zM449 1366q0 78 53.5 131t134.5 53t135.5 -53t54.5 -131q0 -82 -54.5 -133t-135.5 -51t-134.5 51t-53.5 133zM528 1366q0 -49 31.5 -79t77.5 -30q47 0 79 29.5t32 79.5q0 45 -32 76t-79 31q-46 0 -77.5 -30
t-31.5 -77z" />
    <glyph glyph-name="aringacute.ss01.ss03" horiz-adv-x="1308" 
d="M616 -20q-103 0 -195 39.5t-161.5 110.5t-110 178t-40.5 235t40.5 235t110 178t161.5 110.5t195 39.5q134 0 244 -65t164 -177v221h133v-1085h-133v221q-54 -112 -164 -176.5t-244 -64.5zM244 543q0 -204 113.5 -327.5t279.5 -123.5q80 0 151.5 31t125 88t85 143
t31.5 189q0 205 -113 327.5t-280 122.5t-280 -122.5t-113 -327.5zM449 1339q0 79 53.5 132t134.5 53t135.5 -53.5t54.5 -131.5q0 -82 -54.5 -133t-135.5 -51t-134.5 51t-53.5 133zM528 1339q0 -49 31.5 -78.5t77.5 -29.5q47 0 79 29t32 79q0 45 -32 76t-79 31
q-46 0 -77.5 -30t-31.5 -77zM561 1567l225 254h181l-281 -254h-125z" />
    <glyph glyph-name="atilde.ss01.ss03" horiz-adv-x="1308" 
d="M616 -20q-103 0 -195 39.5t-161.5 110.5t-110 178t-40.5 235t40.5 235t110 178t161.5 110.5t195 39.5q134 0 244 -65t164 -177v221h133v-1085h-133v221q-54 -112 -164 -176.5t-244 -64.5zM244 543q0 -204 113.5 -327.5t279.5 -123.5q80 0 151.5 31t125 88t85 143
t31.5 189q0 205 -113 327.5t-280 122.5t-280 -122.5t-113 -327.5zM283 1208q6 99 61 166.5t143 67.5q45 0 91 -21t77 -46.5t68.5 -46.5t67.5 -21q48 0 73 30.5t31 100.5h111q-5 -97 -61 -165.5t-142 -68.5q-45 0 -91 21t-77 46.5t-68 46.5t-67 21q-50 0 -74.5 -30.5
t-30.5 -100.5h-112z" />
    <glyph glyph-name="f_iacute" horiz-adv-x="1181" 
d="M285 1360q0 41 25.5 67.5t66.5 26.5h352v-119h-313v-250h313v-118h-313v-967h-131v967h-195v118h195v275zM862 1200l225 254h179l-279 -254h-125zM901 0v1085h131v-1085h-131z" />
    <glyph glyph-name="f_t" horiz-adv-x="1413" 
d="M285 1360q0 41 25.5 67.5t66.5 26.5h352v-119h-313v-250h485v277h131v-277h281v-118h-281v-848h281v-119h-320q-40 0 -66 26.5t-26 67.5v873h-485v-967h-131v967h-195v118h195v275z" />
    <glyph glyph-name="r_f" horiz-adv-x="1300" 
d="M150 991q0 41 26.5 67.5t67.5 26.5h524v275q0 41 25.5 67.5t66.5 26.5h352v-119h-313v-250h313v-118h-313v-967h-131v967h-485v-967h-133v991z" />
    <glyph glyph-name="r_f_f" horiz-adv-x="1916" 
d="M768 1360q0 41 25.5 67.5t66.5 26.5h352v-119h-313v-250h485v275q0 41 26.5 67.5t66.5 26.5h352v-119h-313v-250h313v-118h-313v-967h-132v967h-485v-967h-131v967h-485v-967h-133v991q0 41 26.5 67.5t67.5 26.5h524v275z" />
    <glyph glyph-name="r_i" horiz-adv-x="1050" 
d="M150 987q0 46 27 72t73 26h649v-1085h-131v965h-485v-965h-133v987zM768 1239v215h131v-215h-131z" />
    <glyph glyph-name="r_dotlessi" horiz-adv-x="1050" 
d="M150 987q0 46 27 72t73 26h649v-1085h-131v965h-485v-965h-133v987z" />
    <glyph glyph-name="r_iacute" horiz-adv-x="1050" 
d="M150 987q0 46 27 72t73 26h649v-1085h-131v965h-485v-965h-133v987zM729 1200l225 254h181l-281 -254h-125z" />
    <glyph glyph-name="r_icircumflex" horiz-adv-x="1050" 
d="M150 987q0 46 27 72t73 26h649v-1085h-131v965h-485v-965h-133v987zM541 1200l211 254h166l208 -254h-131l-147 166h-29l-147 -166h-131z" />
    <glyph glyph-name="r_idieresis" horiz-adv-x="1050" 
d="M150 987q0 46 27 72t73 26h649v-1085h-131v965h-485v-965h-133v987zM575 1229v196h132v-196h-132zM958 1229v196h134v-196h-134z" />
    <glyph glyph-name="r_igrave" horiz-adv-x="1050" 
d="M150 987q0 46 27 72t73 26h649v-1085h-131v965h-485v-965h-133v987zM565 1454h178l228 -254h-125z" />
    <glyph glyph-name="r_ij" horiz-adv-x="1484" 
d="M150 987q0 46 27 72t73 26h649v-1085h-131v965h-485v-965h-133v987zM768 1239v215h131v-215h-131zM922 -369v121h280v1333h131v-1355q0 -46 -26 -72.5t-72 -26.5h-313zM1200 1239v215h131v-215h-131z" />
    <glyph glyph-name="r_imacron" horiz-adv-x="1050" 
d="M150 987q0 46 27 72t73 26h649v-1085h-131v965h-485v-965h-133v987zM537 1274v106h593v-106h-593z" />
    <glyph glyph-name="r_iogonek" horiz-adv-x="1050" 
d="M150 987q0 46 27 72t73 26h649v-1085h-2q-174 -80 -174 -170q0 -80 117 -80h57v-119h-72q-111 0 -165 46t-54 114q0 139 162 229v945h-485v-965h-133v987zM768 1239v215h131v-215h-131z" />
    <glyph glyph-name="r_r_i" horiz-adv-x="1667" 
d="M150 991q0 41 26.5 67.5t67.5 26.5h350v-120h-311v-965h-133v991zM766 0v987q0 46 27 72t73 26h650v-1085h-132v965h-485v-965h-133zM1384 1239v215h132v-215h-132z" />
    <glyph glyph-name="r_r_y" horiz-adv-x="2304" 
d="M150 991q0 41 26.5 67.5t67.5 26.5h350v-120h-311v-965h-133v991zM766 0v991q0 41 26.5 67.5t67.5 26.5h469l352 -966h48l352 966h135v-16l-510 -1350q-19 -50 -49.5 -69t-73.5 -19h-272v119h288l87 250h-89l-364 967h-334v-967h-133z" />
    <glyph glyph-name="r_t" horiz-adv-x="1280" 
d="M150 991q0 41 26.5 67.5t67.5 26.5h524v277h131v-277h281v-118h-281v-848h281v-119h-320q-41 0 -66.5 26.5t-25.5 67.5v873h-485v-967h-133v991z" />
    <glyph glyph-name="r_tcaron" horiz-adv-x="1280" 
d="M150 991q0 41 26.5 67.5t67.5 26.5h524v277h131v-277h281v-118h-281v-848h281v-119h-320q-41 0 -66.5 26.5t-25.5 67.5v873h-485v-967h-133v991zM1030 1139l29 315h145l-76 -315h-98z" />
    <glyph glyph-name="uni0072021B" horiz-adv-x="1280" 
d="M150 991q0 41 26.5 67.5t67.5 26.5h524v277h131v-277h281v-118h-281v-848h281v-119h-320q-41 0 -66.5 26.5t-25.5 67.5v873h-485v-967h-133v991zM772 -430l62 336h139l-101 -336h-100z" />
    <glyph glyph-name="r_u" horiz-adv-x="1767" 
d="M150 991q0 41 26.5 67.5t67.5 26.5h630v-641q0 -165 77.5 -245t222.5 -80h311v966h131v-991q0 -42 -26 -68t-68 -26h-371q-186 0 -297 111.5t-111 320.5v535h-460v-967h-133v991z" />
    <glyph glyph-name="r_uacute" horiz-adv-x="1767" 
d="M150 991q0 41 26.5 67.5t67.5 26.5h630v-641q0 -165 77.5 -245t222.5 -80h311v966h131v-991q0 -42 -26 -68t-68 -26h-371q-186 0 -297 111.5t-111 320.5v535h-460v-967h-133v991zM1075 1200l225 254h181l-281 -254h-125z" />
    <glyph glyph-name="r_ucircumflex" horiz-adv-x="1767" 
d="M150 991q0 41 26.5 67.5t67.5 26.5h630v-641q0 -165 77.5 -245t222.5 -80h311v966h131v-991q0 -42 -26 -68t-68 -26h-371q-186 0 -297 111.5t-111 320.5v535h-460v-967h-133v991zM887 1200l211 254h166l209 -254h-132l-147 166h-29l-147 -166h-131z" />
    <glyph glyph-name="r_udieresis" horiz-adv-x="1767" 
d="M150 991q0 41 26.5 67.5t67.5 26.5h630v-641q0 -165 77.5 -245t222.5 -80h311v966h131v-991q0 -42 -26 -68t-68 -26h-371q-186 0 -297 111.5t-111 320.5v535h-460v-967h-133v991zM922 1229v196h131v-196h-131zM1305 1229v196h133v-196h-133z" />
    <glyph glyph-name="r_ugrave" horiz-adv-x="1767" 
d="M150 991q0 41 26.5 67.5t67.5 26.5h630v-641q0 -165 77.5 -245t222.5 -80h311v966h131v-991q0 -42 -26 -68t-68 -26h-371q-186 0 -297 111.5t-111 320.5v535h-460v-967h-133v991zM911 1454h179l227 -254h-125z" />
    <glyph glyph-name="r_uhungarumlaut" horiz-adv-x="1767" 
d="M150 991q0 41 26.5 67.5t67.5 26.5h630v-641q0 -165 77.5 -245t222.5 -80h311v966h131v-991q0 -42 -26 -68t-68 -26h-371q-186 0 -297 111.5t-111 320.5v535h-460v-967h-133v991zM928 1200l188 254h168l-244 -254h-112zM1300 1200l189 254h168l-244 -254h-113z" />
    <glyph glyph-name="r_umacron" horiz-adv-x="1767" 
d="M150 991q0 41 26.5 67.5t67.5 26.5h630v-641q0 -165 77.5 -245t222.5 -80h311v966h131v-991q0 -42 -26 -68t-68 -26h-371q-186 0 -297 111.5t-111 320.5v535h-460v-967h-133v991zM883 1274v106h594v-106h-594z" />
    <glyph glyph-name="r_uogonek" horiz-adv-x="1767" 
d="M150 991q0 41 26.5 67.5t67.5 26.5h630v-641q0 -165 77.5 -245t222.5 -80h311v966h131v-991q0 -42 -26 -68t-68 -26h-195q-174 -80 -174 -170q0 -80 117 -80h57v-119h-72q-111 0 -165 46t-54 114q0 124 129 209h-14q-186 0 -297 111.5t-111 320.5v535h-460v-967h-133v991
z" />
    <glyph glyph-name="r_uring" horiz-adv-x="1767" 
d="M150 991q0 41 26.5 67.5t67.5 26.5h630v-641q0 -165 77.5 -245t222.5 -80h311v966h131v-991q0 -42 -26 -68t-68 -26h-371q-186 0 -297 111.5t-111 320.5v535h-460v-967h-133v991zM991 1366q0 78 54 131t135 53t135.5 -53t54.5 -131q0 -82 -54.5 -133t-135.5 -51t-135 51
t-54 133zM1071 1366q0 -49 31.5 -79t77.5 -30q47 0 78.5 29.5t31.5 79.5q0 45 -31.5 76t-78.5 31q-46 0 -77.5 -30t-31.5 -77z" />
    <glyph glyph-name="r_v" horiz-adv-x="1687" 
d="M150 991q0 41 26.5 67.5t67.5 26.5h469l237 -657l115 -309h47l115 309l237 657h135v-16l-401 -1069h-217l-365 967h-333v-967h-133v991z" />
    <glyph glyph-name="r_w" horiz-adv-x="2205" 
d="M150 991q0 41 26.5 67.5t67.5 26.5h477l170 -657l78 -309h39l71 309l160 657h225l160 -657l72 -309h37l249 966h134v-16l-293 -1069h-217l-162 657l-72 310h-41l-71 -310l-162 -657h-217l-267 967h-331v-967h-133v991z" />
    </font>
</defs>
</svg>
