<?xml version="1.0" standalone="no"?>
<!DOCTYPE svg PUBLIC "-//W3C//DTD SVG 1.1//EN" "http://www.w3.org/Graphics/SVG/1.1/DTD/svg11.dtd" >
<svg xmlns="http://www.w3.org/2000/svg" xmlns:xlink="http://www.w3.org/1999/xlink" version="1.1">
<metadata>
Created by FontForge 20201107 at Tue Sep 17 20:48:02 2024
 By 
(c) 2022, Copyright by Optimo SARL. All rights reserved.
</metadata>
<defs>
<font id="Artex-Medium" horiz-adv-x="0" >
  <font-face 
    font-family="Artex Medium"
    font-weight="500"
    font-stretch="normal"
    units-per-em="2048"
    panose-1="0 0 0 0 0 0 0 0 0 0"
    ascent="1638"
    descent="-410"
    x-height="1085"
    cap-height="1454"
    bbox="-399 -471 2736 2206"
    underline-thickness="102"
    underline-position="-85"
    unicode-range="U+0020-FB02"
  />
<missing-glyph horiz-adv-x="1181" 
d="M82 1087l367 367h90l-82 -82q-99 -28 -172 -101.5t-101 -172.5l-102 -101v90zM82 82v90l385 385v-70h20zM82 264v92l649 648v-27q0 -29 -18.5 -58t-40.5 -48.5t-58.5 -49.5t-54.5 -47q-26 -24 -39.5 -45t-27.5 -55zM82 449v90l577 577q31 -19 50 -43zM82 631v90l276 278
l74 -4q0 55 37.5 97.5t101.5 42.5h15zM82 815v90l106 105l84 -6zM82 1180v92l184 182h90zM82 1364v90h92zM90 0l490 487h90l-172 -174h-43v-41l-271 -272h-94zM274 0l181 178v-90l-88 -88h-93zM457 0l63 61h90l-61 -61h-92zM563 1384l70 70h90l-70 -72q-32 4 -53 4t-37 -2z
M588 313l512 510v-90l-420 -420h-92zM641 0l59 61h5v5l395 391v-90l-367 -367h-92zM694 512v12q0 23 5 39.5t18.5 32t25 25t38.5 29.5t44 34q3 2 24 17t32 24t31.5 29t33 39t26 47.5t19.5 60.5l109 105v-91zM705 158v90l395 391v-90zM727 1366l88 88h90l-114 -117
q-47 25 -64 29zM823 0l277 274v-92l-185 -182h-92zM846 1303l151 151h93l-195 -194q-22 25 -49 43zM932 1208l168 164v-90l-133 -133q-14 36 -35 59zM989 1081l111 109v-92l-101 -99q0 37 -10 82zM1006 0l94 90v-90h-94z" />
    <glyph glyph-name="f_f" unicode="ff" horiz-adv-x="1449" 
d="M217 1307q0 68 41 107.5t107 39.5h366v-207h-252v-162h393v222q0 68 42 107.5t108 39.5h367v-207h-254v-162h254v-213h-254v-872h-263v872h-393v-872h-262v872h-156v213h156v222z" />
    <glyph glyph-name="f_f_i" unicode="ffi" horiz-adv-x="1916" 
d="M217 1307q0 68 41 107.5t107 39.5h366v-207h-252v-162h393v222q0 68 42 107.5t108 39.5h367v-207h-254v-162h254v-213h-254v-872h-263v872h-393v-872h-262v872h-156v213h156v222zM1528 1217v237h262v-237h-262zM1530 0v1085h262v-1085h-262z" />
    <glyph glyph-name="f_f_l" unicode="ffl" horiz-adv-x="1916" 
d="M217 1307q0 68 41 107.5t107 39.5h366v-207h-252v-162h393v222q0 68 42 107.5t108 39.5h367v-207h-254v-162h254v-213h-254v-872h-263v872h-393v-872h-262v872h-156v213h156v222zM1530 0v1454h262v-1454h-262z" />
    <glyph glyph-name="f_i" unicode="fi" horiz-adv-x="1259" 
d="M217 1307q0 68 41 107.5t107 39.5h366v-207h-252v-162h252v-213h-252v-872h-262v872h-156v213h156v222zM872 0v1085h263v-1085h-263zM872 1217v237h263v-237h-263z" />
    <glyph glyph-name="f_l" unicode="fl" horiz-adv-x="1259" 
d="M217 1307q0 68 41 107.5t107 39.5h366v-207h-252v-162h252v-213h-252v-872h-262v872h-156v213h156v222zM872 0v1454h263v-1454h-263z" />
    <glyph glyph-name=".notdef" horiz-adv-x="1181" 
d="M82 1087l367 367h90l-82 -82q-99 -28 -172 -101.5t-101 -172.5l-102 -101v90zM82 82v90l385 385v-70h20zM82 264v92l649 648v-27q0 -29 -18.5 -58t-40.5 -48.5t-58.5 -49.5t-54.5 -47q-26 -24 -39.5 -45t-27.5 -55zM82 449v90l577 577q31 -19 50 -43zM82 631v90l276 278
l74 -4q0 55 37.5 97.5t101.5 42.5h15zM82 815v90l106 105l84 -6zM82 1180v92l184 182h90zM82 1364v90h92zM90 0l490 487h90l-172 -174h-43v-41l-271 -272h-94zM274 0l181 178v-90l-88 -88h-93zM457 0l63 61h90l-61 -61h-92zM563 1384l70 70h90l-70 -72q-32 4 -53 4t-37 -2z
M588 313l512 510v-90l-420 -420h-92zM641 0l59 61h5v5l395 391v-90l-367 -367h-92zM694 512v12q0 23 5 39.5t18.5 32t25 25t38.5 29.5t44 34q3 2 24 17t32 24t31.5 29t33 39t26 47.5t19.5 60.5l109 105v-91zM705 158v90l395 391v-90zM727 1366l88 88h90l-114 -117
q-47 25 -64 29zM823 0l277 274v-92l-185 -182h-92zM846 1303l151 151h93l-195 -194q-22 25 -49 43zM932 1208l168 164v-90l-133 -133q-14 36 -35 59zM989 1081l111 109v-92l-101 -99q0 37 -10 82zM1006 0l94 90v-90h-94z" />
    <glyph glyph-name=".null" 
 />
    <glyph glyph-name="nonmarkingreturn" horiz-adv-x="682" 
 />
    <glyph glyph-name="space" unicode=" " horiz-adv-x="438" 
 />
    <glyph glyph-name="exclam" unicode="!" horiz-adv-x="575" 
d="M158 0v246h262v-246h-262zM158 391v1063h262v-1063h-262z" />
    <glyph glyph-name="quotedbl" unicode="&#x22;" horiz-adv-x="888" 
d="M145 954l-39 500h275l-39 -500h-197zM510 1454h274l-39 -500h-196z" />
    <glyph glyph-name="numbersign" unicode="#" horiz-adv-x="1257" 
d="M143 1085h228l65 369h201l-68 -369h252l68 369h198l-65 -369h176v-184h-211l-59 -338h186v-184h-221l-68 -379h-200l69 379h-252l-69 -379h-199l68 379h-183v184h217l60 338h-193v184zM475 563h252l61 338h-251z" />
    <glyph glyph-name="dollar" unicode="$" horiz-adv-x="1243" 
d="M479 -211v205q-185 40 -298.5 167t-114.5 318h272q4 -129 88 -203.5t211 -74.5q121 0 193.5 54t72.5 155q0 52 -27.5 91t-74 63.5t-107 44.5t-127.5 38t-133.5 39t-127 53t-107 74t-74 108t-27.5 150q0 160 104 263t277 132v168h269v-172q174 -36 281.5 -157t111.5 -308
h-267q-6 126 -81 194.5t-195 68.5q-100 0 -168 -46t-68 -133q0 -49 28 -86t75 -61.5t107.5 -44.5t128 -39t135 -41t128 -55.5t107.5 -76.5t75 -110t28 -151q0 -176 -119.5 -288.5t-306.5 -141.5v-197h-269z" />
    <glyph glyph-name="percent" unicode="%" horiz-adv-x="1955" 
d="M389 639q-177 0 -263.5 111t-86.5 305q0 192 87 301.5t263 109.5q174 0 262 -111t88 -300q0 -194 -88 -305t-262 -111zM236 1055q0 -264 153 -264q152 0 152 264q0 260 -152 260q-45 0 -76 -20t-47 -57t-23 -81t-7 -102zM578 0l628 1454h180l-628 -1454h-180zM1219 403
q0 192 87 302t263 110q174 0 262 -111.5t88 -300.5q0 -194 -88 -304.5t-262 -110.5q-177 0 -263.5 110.5t-86.5 304.5zM1415 403q0 -264 154 -264q151 0 151 264q0 122 -34 191.5t-117 69.5q-59 0 -94.5 -37t-47.5 -91.5t-12 -132.5z" />
    <glyph glyph-name="ampersand" unicode="&#x26;" horiz-adv-x="1435" 
d="M578 0q-234 0 -343.5 93t-109.5 257q0 144 83.5 249.5t235.5 197.5q-93 106 -136.5 187t-43.5 167q0 63 26.5 120t76.5 103t131.5 73.5t183.5 27.5q202 0 314 -91t112 -219q0 -83 -41.5 -156t-107.5 -129t-173 -122l293 -305v292h211v-557q0 -88 -47 -138t-135 -50h-530z
M387 365q0 -160 244 -160h381l-422 436q-97 -64 -150 -130t-53 -146zM512 1141q0 -59 34.5 -115t96.5 -121q111 63 164 117.5t53 126.5q0 65 -46 101t-132 36q-83 0 -126.5 -41.5t-43.5 -103.5z" />
    <glyph glyph-name="quotesingle" unicode="'" horiz-adv-x="487" 
d="M145 954l-39 500h275l-39 -500h-197z" />
    <glyph glyph-name="parenleft" unicode="(" horiz-adv-x="641" 
d="M342 -330q-132 208 -199 449.5t-67 494.5q0 251 67 492.5t199 449.5h246q-260 -446 -260 -942q0 -498 260 -944h-246z" />
    <glyph glyph-name="parenright" unicode=")" horiz-adv-x="641" 
d="M299 1556q132 -208 199 -449.5t67 -494.5q0 -251 -67 -492.5t-199 -449.5h-246q260 446 260 942q0 498 -260 944h246z" />
    <glyph glyph-name="asterisk" unicode="*" horiz-adv-x="995" 
d="M336 754l-143 118l147 179l-213 79l63 175l216 -78v227h184v-227l215 78l63 -175l-215 -79l148 -179l-144 -118l-159 190h-2z" />
    <glyph glyph-name="plus" unicode="+" horiz-adv-x="1140" 
d="M457 225v393h-389v222h389v389h227v-389h387v-222h-387v-393h-227z" />
    <glyph glyph-name="comma" unicode="," horiz-adv-x="516" 
d="M45 -225l107 499h270l-168 -499h-209z" />
    <glyph glyph-name="hyphen" unicode="-" horiz-adv-x="854" 
d="M102 465v209h650v-209h-650z" />
    <glyph glyph-name="period" unicode="." horiz-adv-x="512" 
d="M125 0v254h262v-254h-262z" />
    <glyph glyph-name="slash" unicode="/" horiz-adv-x="817" 
d="M51 0l457 1454h258l-457 -1454h-258z" />
    <glyph glyph-name="zero" unicode="0" horiz-adv-x="1331" 
d="M666 -23q-148 0 -259 55.5t-178.5 157t-101 236.5t-33.5 303q0 134 21 247.5t65.5 206.5t111.5 158t161.5 100.5t212.5 35.5t213 -36t161.5 -101t111 -158.5t65 -206.5t20.5 -246q0 -168 -33.5 -303t-101 -236.5t-178.5 -157t-258 -55.5zM369 729q0 -111 15 -202.5
t48 -168t92.5 -119t141.5 -42.5q81 0 140.5 42.5t92.5 119t48.5 168t15.5 202.5q0 528 -297 528t-297 -528z" />
    <glyph glyph-name="one" unicode="1" horiz-adv-x="827" 
d="M422 0v1221h-348v233h469q65 0 106 -41t41 -106v-1307h-268z" />
    <glyph glyph-name="two" unicode="2" horiz-adv-x="1247" 
d="M104 219q307 224 469 364t234 244.5t72 202.5q0 112 -66.5 169.5t-187.5 57.5q-128 0 -199 -67t-74 -186h-272q6 229 155 350t394 121q229 0 377.5 -117t148.5 -309q0 -202 -159 -388.5t-533 -420.5v-15l260 8h424v-233h-1043v219z" />
    <glyph glyph-name="three" unicode="3" horiz-adv-x="1267" 
d="M633 -23q-245 0 -396.5 114t-158.5 331h272q6 -110 79.5 -171t197.5 -61q129 0 203.5 61.5t74.5 172.5q0 109 -85 165t-224 56h-109v209h111q133 0 213 57.5t80 159.5q0 94 -72 143.5t-190 49.5q-123 0 -185.5 -53.5t-76.5 -159.5h-269q10 205 155 315.5t378 110.5
t379.5 -105t146.5 -278q0 -114 -64.5 -204.5t-162.5 -123.5v-8q112 -40 180 -131t68 -217q0 -137 -72 -236t-194 -148t-279 -49z" />
    <glyph glyph-name="four" unicode="4" horiz-adv-x="1271" 
d="M872 0v328h-798v202l674 924h239q65 0 106.5 -41.5t41.5 -105.5v-1307h-263zM373 551h499v387l7 281h-31l-475 -650v-18z" />
    <glyph glyph-name="five" unicode="5" horiz-adv-x="1263" 
d="M629 -23q-252 0 -397.5 127.5t-153.5 329.5h260q19 -120 94.5 -185t194.5 -65q131 0 207.5 75.5t76.5 201.5q0 123 -73 196.5t-197 73.5q-212 0 -276 -143h-172q-32 0 -52.5 24.5t-17.5 57.5l47 637q5 65 45.5 106t103.5 41h793v-233h-715l-35 -392q118 99 322 99
q233 0 365.5 -127.5t132.5 -339.5q0 -220 -151.5 -352t-401.5 -132z" />
    <glyph glyph-name="six" unicode="6" horiz-adv-x="1298" 
d="M662 -23q-142 0 -251 48t-178 136.5t-104 209.5t-35 270q0 146 21 270.5t67 229.5t115 179t168.5 115.5t224.5 41.5q212 0 348.5 -114.5t153.5 -305.5h-274q-35 205 -244 205q-75 0 -135 -38.5t-97.5 -106.5t-59 -153.5t-26.5 -185.5q125 131 342 131q233 0 373.5 -126
t140.5 -330q0 -142 -73 -251.5t-197.5 -167t-279.5 -57.5zM379 453q0 -122 80 -195.5t200 -73.5q127 0 203 72.5t76 196.5q0 118 -77 188t-202 70q-126 0 -203 -70.5t-77 -187.5z" />
    <glyph glyph-name="seven" unicode="7" horiz-adv-x="1126" 
d="M205 0l553 1221h-684v233h977v-186l-553 -1268h-293z" />
    <glyph glyph-name="eight" unicode="8" horiz-adv-x="1290" 
d="M645 -23q-116 0 -218.5 29.5t-179 83t-121 134.5t-44.5 179q0 133 73 222t187 131v10q-57 23 -102 60t-78 105t-33 154q0 182 146 287t370 105q225 0 370.5 -105t145.5 -287q0 -126 -60.5 -204.5t-150.5 -114.5v-10q113 -43 185.5 -131.5t72.5 -221.5q0 -98 -44.5 -179
t-121 -134.5t-179 -83t-218.5 -29.5zM354 422q0 -114 80.5 -176t210.5 -62t211.5 62t81.5 176q0 108 -82 169.5t-211 61.5q-130 0 -210.5 -61.5t-80.5 -169.5zM391 1065q0 -101 70 -157t184 -56t185 56t71 157q0 98 -70.5 152.5t-185.5 54.5t-184.5 -54.5t-69.5 -152.5z" />
    <glyph glyph-name="nine" unicode="9" horiz-adv-x="1298" 
d="M608 -23q-212 0 -349.5 114.5t-154.5 305.5h275q38 -204 246 -204q75 0 134.5 38t96.5 105.5t58 152.5t26 185q-129 -129 -340 -129q-233 0 -373.5 126t-140.5 330q0 142 73.5 251.5t198.5 167t281 57.5q141 0 249.5 -48t177 -136.5t103.5 -209.5t35 -270
q0 -146 -21 -270.5t-67.5 -229.5t-115 -179t-168.5 -115.5t-224 -41.5zM358 1001q0 -118 78 -188t205 -70q125 0 201 70.5t76 187.5q0 121 -80 195t-197 74q-128 0 -205.5 -72.5t-77.5 -196.5z" />
    <glyph glyph-name="colon" unicode=":" horiz-adv-x="514" 
d="M127 0v254h262v-254h-262zM127 729v254h262v-254h-262z" />
    <glyph glyph-name="semicolon" unicode=";" horiz-adv-x="516" 
d="M127 729v254h262v-254h-262zM16 -225l107 499h268l-168 -499h-207z" />
    <glyph glyph-name="less" unicode="&#x3c;" horiz-adv-x="1146" 
d="M1063 193l-989 399v268l989 400v-259l-698 -258v-36l698 -258v-256z" />
    <glyph glyph-name="equal" unicode="=" horiz-adv-x="1183" 
d="M90 825v215h1004v-215h-1004zM90 416v215h1004v-215h-1004z" />
    <glyph glyph-name="greater" unicode="&#x3e;" horiz-adv-x="1146" 
d="M86 1260l989 -400v-268l-989 -399v256l698 258v36l-698 258v259z" />
    <glyph glyph-name="question" unicode="?" horiz-adv-x="1128" 
d="M416 449q0 67 17 123t52 103t68.5 79.5t85.5 74.5q38 31 60 52.5t46.5 52t36 64.5t11.5 73q0 79 -57 130.5t-167 51.5q-113 0 -174.5 -70t-64.5 -194h-273q2 219 139.5 352.5t372.5 133.5q237 0 366.5 -114.5t129.5 -287.5q0 -108 -53.5 -190t-145.5 -160
q-104 -87 -146 -146.5t-42 -140.5v-45h-262v58zM416 0v248h262v-248h-262z" />
    <glyph glyph-name="at" unicode="@" horiz-adv-x="2131" 
d="M985 -369q-215 0 -371 49.5t-264.5 157.5t-161.5 283t-53 422q0 189 44 342.5t125 263t197 183t259.5 108.5t314.5 35q436 0 681 -216.5t245 -619.5q0 -313 -108.5 -457.5t-325.5 -144.5h-625q-143 0 -230 82.5t-87 214.5q0 133 83.5 204t231.5 85l299 26v84
q0 62 -39.5 97.5t-122.5 35.5q-90 0 -126.5 -38t-41.5 -103h-243q0 147 110 233t301 86q190 0 294 -84t104 -245v-498h61q127 0 172 91t45 331q0 318 -173 476.5t-503 158.5q-335 0 -512.5 -176t-177.5 -555q0 -164 25 -285t72 -201.5t122 -129t166 -69t213 -20.5h459v-207
h-459zM870 340q0 -56 38.5 -88.5t95.5 -32.5h235v275l-229 -27q-75 -9 -107.5 -37.5t-32.5 -89.5z" />
    <glyph glyph-name="A" unicode="A" horiz-adv-x="1490" 
d="M51 0l498 1454h405l498 -1454h-274l-144 438h-569l-143 -438h-271zM537 659h424l-101 308l-84 264h-55l-84 -264z" />
    <glyph glyph-name="B" unicode="B" horiz-adv-x="1282" 
d="M127 1307q0 64 42 105.5t107 41.5h455q193 0 314.5 -106t121.5 -281q0 -62 -19 -121.5t-63.5 -113t-107.5 -80.5q112 -37 174.5 -132t62.5 -204q0 -179 -125.5 -297.5t-324.5 -118.5h-637v1307zM393 223h330q105 0 162 58.5t57 146.5q0 84 -55.5 142.5t-163.5 58.5h-330
v-406zM393 842h291q101 0 159 63.5t58 149.5q0 83 -56 133.5t-161 50.5h-291v-397z" />
    <glyph glyph-name="C" unicode="C" horiz-adv-x="1558" 
d="M805 -23q-150 0 -283 51t-233 145t-158.5 238t-58.5 318q0 172 58.5 315t158.5 236.5t233 145t283 51.5q279 0 464.5 -143t227.5 -371h-287q-13 55 -42.5 103.5t-77 90t-121 66t-164.5 24.5q-94 0 -175.5 -32t-145 -94t-100 -162.5t-36.5 -229.5q0 -130 36.5 -232
t100 -164t145 -94t175.5 -32q91 0 164.5 24.5t121 66.5t77 90.5t42.5 103.5h285q-41 -228 -226 -371.5t-464 -143.5z" />
    <glyph glyph-name="D" unicode="D" horiz-adv-x="1458" 
d="M127 1307q0 64 42 105.5t107 41.5h412q210 0 369 -91.5t244 -255.5t85 -376q0 -330 -191.5 -530.5t-506.5 -200.5h-561v1307zM397 223h273q207 0 324.5 139t117.5 369q0 229 -119 364.5t-323 135.5h-273v-1008z" />
    <glyph glyph-name="E" unicode="E" horiz-adv-x="1132" 
d="M127 1307q0 64 42 105.5t107 41.5h777v-229h-656v-383h588v-226h-588v-387h666v-229h-936v1307z" />
    <glyph glyph-name="F" unicode="F" horiz-adv-x="1148" 
d="M127 1307q0 64 42 105.5t107 41.5h773v-233h-652v-390h584v-225h-584v-606h-270v1307z" />
    <glyph glyph-name="G" unicode="G" horiz-adv-x="1587" 
d="M807 -23q-207 0 -372 88t-263 260.5t-98 403.5q0 172 58.5 315t158.5 236.5t232.5 145t281.5 51.5q281 0 465.5 -142.5t226.5 -371.5h-285q-28 118 -130 201t-275 83q-94 0 -175.5 -32t-145.5 -93.5t-101 -162.5t-37 -230q0 -130 37 -232t101 -164t145.5 -94t175.5 -32
q205 0 312.5 86t107.5 250v22h-475v211h749v-184q0 -132 -48 -245t-136.5 -195t-219.5 -128.5t-290 -46.5z" />
    <glyph glyph-name="H" unicode="H" horiz-adv-x="1429" 
d="M1032 0v608h-635v-608h-270v1454h270v-606h635v606h271v-1454h-271z" />
    <glyph glyph-name="I" unicode="I" horiz-adv-x="524" 
d="M127 1454h270v-1454h-270v1454z" />
    <glyph glyph-name="J" unicode="J" horiz-adv-x="720" 
d="M59 0v233h265v1221h270v-1307q0 -65 -42 -106t-108 -41h-385z" />
    <glyph glyph-name="K" unicode="K" horiz-adv-x="1312" 
d="M809 739l451 -725v-14h-299l-386 635h-178v-635h-270v1454h270v-590h178l383 590h302v-18l-451 -654v-43z" />
    <glyph glyph-name="L" unicode="L" horiz-adv-x="1101" 
d="M127 0v1454h270v-1221h650v-233h-920z" />
    <glyph glyph-name="M" unicode="M" horiz-adv-x="1865" 
d="M377 0h-250v1307q0 64 42 105.5t107 41.5h326l242 -926l65 -284h45l68 284l242 926h473v-1454h-248v1206h-45l-74 -307l-246 -899h-385l-245 899l-72 307h-47l2 -307v-899z" />
    <glyph glyph-name="N" unicode="N" horiz-adv-x="1472" 
d="M127 1307q0 64 42 105.5t107 41.5h293l361 -885l114 -297h52v1182h250v-1454h-441l-362 885l-113 297h-53v-1182h-250v1307z" />
    <glyph glyph-name="O" unicode="O" horiz-adv-x="1609" 
d="M805 -23q-150 0 -283 51.5t-233 145.5t-158.5 237.5t-58.5 317.5q0 171 58.5 314t158.5 237t233 145.5t283 51.5t282.5 -51.5t232.5 -145.5t158 -237t58 -314q0 -173 -58 -316.5t-158 -238t-232.5 -146t-282.5 -51.5zM346 729q0 -247 128.5 -384.5t330.5 -137.5
q97 0 180 34.5t145 99.5t97 164.5t35 223.5q0 243 -128.5 380.5t-328.5 137.5q-202 0 -330.5 -137.5t-128.5 -380.5z" />
    <glyph glyph-name="P" unicode="P" horiz-adv-x="1259" 
d="M127 1307q0 64 42 105.5t107 41.5h443q215 0 345 -116t130 -318q0 -212 -128.5 -328.5t-340.5 -116.5h-328v-575h-270v1307zM397 799h324q101 0 150 58t49 163q0 102 -55.5 156.5t-162.5 54.5h-305v-432z" />
    <glyph glyph-name="Q" unicode="Q" horiz-adv-x="1609" 
d="M805 207q97 0 180 34.5t145 99.5t97 164.5t35 223.5q0 243 -128.5 380.5t-328.5 137.5q-202 0 -330.5 -137.5t-128.5 -380.5q0 -247 128.5 -384.5t330.5 -137.5zM72 729q0 171 58.5 314t158.5 237t233 145.5t283 51.5t282.5 -51.5t232.5 -145.5t158 -237t58 -314
q0 -154 -46 -284.5t-126.5 -223.5t-189 -152.5t-236.5 -80.5v-64h434v-207h-547q-66 0 -107.5 42.5t-41.5 107.5v121q-128 20 -238 79.5t-191.5 152t-128 223.5t-46.5 286z" />
    <glyph glyph-name="R" unicode="R" horiz-adv-x="1345" 
d="M127 1307q0 64 42 105.5t107 41.5h472q216 0 346.5 -116t130.5 -320q0 -153 -77.5 -261t-215.5 -151l94 -151l268 -455h-307l-325 582h-265v-582h-270v1307zM397 799h355q101 0 149.5 58t48.5 163q0 103 -56 157t-163 54h-334v-432z" />
    <glyph glyph-name="S" unicode="S" horiz-adv-x="1280" 
d="M653 -23q-166 0 -298 58.5t-210 173.5t-79 270h272q4 -129 92 -203.5t225 -74.5q132 0 208.5 53.5t76.5 155.5q0 52 -29 91t-77.5 63.5t-111.5 44.5t-133 38t-140 39t-133 53t-111.5 74t-77.5 108t-29 150q0 189 146.5 297.5t380.5 108.5q243 0 396 -128t159 -352h-271
q-4 125 -85 194t-208 69q-111 0 -181 -45.5t-70 -133.5q0 -49 29 -86t78 -61.5t112.5 -44.5t133.5 -39t140.5 -41t134 -55.5t112.5 -76.5t78 -110t29 -151q0 -136 -77 -237.5t-202 -151.5t-280 -50z" />
    <glyph glyph-name="T" unicode="T" horiz-adv-x="1239" 
d="M483 0v1221h-424v233h1121v-233h-426v-1221h-271z" />
    <glyph glyph-name="U" unicode="U" horiz-adv-x="1402" 
d="M700 -23q-123 0 -223.5 35.5t-165 92.5t-108 132t-62 149.5t-18.5 148.5v919h270v-907q0 -155 87 -245.5t220 -90.5q135 0 222.5 90t87.5 246v907h270v-919q0 -74 -18.5 -148.5t-63 -149.5t-109 -132t-165.5 -92.5t-224 -35.5z" />
    <glyph glyph-name="V" unicode="V" horiz-adv-x="1454" 
d="M53 1454h281l295 -944l76 -277h51l75 277l295 944h277l-471 -1454h-410z" />
    <glyph glyph-name="W" unicode="W" horiz-adv-x="2066" 
d="M1053 1221h-37l-58 -310l-186 -911h-401l-316 1454h269l174 -915l55 -306h37l55 306l195 915h389l194 -915l56 -306h37l55 306l174 915h268l-315 -1454h-402l-186 911z" />
    <glyph glyph-name="X" unicode="X" horiz-adv-x="1409" 
d="M53 0l391 741l-376 713h294l295 -596h95l297 596h292l-376 -711l391 -743h-291l-313 612h-95l-313 -612h-291z" />
    <glyph glyph-name="Y" unicode="Y" horiz-adv-x="1306" 
d="M518 571l-469 875v8h287l207 -412l104 -225h10l107 225l207 412h286v-8l-471 -873v-573h-268v571z" />
    <glyph glyph-name="Z" unicode="Z" horiz-adv-x="1204" 
d="M70 0l2 221l725 991v9h-709v233h1028v-221l-727 -991v-9h746v-233h-1065z" />
    <glyph glyph-name="bracketleft" unicode="[" horiz-adv-x="614" 
d="M254 -330q-60 0 -95.5 35t-35.5 94v1628q0 59 35.5 94t95.5 35h297v-217h-180v-1452h180v-217h-297z" />
    <glyph glyph-name="backslash" unicode="\" horiz-adv-x="817" 
d="M508 0l-457 1454h258l457 -1454h-258z" />
    <glyph glyph-name="bracketright" unicode="]" horiz-adv-x="614" 
d="M360 1556q60 0 96 -35t36 -94v-1628q0 -59 -36 -94t-96 -35h-297v217h181v1452h-181v217h297z" />
    <glyph glyph-name="asciicircum" unicode="^" horiz-adv-x="978" 
d="M123 915l217 461h299l217 -461h-213l-154 318l-155 -318h-211z" />
    <glyph glyph-name="underscore" unicode="_" horiz-adv-x="1257" 
d="M100 -86h1057v-190h-1057v190z" />
    <glyph glyph-name="grave" unicode="`" horiz-adv-x="745" 
d="M416 1200l-314 254h316l225 -254h-227z" />
    <glyph glyph-name="a" unicode="a" horiz-adv-x="1159" 
d="M446 0q-170 0 -272 79.5t-102 233.5q0 86 27 145t84.5 95t131 55t181.5 29l303 27v71q0 95 -53.5 137.5t-155.5 42.5q-101 0 -150.5 -39.5t-60.5 -127.5h-258q3 173 133.5 266.5t343.5 93.5q210 0 331.5 -96t121.5 -289v-576q0 -65 -42 -106t-108 -41h-455zM336 322
q0 -73 41.5 -103.5t124.5 -30.5h297v301l-250 -28q-113 -13 -163 -41.5t-50 -97.5z" />
    <glyph glyph-name="b" unicode="b" horiz-adv-x="1245" 
d="M270 0q-65 0 -107 41.5t-42 105.5v1307h262v-369h270q226 0 371 -148.5t145 -393.5q0 -124 -39 -226.5t-108 -171.5t-164 -107t-205 -38h-383zM383 211h225q142 0 216.5 86t74.5 246q0 159 -74 245t-217 86h-225v-663z" />
    <glyph glyph-name="c" unicode="c" horiz-adv-x="1216" 
d="M631 -23q-113 0 -213 38.5t-175.5 109t-120 179t-44.5 239.5q0 132 44 240.5t120.5 178.5t176 108t212.5 38q108 0 200 -32t156 -87.5t105.5 -124t58.5 -145.5h-272q-9 32 -27.5 62t-47.5 58.5t-74 46t-99 17.5q-124 0 -207.5 -92.5t-83.5 -267.5t83.5 -268t207.5 -93
q54 0 99 17.5t74 46.5t47.5 59t27.5 62h272q-17 -77 -58.5 -146t-105.5 -124t-156 -87.5t-200 -32.5z" />
    <glyph glyph-name="d" unicode="d" horiz-adv-x="1245" 
d="M592 0q-110 0 -205 38t-164 107t-108 171.5t-39 226.5q0 245 145 393.5t371 148.5h268v369h262v-1307q0 -65 -41 -106t-106 -41h-383zM346 543q0 -160 74.5 -246t216.5 -86h223v663h-223q-143 0 -217 -86t-74 -245z" />
    <glyph glyph-name="e" unicode="e" horiz-adv-x="1243" 
d="M625 -23q-244 0 -395.5 157.5t-151.5 408.5q0 249 153.5 407t393.5 158q122 0 226 -44t178 -124t112 -200t28 -265h-829q18 -136 94 -217.5t191 -81.5q86 0 148.5 45t92.5 123h273q-47 -169 -186 -268t-328 -99zM346 655h559q-22 121 -95.5 192t-184.5 71
q-109 0 -182 -72t-97 -191z" />
    <glyph glyph-name="f" unicode="f" horiz-adv-x="792" 
d="M217 1307q0 68 41 107.5t107 39.5h366v-207h-252v-162h252v-213h-252v-872h-262v872h-156v213h156v222z" />
    <glyph glyph-name="g" unicode="g" horiz-adv-x="1245" 
d="M219 -369v207h641v174h-270q-225 0 -369.5 147.5t-144.5 389.5q0 244 144.5 390t369.5 146h383q66 0 107.5 -41t41.5 -106v-1155q0 -68 -43 -110t-114 -42h-746zM344 549q0 -154 75 -240t216 -86h225v651h-225q-141 0 -216 -84.5t-75 -240.5z" />
    <glyph glyph-name="h" unicode="h" horiz-adv-x="1200" 
d="M827 643q0 231 -209 231h-231v-874h-262v1454h262v-369h305q175 0 286.5 -110.5t111.5 -308.5v-666h-263v643z" />
    <glyph glyph-name="i" unicode="i" horiz-adv-x="512" 
d="M125 0v1085h262v-1085h-262zM125 1217v237h262v-237h-262z" />
    <glyph glyph-name="j" unicode="j" horiz-adv-x="512" 
d="M-111 -369v207h236v1247h262v-1302q0 -68 -43 -110t-115 -42h-340zM123 1217v237h262v-237h-262z" />
    <glyph glyph-name="k" unicode="k" horiz-adv-x="1163" 
d="M782 573l324 -559v-14h-287l-256 477h-176v-477h-262v1454h262v-762h176l256 393h289v-14l-326 -473v-25z" />
    <glyph glyph-name="l" unicode="l" horiz-adv-x="512" 
d="M387 0h-262v1454h262v-1454z" />
    <glyph glyph-name="m" unicode="m" horiz-adv-x="1773" 
d="M121 938q0 64 42 105.5t107 41.5h998q174 0 285.5 -110.5t111.5 -308.5v-666h-262v643q0 231 -209 231h-170v-874h-262v874h-379v-874h-262v938z" />
    <glyph glyph-name="n" unicode="n" horiz-adv-x="1196" 
d="M121 938q0 64 42 105.5t107 41.5h420q174 0 285.5 -110.5t111.5 -308.5v-666h-262v643q0 231 -209 231h-233v-874h-262v938z" />
    <glyph glyph-name="o" unicode="o" horiz-adv-x="1261" 
d="M631 -23q-113 0 -213 38t-176 108.5t-120 179t-44 240.5t44 240.5t120.5 178.5t176 108t212.5 38t212.5 -38t176 -108t120.5 -178.5t44 -240.5t-44 -240.5t-120 -179t-176 -108.5t-213 -38zM340 543q0 -175 83.5 -268t207.5 -93q123 0 206 93t83 268t-83 267.5t-206 92.5
q-124 0 -207.5 -92.5t-83.5 -267.5z" />
    <glyph glyph-name="p" unicode="p" horiz-adv-x="1245" 
d="M121 938q0 64 42 105.5t107 41.5h383q226 0 371 -148.5t145 -393.5q0 -124 -39 -226.5t-108 -171.5t-164 -107t-205 -38h-270v-369h-262v1307zM383 211h225q142 0 216.5 86t74.5 246q0 159 -74 245t-217 86h-225v-663z" />
    <glyph glyph-name="q" unicode="q" horiz-adv-x="1245" 
d="M860 -369v369h-268q-110 0 -205 38t-164 107t-108 171.5t-39 226.5q0 245 145 393.5t371 148.5h383q65 0 106 -41.5t41 -105.5v-1307h-262zM346 543q0 -160 74.5 -246t216.5 -86h223v663h-223q-143 0 -217 -86t-74 -245z" />
    <glyph glyph-name="r" unicode="r" horiz-adv-x="735" 
d="M121 938q0 68 41.5 107.5t107.5 39.5h402v-213h-289v-872h-262v938z" />
    <glyph glyph-name="s" unicode="s" horiz-adv-x="1093" 
d="M549 -23q-209 0 -338 93t-139 274h262q17 -94 72.5 -135t146.5 -41q53 0 96 11t76 42t33 80q0 47 -36.5 79t-95 49t-129 31.5t-141 35.5t-129 52.5t-95 90.5t-36.5 141q0 155 125 241.5t322 86.5q205 0 325 -95t131 -265h-260q-12 174 -202 174q-77 0 -130 -29.5
t-53 -89.5q0 -42 37 -71t96 -47t130 -35t142 -41t130 -57.5t96 -93t37 -139.5q0 -165 -132 -253.5t-341 -88.5z" />
    <glyph glyph-name="t" unicode="t" horiz-adv-x="782" 
d="M702 1085v-213h-223v-665h223v-207h-335q-66 0 -108 41t-42 106v725h-156v213h156v277h262v-277h223z" />
    <glyph glyph-name="u" unicode="u" horiz-adv-x="1173" 
d="M506 0q-174 0 -285.5 111t-111.5 309v665h262v-643q0 -231 209 -231h211v874h262v-938q0 -64 -42.5 -105.5t-107.5 -41.5h-397z" />
    <glyph glyph-name="v" unicode="v" horiz-adv-x="1196" 
d="M412 0l-357 1065v20h273l184 -624l68 -246h38l68 246l184 624h271v-20l-355 -1065h-374z" />
    <glyph glyph-name="w" unicode="w" horiz-adv-x="1779" 
d="M1251 215h29l49 246l133 624h260v-16l-270 -1069h-367l-135 625l-43 245h-33l-45 -245l-133 -625h-368l-271 1069v16h262l134 -624l47 -246h30l45 246l134 624h364l133 -624z" />
    <glyph glyph-name="x" unicode="x" horiz-adv-x="1216" 
d="M858 535l301 -521v-14h-278l-238 442h-70l-237 -442h-279v14l301 521v40l-301 496v14h279l237 -428h70l238 428h278v-14l-301 -496v-40z" />
    <glyph glyph-name="y" unicode="y" horiz-adv-x="1198" 
d="M203 -369v207h313l41 174h-151l-351 1057v16h273l184 -624l68 -246h38l68 246l184 624h271v-16l-430 -1300q-44 -138 -185 -138h-323z" />
    <glyph glyph-name="z" unicode="z" horiz-adv-x="1050" 
d="M76 0v184l567 688h-549v213h871v-184l-572 -688h580v-213h-897z" />
    <glyph glyph-name="braceleft" unicode="{" horiz-adv-x="677" 
d="M317 -330q-60 0 -95.5 35t-35.5 94v629l-133 139v92l133 140v628q0 59 35 94t94 35h299v-217h-180v-540q0 -31 -9 -50t-40 -51l-80 -82v-6l80 -82q31 -32 40 -50.5t9 -49.5v-541h180v-217h-297z" />
    <glyph glyph-name="bar" unicode="|" horiz-adv-x="636" 
d="M449 -205h-263v1659h263v-1659z" />
    <glyph glyph-name="braceright" unicode="}" horiz-adv-x="677" 
d="M360 1556q60 0 96 -35t36 -94v-628l133 -140v-92l-133 -139v-629q0 -58 -35.5 -93.5t-94.5 -35.5h-299v217h181v541q0 31 9 49.5t40 50.5l80 82v6l-80 82q-31 32 -40 51t-9 50v540h-181v217h297z" />
    <glyph glyph-name="asciitilde" unicode="~" horiz-adv-x="1224" 
d="M862 555q-77 0 -162 29.5t-158.5 58.5t-121.5 29q-113 0 -119 -117h-240q2 68 22 128.5t56.5 109.5t94.5 77.5t131 28.5q61 0 128 -18.5t115.5 -41t103.5 -41t93 -18.5q115 0 121 117h237q-2 -68 -21 -128t-55 -108.5t-94 -77t-131 -28.5z" />
    <glyph glyph-name="uni00A0" unicode="&#xa0;" horiz-adv-x="438" 
 />
    <glyph glyph-name="exclamdown" unicode="&#xa1;" horiz-adv-x="524" 
d="M131 -369v1063h262v-1063h-262zM131 840v245h262v-245h-262z" />
    <glyph glyph-name="cent" unicode="&#xa2;" horiz-adv-x="1202" 
d="M70 727q0 219 114.5 363.5t296.5 185.5v178h262v-172q161 -31 265 -136t135 -243h-273q-9 32 -27.5 62t-47 58.5t-73.5 46t-99 17.5q-124 0 -207.5 -92.5t-83.5 -267.5t83.5 -267.5t207.5 -92.5q54 0 99 17.5t73.5 46t47 58.5t27.5 62h273q-31 -138 -135 -243t-265 -136
v-172h-262v178q-182 43 -296.5 187t-114.5 362z" />
    <glyph glyph-name="sterling" unicode="&#xa3;" horiz-adv-x="1202" 
d="M74 0v223h164v412h-164v219h164v180q0 90 26.5 168t80 140.5t144 98.5t207.5 36q200 0 317 -110t126 -304h-262q-8 95 -50.5 147t-136.5 52q-91 0 -136.5 -55.5t-45.5 -151.5v-201h340v-219h-340v-412h608v-223h-1042z" />
    <glyph glyph-name="currency" unicode="&#xa4;" horiz-adv-x="1155" 
d="M580 242q-132 0 -240 63l-111 -110l-166 167l109 109q-63 111 -63 242q0 129 63 237l-109 109l166 168l111 -111q109 64 240 64q126 0 239 -66l111 111l162 -164l-109 -109q66 -113 66 -239q0 -128 -66 -244l109 -109l-162 -163l-111 110q-111 -65 -239 -65zM317 713
q0 -108 76.5 -185t186.5 -77q108 0 183 77t75 185q0 106 -74.5 182t-183.5 76q-111 0 -187 -76t-76 -182z" />
    <glyph glyph-name="yen" unicode="&#xa5;" horiz-adv-x="1333" 
d="M207 817h188l-346 629v8h285l215 -412l113 -225h10l114 225l215 412h285v-8l-350 -629h194v-182h-294l-35 -62v-47h329v-180h-329v-346h-271v346h-323v180h323v45l-34 64h-289v182z" />
    <glyph glyph-name="brokenbar" unicode="&#xa6;" horiz-adv-x="602" 
d="M432 410v-615h-262v615h262zM170 840v614h262v-614h-262z" />
    <glyph glyph-name="section" unicode="&#xa7;" horiz-adv-x="1304" 
d="M653 -207q-150 0 -264.5 45t-181.5 137t-68 220h262q3 -96 77.5 -155.5t180.5 -59.5q107 0 167.5 39.5t60.5 109.5q0 44 -32.5 76.5t-85.5 50.5t-120.5 36t-138.5 33t-138.5 42.5t-120.5 63t-85.5 96.5t-32.5 141q0 82 48.5 148.5t135.5 103.5q-139 83 -139 237
q0 142 125 231t336 89q224 0 357 -101t137 -280h-263q-3 97 -65.5 150.5t-169.5 53.5q-95 0 -147 -36t-52 -101q0 -53 40.5 -89t105 -55.5t142.5 -36t156 -40t143 -57t106 -97t42 -151.5q0 -91 -45 -160.5t-131 -107.5q154 -82 154 -232q0 -160 -132.5 -252t-363.5 -92z
M391 674q0 -33 18 -60.5t42 -46t70.5 -37.5t82 -29.5t96.5 -27.5q103 7 156 47.5t53 106.5q0 20 -6 37.5t-13.5 31t-25 27t-30 22.5t-39.5 19t-42.5 16t-49 15t-49.5 13t-54 13q-105 -10 -157 -49t-52 -98z" />
    <glyph glyph-name="dieresis" unicode="&#xa8;" horiz-adv-x="843" 
d="M512 1219v217h229v-217h-229zM102 1219v217h230v-217h-230z" />
    <glyph glyph-name="copyright" unicode="&#xa9;" horiz-adv-x="1763" 
d="M879 -23q-153 0 -291 59t-237.5 159.5t-158.5 240t-59 293.5q0 153 58.5 291t158.5 238.5t239 159.5t294 59q153 0 291.5 -59t238.5 -159.5t158.5 -239.5t58.5 -292q0 -154 -58.5 -293t-159 -239t-239.5 -159t-294 -59zM242 729q0 -177 85 -326.5t232 -236t322 -86.5
q173 0 320.5 86t234 235t86.5 326t-86.5 325t-233 233t-319.5 85q-177 0 -324.5 -85t-232 -232.5t-84.5 -323.5zM430 727q0 146 63 254.5t165 162.5t227 54q173 0 284.5 -94t141.5 -230h-221q-16 60 -68 107t-137 47q-103 0 -172.5 -77t-69.5 -224t69.5 -224t172.5 -77
q85 0 137 47t68 107h221q-30 -136 -141.5 -230t-284.5 -94q-125 0 -227 54t-165 162.5t-63 254.5z" />
    <glyph glyph-name="ordfeminine" unicode="&#xaa;" horiz-adv-x="686" 
d="M250 854q-98 0 -157.5 45t-59.5 129q0 91 61 130.5t187 49.5l168 13v34q0 91 -103 91q-51 0 -76.5 -20t-29.5 -64h-177q1 102 80 153t207 51q130 0 202.5 -54.5t72.5 -168.5v-299q0 -38 -28 -64t-69 -26h-278zM217 1034q0 -67 86 -67h146v147l-127 -14q-57 -6 -81 -21.5
t-24 -44.5z" />
    <glyph glyph-name="guillemotleft" unicode="&#xab;" horiz-adv-x="1138" 
d="M332 139l-240 406l240 403h268l-242 -403l242 -406h-268zM535 545l239 403h268l-241 -403l241 -406h-268z" />
    <glyph glyph-name="logicalnot" unicode="&#xac;" horiz-adv-x="1329" 
d="M915 418v393h-776v221h1004v-614h-228z" />
    <glyph glyph-name="uni00AD" unicode="&#xad;" horiz-adv-x="854" 
d="M102 465v209h650v-209h-650z" />
    <glyph glyph-name="registered" unicode="&#xae;" horiz-adv-x="1763" 
d="M879 -23q-153 0 -291 59t-237.5 159.5t-158.5 240t-59 293.5q0 153 58.5 291t158.5 238.5t239 159.5t294 59q153 0 291.5 -59t238.5 -159.5t158.5 -239.5t58.5 -292q0 -154 -58.5 -293t-159 -239t-239.5 -159t-294 -59zM242 729q0 -177 85 -326.5t232 -236t322 -86.5
q173 0 320.5 86t234 235t86.5 326t-86.5 325t-233 233t-319.5 85q-177 0 -324.5 -85t-232 -232.5t-84.5 -323.5zM547 270v815q0 42 27 69.5t69 27.5h326q133 0 214 -75.5t81 -207.5q0 -100 -50 -169.5t-139 -96.5l205 -363h-211l-184 348h-146v-348h-192zM739 770h217
q111 0 111 129q0 59 -32 92t-93 33h-203v-254z" />
    <glyph glyph-name="macron" unicode="&#xaf;" horiz-adv-x="854" 
d="M102 1415h650v-176h-650v176z" />
    <glyph glyph-name="degree" unicode="&#xb0;" horiz-adv-x="935" 
d="M793 1151q0 -135 -95 -230.5t-231 -95.5q-135 0 -229.5 95.5t-94.5 230.5t95 229.5t231 94.5q135 0 229.5 -94.5t94.5 -229.5zM315 1151q0 -65 44.5 -110.5t107.5 -45.5t108.5 45.5t45.5 110.5q0 64 -45 108t-107 44q-65 0 -109.5 -44t-44.5 -108z" />
    <glyph glyph-name="plusminus" unicode="&#xb1;" horiz-adv-x="1157" 
d="M465 418v346h-387v211h387v346h227v-346h389v-211h-389v-346h-227zM84 127v207h989v-207h-989z" />
    <glyph glyph-name="uni00B2" unicode="&#xb2;" horiz-adv-x="702" 
d="M43 999q257 188 340.5 270.5t83.5 149.5q0 52 -32.5 79.5t-86.5 27.5q-59 0 -93.5 -33.5t-35.5 -91.5h-192q3 132 90.5 199t232.5 67q141 0 227.5 -66t86.5 -171q0 -108 -79 -197.5t-282 -216.5v-8l141 6h215v-160h-616v145z" />
    <glyph glyph-name="uni00B3" unicode="&#xb3;" horiz-adv-x="712" 
d="M352 842q-145 0 -234.5 66.5t-92.5 187.5h192q3 -51 38.5 -82t92.5 -31t93 29t36 80q0 53 -40.5 77.5t-108.5 24.5h-66v143h66q68 0 107.5 27t39.5 74q0 41 -35.5 65.5t-87.5 24.5q-54 0 -85.5 -27.5t-37.5 -75.5h-190q4 115 88 179.5t225 64.5q139 0 226.5 -60
t87.5 -155q0 -61 -37 -108t-94 -66v-6q64 -23 102.5 -71t38.5 -118q0 -115 -90.5 -179t-233.5 -64z" />
    <glyph glyph-name="acute" unicode="&#xb4;" horiz-adv-x="745" 
d="M102 1200l226 254h315l-313 -254h-228z" />
    <glyph glyph-name="uni00B5" unicode="&#xb5;" horiz-adv-x="1175" 
d="M610 -23q-139 0 -223 72v-418h-262v1454h262v-663q0 -112 56 -176t163 -64q108 0 161.5 58t53.5 182v663h262v-622q0 -229 -123.5 -357.5t-349.5 -128.5z" />
    <glyph glyph-name="paragraph" unicode="&#xb6;" horiz-adv-x="1439" 
d="M1067 1454h221v-1823h-221v1823zM72 922q0 146 67 267t190 193t277 72h322v-1823h-221v758h-101q-154 0 -277 71.5t-190 193t-67 268.5z" />
    <glyph glyph-name="periodcentered" unicode="&#xb7;" horiz-adv-x="512" 
d="M125 420v254h262v-254h-262z" />
    <glyph glyph-name="cedilla" unicode="&#xb8;" horiz-adv-x="641" 
d="M117 -221l57 225l176 -4l-61 -106v-17h53q81 0 139 -44t58 -126v-4q0 -85 -58.5 -129.5t-138.5 -44.5h-240v113h181q79 0 79 61v4q0 27 -20.5 42t-58.5 15h-152z" />
    <glyph glyph-name="uni00B9" unicode="&#xb9;" horiz-adv-x="477" 
d="M211 854v645h-197v158h295q40 0 67 -26t27 -66v-711h-192z" />
    <glyph glyph-name="ordmasculine" unicode="&#xba;" horiz-adv-x="739" 
d="M371 842q-143 0 -238.5 84t-95.5 227q0 145 95.5 229t238.5 84q144 0 237.5 -84t93.5 -229q0 -144 -93.5 -227.5t-237.5 -83.5zM225 1153q0 -87 40 -132.5t106 -45.5t106.5 44.5t40.5 133.5t-40.5 133.5t-106.5 44.5t-106 -44.5t-40 -133.5z" />
    <glyph glyph-name="guillemotright" unicode="&#xbb;" horiz-adv-x="1138" 
d="M367 948l239 -405l-239 -404h-269l242 404l-242 405h269zM541 139l241 404l-241 405h268l240 -405l-240 -404h-268z" />
    <glyph glyph-name="onequarter" unicode="&#xbc;" horiz-adv-x="1568" 
d="M211 651v645h-197v158h295q40 0 67 -26t27 -66v-711h-192zM309 0l629 1454h180l-629 -1454h-180zM870 170v137l357 496h172q40 0 68 -26.5t28 -65.5v-711h-186v170h-439zM1071 326h238v161l4 152h-25l-217 -307v-6z" />
    <glyph glyph-name="onehalf" unicode="&#xbd;" horiz-adv-x="1619" 
d="M211 651v645h-197v158h295q40 0 67 -26t27 -66v-711h-192zM309 0l629 1454h180l-629 -1454h-180zM942 547q3 132 90.5 199t233.5 67q141 0 227 -66.5t86 -171.5q0 -108 -78.5 -197t-281.5 -216v-8l141 6h215v-160h-617v145q257 188 340.5 270.5t83.5 149.5q0 52 -32 79.5
t-86 27.5q-59 0 -93.5 -33.5t-35.5 -91.5h-193z" />
    <glyph glyph-name="threequarters" unicode="&#xbe;" horiz-adv-x="1794" 
d="M352 639q-145 0 -234.5 66.5t-92.5 187.5h192q3 -51 38.5 -82t92.5 -31t93 29t36 80q0 53 -40.5 77.5t-108.5 24.5h-66v144h66q68 0 107.5 26.5t39.5 73.5q0 41 -35.5 65.5t-87.5 24.5q-54 0 -85.5 -27t-37.5 -75h-190q4 115 88 179t225 64q139 0 226.5 -60t87.5 -155
q0 -61 -37 -108t-94 -66v-6q64 -23 102.5 -70.5t38.5 -117.5q0 -115 -90.5 -179.5t-233.5 -64.5zM537 0l628 1454h181l-629 -1454h-180zM1098 170v137l356 496h172q40 0 68 -26.5t28 -65.5v-711h-186v170h-438zM1298 326h238v161l4 152h-24l-218 -307v-6z" />
    <glyph glyph-name="questiondown" unicode="&#xbf;" horiz-adv-x="1128" 
d="M713 637q0 -67 -17 -123.5t-52.5 -103.5t-69 -79.5t-85.5 -74.5q-76 -63 -114.5 -115.5t-38.5 -126.5q0 -79 56.5 -130.5t166.5 -51.5q114 0 175.5 70t64.5 194h272q-2 -219 -139.5 -352t-372.5 -133q-237 0 -366.5 114t-129.5 287q0 108 53.5 190t145.5 160
q105 87 147 146.5t42 140.5v45h262v-57zM451 838v247h262v-247h-262z" />
    <glyph glyph-name="Agrave" unicode="&#xc0;" horiz-adv-x="1490" 
d="M51 0l498 1454h405l498 -1454h-274l-144 438h-569l-143 -438h-271zM387 1808h322l217 -247h-236zM537 659h424l-101 308l-84 264h-55l-84 -264z" />
    <glyph glyph-name="Aacute" unicode="&#xc1;" horiz-adv-x="1490" 
d="M51 0l498 1454h405l498 -1454h-274l-144 438h-569l-143 -438h-271zM537 659h424l-101 308l-84 264h-55l-84 -264zM569 1561l217 247h322l-303 -247h-236z" />
    <glyph glyph-name="Acircumflex" unicode="&#xc2;" horiz-adv-x="1490" 
d="M51 0l498 1454h405l498 -1454h-274l-144 438h-569l-143 -438h-271zM403 1561l199 247h303l197 -247h-230l-106 114h-29l-106 -114h-228zM537 659h424l-101 308l-84 264h-55l-84 -264z" />
    <glyph glyph-name="Atilde" unicode="&#xc3;" horiz-adv-x="1490" 
d="M51 0l498 1454h405l498 -1454h-274l-144 438h-569l-143 -438h-271zM375 1561q3 111 67 187.5t160 76.5q45 0 89.5 -17.5t73.5 -38t60.5 -38t53.5 -17.5q72 0 75 103h185q-3 -111 -67.5 -188t-160.5 -77q-45 0 -89.5 17t-73 37.5t-59.5 37.5t-52 17q-40 0 -58 -24.5
t-20 -75.5h-184zM537 659h424l-101 308l-84 264h-55l-84 -264z" />
    <glyph glyph-name="Adieresis" unicode="&#xc4;" horiz-adv-x="1490" 
d="M51 0l498 1454h405l498 -1454h-274l-144 438h-569l-143 -438h-271zM432 1573v223h230v-223h-230zM537 659h424l-101 308l-84 264h-55l-84 -264zM842 1573v223h229v-223h-229z" />
    <glyph glyph-name="Aring" unicode="&#xc5;" horiz-adv-x="1490" 
d="M51 0l498 1454h405l498 -1454h-274l-144 438h-569l-143 -438h-271zM537 659h424l-101 308l-84 264h-55l-84 -264zM539 1741q0 88 60.5 146.5t152.5 58.5q93 0 153 -58.5t60 -146.5q0 -91 -60 -148t-153 -57q-92 0 -152.5 57t-60.5 148zM662 1741q0 -41 26 -65.5t64 -24.5
t64 24.5t26 65.5q0 37 -26 61.5t-64 24.5q-39 0 -64.5 -24t-25.5 -62z" />
    <glyph glyph-name="AE" unicode="&#xc6;" horiz-adv-x="2000" 
d="M55 0l498 1454h1366v-229h-655v-383h587v-226h-587v-387h665v-229h-936v438h-526l-143 -438h-269zM541 659h452v566h-268l-84 -258z" />
    <glyph glyph-name="Ccedilla" unicode="&#xc7;" horiz-adv-x="1558" 
d="M647 -471v113h180q38 0 59 16t21 45v4q0 26 -21 41.5t-59 15.5h-151l-14 15l51 203q-134 15 -250.5 72t-203.5 150.5t-137 228.5t-50 296q0 172 58.5 315t158.5 236.5t233 145t283 51.5q279 0 464.5 -143t227.5 -371h-287q-13 55 -42.5 103.5t-77 90t-121 66t-164.5 24.5
q-94 0 -175.5 -32t-145 -94t-100 -162.5t-36.5 -229.5q0 -130 36.5 -232t100 -164t145 -94t175.5 -32q91 0 164.5 24.5t121 66.5t77 90.5t42.5 103.5h285q-37 -211 -199.5 -350.5t-410.5 -159.5l-51 -88v-17h53q81 0 138.5 -44t57.5 -126v-4q0 -85 -58 -129.5t-138 -44.5
h-240z" />
    <glyph glyph-name="Egrave" unicode="&#xc8;" horiz-adv-x="1132" 
d="M127 1307q0 64 42 105.5t107 41.5h777v-229h-656v-383h588v-226h-588v-387h666v-229h-936v1307zM231 1808h322l217 -247h-235z" />
    <glyph glyph-name="Eacute" unicode="&#xc9;" horiz-adv-x="1132" 
d="M127 1307q0 64 42 105.5t107 41.5h777v-229h-656v-383h588v-226h-588v-387h666v-229h-936v1307zM416 1561l217 247h321l-303 -247h-235z" />
    <glyph glyph-name="Ecircumflex" unicode="&#xca;" horiz-adv-x="1132" 
d="M127 1307q0 64 42 105.5t107 41.5h777v-229h-656v-383h588v-226h-588v-387h666v-229h-936v1307zM248 1561l198 247h304l196 -247h-229l-107 114h-28l-107 -114h-227z" />
    <glyph glyph-name="Edieresis" unicode="&#xcb;" horiz-adv-x="1132" 
d="M127 1307q0 64 42 105.5t107 41.5h777v-229h-656v-383h588v-226h-588v-387h666v-229h-936v1307zM276 1573v223h230v-223h-230zM686 1573v223h229v-223h-229z" />
    <glyph glyph-name="Igrave" unicode="&#xcc;" horiz-adv-x="524" 
d="M127 1454h270v-1454h-270v1454zM-100 1808h321l217 -247h-235z" />
    <glyph glyph-name="Iacute" unicode="&#xcd;" horiz-adv-x="524" 
d="M127 1454h270v-1454h-270v1454zM82 1561l217 247h322l-304 -247h-235z" />
    <glyph glyph-name="Icircumflex" unicode="&#xce;" horiz-adv-x="524" 
d="M127 1454h270v-1454h-270v1454zM-86 1561l199 247h303l196 -247h-229l-107 114h-28l-107 -114h-227z" />
    <glyph glyph-name="Idieresis" unicode="&#xcf;" horiz-adv-x="524" 
d="M127 1454h270v-1454h-270v1454zM-57 1573v223h229v-223h-229zM352 1573v223h230v-223h-230z" />
    <glyph glyph-name="Eth" unicode="&#xd0;" horiz-adv-x="1544" 
d="M211 1307q0 64 42 105.5t107 41.5h412q210 0 369 -91.5t244 -255.5t85 -376q0 -330 -191.5 -530.5t-506.5 -200.5h-561v616h-145v222h145v469zM481 223h273q207 0 324.5 139t117.5 369q0 229 -119 364.5t-323 135.5h-273v-393h301v-222h-301v-393z" />
    <glyph glyph-name="Ntilde" unicode="&#xd1;" horiz-adv-x="1472" 
d="M127 1307q0 64 42 105.5t107 41.5h293l361 -885l114 -297h52v1182h250v-1454h-441l-362 885l-113 297h-53v-1182h-250v1307zM360 1561q3 111 67 187.5t161 76.5q45 0 89.5 -17.5t73 -38t60 -38t53.5 -17.5q73 0 76 103h184q-3 -111 -67 -188t-160 -77q-45 0 -89.5 17
t-73 37.5t-59.5 37.5t-52 17q-40 0 -58 -24.5t-20 -75.5h-185z" />
    <glyph glyph-name="Ograve" unicode="&#xd2;" horiz-adv-x="1609" 
d="M805 -23q-150 0 -283 51.5t-233 145.5t-158.5 237.5t-58.5 317.5q0 171 58.5 314t158.5 237t233 145.5t283 51.5t282.5 -51.5t232.5 -145.5t158 -237t58 -314q0 -173 -58 -316.5t-158 -238t-232.5 -146t-282.5 -51.5zM346 729q0 -247 128.5 -384.5t330.5 -137.5
q97 0 180 34.5t145 99.5t97 164.5t35 223.5q0 243 -128.5 380.5t-328.5 137.5q-202 0 -330.5 -137.5t-128.5 -380.5zM440 1808h322l217 -247h-236z" />
    <glyph glyph-name="Oacute" unicode="&#xd3;" horiz-adv-x="1609" 
d="M805 -23q-150 0 -283 51.5t-233 145.5t-158.5 237.5t-58.5 317.5q0 171 58.5 314t158.5 237t233 145.5t283 51.5t282.5 -51.5t232.5 -145.5t158 -237t58 -314q0 -173 -58 -316.5t-158 -238t-232.5 -146t-282.5 -51.5zM346 729q0 -247 128.5 -384.5t330.5 -137.5
q97 0 180 34.5t145 99.5t97 164.5t35 223.5q0 243 -128.5 380.5t-328.5 137.5q-202 0 -330.5 -137.5t-128.5 -380.5zM625 1561l217 247h321l-303 -247h-235z" />
    <glyph glyph-name="Ocircumflex" unicode="&#xd4;" horiz-adv-x="1609" 
d="M805 -23q-150 0 -283 51.5t-233 145.5t-158.5 237.5t-58.5 317.5q0 171 58.5 314t158.5 237t233 145.5t283 51.5t282.5 -51.5t232.5 -145.5t158 -237t58 -314q0 -173 -58 -316.5t-158 -238t-232.5 -146t-282.5 -51.5zM346 729q0 -247 128.5 -384.5t330.5 -137.5
q97 0 180 34.5t145 99.5t97 164.5t35 223.5q0 243 -128.5 380.5t-328.5 137.5q-202 0 -330.5 -137.5t-128.5 -380.5zM457 1561l198 247h303l197 -247h-229l-107 114h-28l-107 -114h-227z" />
    <glyph glyph-name="Otilde" unicode="&#xd5;" horiz-adv-x="1609" 
d="M805 -23q-150 0 -283 51.5t-233 145.5t-158.5 237.5t-58.5 317.5q0 171 58.5 314t158.5 237t233 145.5t283 51.5t282.5 -51.5t232.5 -145.5t158 -237t58 -314q0 -173 -58 -316.5t-158 -238t-232.5 -146t-282.5 -51.5zM346 729q0 -247 128.5 -384.5t330.5 -137.5
q97 0 180 34.5t145 99.5t97 164.5t35 223.5q0 243 -128.5 380.5t-328.5 137.5q-202 0 -330.5 -137.5t-128.5 -380.5zM428 1561q3 111 67 187.5t160 76.5q45 0 89.5 -17.5t73.5 -38t60.5 -38t53.5 -17.5q73 0 76 103h184q-3 -111 -67 -188t-160 -77q-45 0 -89.5 17
t-73.5 37.5t-60 37.5t-52 17q-40 0 -58 -24.5t-20 -75.5h-184z" />
    <glyph glyph-name="Odieresis" unicode="&#xd6;" horiz-adv-x="1609" 
d="M805 -23q-150 0 -283 51.5t-233 145.5t-158.5 237.5t-58.5 317.5q0 171 58.5 314t158.5 237t233 145.5t283 51.5t282.5 -51.5t232.5 -145.5t158 -237t58 -314q0 -173 -58 -316.5t-158 -238t-232.5 -146t-282.5 -51.5zM346 729q0 -247 128.5 -384.5t330.5 -137.5
q97 0 180 34.5t145 99.5t97 164.5t35 223.5q0 243 -128.5 380.5t-328.5 137.5q-202 0 -330.5 -137.5t-128.5 -380.5zM485 1573v223h230v-223h-230zM895 1573v223h229v-223h-229z" />
    <glyph glyph-name="multiply" unicode="&#xd7;" horiz-adv-x="1085" 
d="M217 250l-158 158l328 327l-328 326l158 156l326 -326l327 328l156 -160l-326 -326l326 -325l-156 -158l-325 328z" />
    <glyph glyph-name="Oslash" unicode="&#xd8;" horiz-adv-x="1609" 
d="M805 -23q-191 0 -352 82l-99 -141h-239l178 254q-104 98 -162.5 240t-58.5 317q0 171 58.5 314t158.5 237t233 145.5t283 51.5q194 0 348 -80l100 139h238l-178 -252q106 -98 164.5 -239.5t58.5 -315.5q0 -173 -58 -316.5t-158 -238t-232.5 -146t-282.5 -51.5zM346 729
q0 -206 96 -346l574 815q-91 49 -211 49q-202 0 -330.5 -137.5t-128.5 -380.5zM590 256q94 -49 215 -49q97 0 180 34.5t145 99.5t97 164.5t35 223.5q0 206 -99 342z" />
    <glyph glyph-name="Ugrave" unicode="&#xd9;" horiz-adv-x="1402" 
d="M700 -23q-123 0 -223.5 35.5t-165 92.5t-108 132t-62 149.5t-18.5 148.5v919h270v-907q0 -155 87 -245.5t220 -90.5q135 0 222.5 90t87.5 246v907h270v-919q0 -74 -18.5 -148.5t-63 -149.5t-109 -132t-165.5 -92.5t-224 -35.5zM338 1808h321l218 -247h-236z" />
    <glyph glyph-name="Uacute" unicode="&#xda;" horiz-adv-x="1402" 
d="M700 -23q-123 0 -223.5 35.5t-165 92.5t-108 132t-62 149.5t-18.5 148.5v919h270v-907q0 -155 87 -245.5t220 -90.5q135 0 222.5 90t87.5 246v907h270v-919q0 -74 -18.5 -148.5t-63 -149.5t-109 -132t-165.5 -92.5t-224 -35.5zM520 1561l217 247h322l-303 -247h-236z" />
    <glyph glyph-name="Ucircumflex" unicode="&#xdb;" horiz-adv-x="1402" 
d="M700 -23q-123 0 -223.5 35.5t-165 92.5t-108 132t-62 149.5t-18.5 148.5v919h270v-907q0 -155 87 -245.5t220 -90.5q135 0 222.5 90t87.5 246v907h270v-919q0 -74 -18.5 -148.5t-63 -149.5t-109 -132t-165.5 -92.5t-224 -35.5zM352 1561l199 247h303l197 -247h-230
l-106 114h-29l-106 -114h-228z" />
    <glyph glyph-name="Udieresis" unicode="&#xdc;" horiz-adv-x="1402" 
d="M700 -23q-123 0 -223.5 35.5t-165 92.5t-108 132t-62 149.5t-18.5 148.5v919h270v-907q0 -155 87 -245.5t220 -90.5q135 0 222.5 90t87.5 246v907h270v-919q0 -74 -18.5 -148.5t-63 -149.5t-109 -132t-165.5 -92.5t-224 -35.5zM381 1573v223h229v-223h-229zM791 1573v223
h229v-223h-229z" />
    <glyph glyph-name="Yacute" unicode="&#xdd;" horiz-adv-x="1306" 
d="M518 571l-469 875v8h287l207 -412l104 -225h10l107 225l207 412h286v-8l-471 -873v-573h-268v571zM473 1561l217 247h322l-303 -247h-236z" />
    <glyph glyph-name="Thorn" unicode="&#xde;" horiz-adv-x="1259" 
d="M127 0v1454h270v-289h322q215 0 345 -117t130 -319q0 -212 -128 -327t-341 -115h-328v-287h-270zM397 508h324q101 0 150 58.5t49 162.5q0 103 -55.5 158t-162.5 55h-305v-434z" />
    <glyph glyph-name="germandbls" unicode="&#xdf;" horiz-adv-x="1241" 
d="M125 983q0 235 126 363.5t370 128.5q130 0 237 -46.5t170.5 -134.5t63.5 -202q0 -99 -50 -180.5t-127 -114.5q109 -37 181.5 -132t72.5 -237q0 -184 -127 -306t-327 -122h-203v213h160q112 0 173.5 62.5t61.5 158.5q0 104 -59.5 164.5t-175.5 60.5h-160v211h100
q105 0 166.5 58t61.5 151q0 91 -61.5 139t-157.5 48q-129 0 -181.5 -70t-52.5 -199v-997h-262v983z" />
    <glyph glyph-name="agrave" unicode="&#xe0;" horiz-adv-x="1159" 
d="M446 0q-170 0 -272 79.5t-102 233.5q0 86 27 145t84.5 95t131 55t181.5 29l303 27v71q0 95 -53.5 137.5t-155.5 42.5q-101 0 -150.5 -39.5t-60.5 -127.5h-258q3 173 133.5 266.5t343.5 93.5q210 0 331.5 -96t121.5 -289v-576q0 -65 -42 -106t-108 -41h-455zM252 1454h315
l226 -254h-228zM336 322q0 -73 41.5 -103.5t124.5 -30.5h297v301l-250 -28q-113 -13 -163 -41.5t-50 -97.5z" />
    <glyph glyph-name="aacute" unicode="&#xe1;" horiz-adv-x="1159" 
d="M446 0q-170 0 -272 79.5t-102 233.5q0 86 27 145t84.5 95t131 55t181.5 29l303 27v71q0 95 -53.5 137.5t-155.5 42.5q-101 0 -150.5 -39.5t-60.5 -127.5h-258q3 173 133.5 266.5t343.5 93.5q210 0 331.5 -96t121.5 -289v-576q0 -65 -42 -106t-108 -41h-455zM336 322
q0 -73 41.5 -103.5t124.5 -30.5h297v301l-250 -28q-113 -13 -163 -41.5t-50 -97.5zM432 1200l225 254h316l-314 -254h-227z" />
    <glyph glyph-name="acircumflex" unicode="&#xe2;" horiz-adv-x="1159" 
d="M446 0q-170 0 -272 79.5t-102 233.5q0 86 27 145t84.5 95t131 55t181.5 29l303 27v71q0 95 -53.5 137.5t-155.5 42.5q-101 0 -150.5 -39.5t-60.5 -127.5h-258q3 173 133.5 266.5t343.5 93.5q210 0 331.5 -96t121.5 -289v-576q0 -65 -42 -106t-108 -41h-455zM248 1200
l198 254h304l196 -254h-229l-107 125h-28l-107 -125h-227zM336 322q0 -73 41.5 -103.5t124.5 -30.5h297v301l-250 -28q-113 -13 -163 -41.5t-50 -97.5z" />
    <glyph glyph-name="atilde" unicode="&#xe3;" horiz-adv-x="1159" 
d="M446 0q-170 0 -272 79.5t-102 233.5q0 86 27 145t84.5 95t131 55t181.5 29l303 27v71q0 95 -53.5 137.5t-155.5 42.5q-101 0 -150.5 -39.5t-60.5 -127.5h-258q3 173 133.5 266.5t343.5 93.5q210 0 331.5 -96t121.5 -289v-576q0 -65 -42 -106t-108 -41h-455zM221 1196
q3 112 67 189t161 77q45 0 89.5 -17t73 -38t60 -38t53.5 -17q73 0 76 100h184q-3 -111 -67 -187.5t-160 -76.5q-57 0 -111.5 27.5t-96 55t-67.5 27.5q-40 0 -57.5 -25.5t-19.5 -76.5h-185zM336 322q0 -73 41.5 -103.5t124.5 -30.5h297v301l-250 -28q-113 -13 -163 -41.5
t-50 -97.5z" />
    <glyph glyph-name="adieresis" unicode="&#xe4;" horiz-adv-x="1159" 
d="M446 0q-170 0 -272 79.5t-102 233.5q0 86 27 145t84.5 95t131 55t181.5 29l303 27v71q0 95 -53.5 137.5t-155.5 42.5q-101 0 -150.5 -39.5t-60.5 -127.5h-258q3 173 133.5 266.5t343.5 93.5q210 0 331.5 -96t121.5 -289v-576q0 -65 -42 -106t-108 -41h-455zM276 1219v217
h230v-217h-230zM336 322q0 -73 41.5 -103.5t124.5 -30.5h297v301l-250 -28q-113 -13 -163 -41.5t-50 -97.5zM686 1219v217h229v-217h-229z" />
    <glyph glyph-name="aring" unicode="&#xe5;" horiz-adv-x="1159" 
d="M446 0q-170 0 -272 79.5t-102 233.5q0 86 27 145t84.5 95t131 55t181.5 29l303 27v71q0 95 -53.5 137.5t-155.5 42.5q-101 0 -150.5 -39.5t-60.5 -127.5h-258q3 173 133.5 266.5t343.5 93.5q210 0 331.5 -96t121.5 -289v-576q0 -65 -42 -106t-108 -41h-455zM336 322
q0 -73 41.5 -103.5t124.5 -30.5h297v301l-250 -28q-113 -13 -163 -41.5t-50 -97.5zM383 1382q0 88 60.5 146.5t152.5 58.5q93 0 153 -58.5t60 -146.5q0 -91 -60 -147.5t-153 -56.5q-92 0 -152.5 56.5t-60.5 147.5zM506 1382q0 -42 26 -67t64 -25t64 25t26 67q0 37 -26 61.5
t-64 24.5q-39 0 -64.5 -24t-25.5 -62z" />
    <glyph glyph-name="ae" unicode="&#xe6;" horiz-adv-x="1961" 
d="M446 0q-170 0 -272 79.5t-102 233.5q0 86 27 145t84.5 95t131 55t181.5 29l303 27v71q0 95 -53.5 137.5t-155.5 42.5q-101 0 -150.5 -39.5t-60.5 -127.5h-258q3 173 133.5 266.5t343.5 93.5q259 0 373 -137q153 137 372 137q122 0 226.5 -44t178.5 -124t112 -200t28 -265
h-829q18 -136 93.5 -217.5t190.5 -81.5q86 0 149 45t93 123h273q-47 -169 -186.5 -268t-328.5 -99q-176 0 -313 91q-45 -68 -129 -68h-455zM336 322q0 -73 41.5 -103.5t124.5 -30.5h297v299v2l-250 -28q-113 -13 -163 -41.5t-50 -97.5zM1065 655h559q-22 121 -96 192
t-185 71q-109 0 -181.5 -72t-96.5 -191z" />
    <glyph glyph-name="ccedilla" unicode="&#xe7;" horiz-adv-x="1216" 
d="M473 -471v113h180q38 0 59 16t21 45v4q0 26 -21 41.5t-59 15.5h-151l-15 15l54 205q-203 31 -333 178t-130 381q0 132 44 240.5t120.5 178.5t176 108t212.5 38q108 0 200 -32t156 -87.5t105.5 -124t58.5 -145.5h-272q-9 32 -27.5 62t-47.5 58.5t-74 46t-99 17.5
q-124 0 -207.5 -92.5t-83.5 -267.5t83.5 -268t207.5 -93q54 0 99 17.5t74 46.5t47.5 59t27.5 62h272q-33 -146 -147.5 -254.5t-292.5 -130.5l-52 -88v-17h54q81 0 138.5 -44t57.5 -126v-4q0 -85 -58 -129.5t-138 -44.5h-240z" />
    <glyph glyph-name="egrave" unicode="&#xe8;" horiz-adv-x="1243" 
d="M625 -23q-244 0 -395.5 157.5t-151.5 408.5q0 249 153.5 407t393.5 158q122 0 226 -44t178 -124t112 -200t28 -265h-829q18 -136 94 -217.5t191 -81.5q86 0 148.5 45t92.5 123h273q-47 -169 -186 -268t-328 -99zM279 1454h315l225 -254h-227zM346 655h559
q-22 121 -95.5 192t-184.5 71q-109 0 -182 -72t-97 -191z" />
    <glyph glyph-name="eacute" unicode="&#xe9;" horiz-adv-x="1243" 
d="M625 -23q-244 0 -395.5 157.5t-151.5 408.5q0 249 153.5 407t393.5 158q122 0 226 -44t178 -124t112 -200t28 -265h-829q18 -136 94 -217.5t191 -81.5q86 0 148.5 45t92.5 123h273q-47 -169 -186 -268t-328 -99zM346 655h559q-22 121 -95.5 192t-184.5 71
q-109 0 -182 -72t-97 -191zM461 1200l225 254h315l-313 -254h-227z" />
    <glyph glyph-name="ecircumflex" unicode="&#xea;" horiz-adv-x="1243" 
d="M625 -23q-244 0 -395.5 157.5t-151.5 408.5q0 249 153.5 407t393.5 158q122 0 226 -44t178 -124t112 -200t28 -265h-829q18 -136 94 -217.5t191 -81.5q86 0 148.5 45t92.5 123h273q-47 -169 -186 -268t-328 -99zM276 1200l199 254h303l197 -254h-230l-106 125h-29
l-106 -125h-228zM346 655h559q-22 121 -95.5 192t-184.5 71q-109 0 -182 -72t-97 -191z" />
    <glyph glyph-name="edieresis" unicode="&#xeb;" horiz-adv-x="1243" 
d="M625 -23q-244 0 -395.5 157.5t-151.5 408.5q0 249 153.5 407t393.5 158q122 0 226 -44t178 -124t112 -200t28 -265h-829q18 -136 94 -217.5t191 -81.5q86 0 148.5 45t92.5 123h273q-47 -169 -186 -268t-328 -99zM305 1219v217h230v-217h-230zM346 655h559
q-22 121 -95.5 192t-184.5 71q-109 0 -182 -72t-97 -191zM715 1219v217h229v-217h-229z" />
    <glyph glyph-name="igrave" unicode="&#xec;" horiz-adv-x="512" 
d="M125 0v1085h262v-1085h-262zM-90 1454h315l226 -254h-228z" />
    <glyph glyph-name="iacute" unicode="&#xed;" horiz-adv-x="512" 
d="M125 0v1085h262v-1085h-262zM92 1200l225 254h316l-314 -254h-227z" />
    <glyph glyph-name="icircumflex" unicode="&#xee;" horiz-adv-x="512" 
d="M125 0v1085h262v-1085h-262zM-92 1200l198 254h304l196 -254h-229l-107 125h-28l-107 -125h-227z" />
    <glyph glyph-name="idieresis" unicode="&#xef;" horiz-adv-x="512" 
d="M125 0v1085h262v-1085h-262zM-63 1219v217h229v-217h-229zM346 1219v217h229v-217h-229z" />
    <glyph glyph-name="eth" unicode="&#xf0;" horiz-adv-x="1273" 
d="M631 -23q-247 0 -399 157.5t-152 408.5q0 248 152.5 406.5t388.5 158.5q110 0 192 -57q-47 73 -111 143l-450 -61v145l313 43q-101 78 -200 129v4h340q72 -54 118 -98l217 28v-145l-94 -12q244 -302 244 -658q0 -169 -67 -303t-195.5 -211.5t-296.5 -77.5zM348 543
q0 -158 81 -257.5t212 -99.5q130 0 210.5 99.5t80.5 257.5t-80 257t-211 99t-212 -99t-81 -257z" />
    <glyph glyph-name="ntilde" unicode="&#xf1;" horiz-adv-x="1196" 
d="M121 938q0 64 42 105.5t107 41.5h420q174 0 285.5 -110.5t111.5 -308.5v-666h-262v643q0 231 -209 231h-233v-874h-262v938zM209 1196q3 112 66.5 189t160.5 77q57 0 111.5 -27.5t96.5 -55t69 -27.5q72 0 75 100h185q-3 -111 -67 -187.5t-161 -76.5q-45 0 -89.5 17
t-73 38t-59.5 38t-52 17q-40 0 -58 -25.5t-20 -76.5h-184z" />
    <glyph glyph-name="ograve" unicode="&#xf2;" horiz-adv-x="1261" 
d="M631 -23q-113 0 -213 38t-176 108.5t-120 179t-44 240.5t44 240.5t120.5 178.5t176 108t212.5 38t212.5 -38t176 -108t120.5 -178.5t44 -240.5t-44 -240.5t-120 -179t-176 -108.5t-213 -38zM285 1454h315l225 -254h-227zM340 543q0 -175 83.5 -268t207.5 -93
q123 0 206 93t83 268t-83 267.5t-206 92.5q-124 0 -207.5 -92.5t-83.5 -267.5z" />
    <glyph glyph-name="oacute" unicode="&#xf3;" horiz-adv-x="1261" 
d="M631 -23q-113 0 -213 38t-176 108.5t-120 179t-44 240.5t44 240.5t120.5 178.5t176 108t212.5 38t212.5 -38t176 -108t120.5 -178.5t44 -240.5t-44 -240.5t-120 -179t-176 -108.5t-213 -38zM340 543q0 -175 83.5 -268t207.5 -93q123 0 206 93t83 268t-83 267.5t-206 92.5
q-124 0 -207.5 -92.5t-83.5 -267.5zM467 1200l225 254h316l-314 -254h-227z" />
    <glyph glyph-name="ocircumflex" unicode="&#xf4;" horiz-adv-x="1261" 
d="M631 -23q-113 0 -213 38t-176 108.5t-120 179t-44 240.5t44 240.5t120.5 178.5t176 108t212.5 38t212.5 -38t176 -108t120.5 -178.5t44 -240.5t-44 -240.5t-120 -179t-176 -108.5t-213 -38zM283 1200l198 254h303l197 -254h-229l-107 125h-29l-106 -125h-227zM340 543
q0 -175 83.5 -268t207.5 -93q123 0 206 93t83 268t-83 267.5t-206 92.5q-124 0 -207.5 -92.5t-83.5 -267.5z" />
    <glyph glyph-name="otilde" unicode="&#xf5;" horiz-adv-x="1261" 
d="M631 -23q-113 0 -213 38t-176 108.5t-120 179t-44 240.5t44 240.5t120.5 178.5t176 108t212.5 38t212.5 -38t176 -108t120.5 -178.5t44 -240.5t-44 -240.5t-120 -179t-176 -108.5t-213 -38zM254 1196q3 112 66.5 189t160.5 77q57 0 111.5 -27.5t96.5 -55t69 -27.5
q73 0 76 100h184q-3 -111 -67 -187.5t-160 -76.5q-57 0 -111.5 27.5t-96 55t-67.5 27.5q-40 0 -58 -25.5t-20 -76.5h-184zM340 543q0 -175 83.5 -268t207.5 -93q123 0 206 93t83 268t-83 267.5t-206 92.5q-124 0 -207.5 -92.5t-83.5 -267.5z" />
    <glyph glyph-name="odieresis" unicode="&#xf6;" horiz-adv-x="1261" 
d="M631 -23q-113 0 -213 38t-176 108.5t-120 179t-44 240.5t44 240.5t120.5 178.5t176 108t212.5 38t212.5 -38t176 -108t120.5 -178.5t44 -240.5t-44 -240.5t-120 -179t-176 -108.5t-213 -38zM311 1219v217h230v-217h-230zM340 543q0 -175 83.5 -268t207.5 -93
q123 0 206 93t83 268t-83 267.5t-206 92.5q-124 0 -207.5 -92.5t-83.5 -267.5zM721 1219v217h229v-217h-229z" />
    <glyph glyph-name="divide" unicode="&#xf7;" horiz-adv-x="1138" 
d="M68 621v215h1003v-215h-1003zM442 281v208h254v-208h-254zM442 967v209h254v-209h-254z" />
    <glyph glyph-name="oslash" unicode="&#xf8;" horiz-adv-x="1261" 
d="M631 -23q-133 0 -250 54l-80 -113h-221l151 217q-153 156 -153 408q0 132 44 240.5t120.5 178.5t176 108t212.5 38q135 0 250 -53l77 112h222l-152 -215q156 -156 156 -409q0 -132 -44 -240.5t-120 -179t-176 -108.5t-213 -38zM340 543q0 -121 41 -201l375 532
q-63 29 -125 29q-124 0 -207.5 -92.5t-83.5 -267.5zM504 211q63 -29 127 -29q123 0 206 93t83 268q0 120 -41 200z" />
    <glyph glyph-name="ugrave" unicode="&#xf9;" horiz-adv-x="1173" 
d="M506 0q-174 0 -285.5 111t-111.5 309v665h262v-643q0 -231 209 -231h211v874h262v-938q0 -64 -42.5 -105.5t-107.5 -41.5h-397zM236 1454h315l225 -254h-227z" />
    <glyph glyph-name="uacute" unicode="&#xfa;" horiz-adv-x="1173" 
d="M506 0q-174 0 -285.5 111t-111.5 309v665h262v-643q0 -231 209 -231h211v874h262v-938q0 -64 -42.5 -105.5t-107.5 -41.5h-397zM416 1200l225 254h315l-313 -254h-227z" />
    <glyph glyph-name="ucircumflex" unicode="&#xfb;" horiz-adv-x="1173" 
d="M506 0q-174 0 -285.5 111t-111.5 309v665h262v-643q0 -231 209 -231h211v874h262v-938q0 -64 -42.5 -105.5t-107.5 -41.5h-397zM231 1200l199 254h303l197 -254h-230l-106 125h-29l-106 -125h-228z" />
    <glyph glyph-name="udieresis" unicode="&#xfc;" horiz-adv-x="1173" 
d="M506 0q-174 0 -285.5 111t-111.5 309v665h262v-643q0 -231 209 -231h211v874h262v-938q0 -64 -42.5 -105.5t-107.5 -41.5h-397zM260 1219v217h229v-217h-229zM670 1219v217h229v-217h-229z" />
    <glyph glyph-name="yacute" unicode="&#xfd;" horiz-adv-x="1198" 
d="M203 -369v207h313l41 174h-151l-351 1057v16h273l184 -624l68 -246h38l68 246l184 624h271v-16l-430 -1300q-44 -138 -185 -138h-323zM434 1200l225 254h316l-313 -254h-228z" />
    <glyph glyph-name="thorn" unicode="&#xfe;" horiz-adv-x="1245" 
d="M121 -369v1823h262v-369h287q215 0 357 -149t142 -393q0 -246 -142 -394.5t-357 -148.5h-287v-369h-262zM383 211h225q142 0 216.5 86t74.5 246q0 159 -74 245t-217 86h-225v-663z" />
    <glyph glyph-name="ydieresis" unicode="&#xff;" horiz-adv-x="1198" 
d="M203 -369v207h313l41 174h-151l-351 1057v16h273l184 -624l68 -246h38l68 246l184 624h271v-16l-430 -1300q-44 -138 -185 -138h-323zM279 1219v217h229v-217h-229zM688 1219v217h230v-217h-230z" />
    <glyph glyph-name="Amacron" unicode="&#x100;" horiz-adv-x="1490" 
d="M51 0l498 1454h405l498 -1454h-274l-144 438h-569l-143 -438h-271zM426 1587v176h649v-176h-649zM537 659h424l-101 308l-84 264h-55l-84 -264z" />
    <glyph glyph-name="amacron" unicode="&#x101;" horiz-adv-x="1159" 
d="M446 0q-170 0 -272 79.5t-102 233.5q0 86 27 145t84.5 95t131 55t181.5 29l303 27v71q0 95 -53.5 137.5t-155.5 42.5q-101 0 -150.5 -39.5t-60.5 -127.5h-258q3 173 133.5 266.5t343.5 93.5q210 0 331.5 -96t121.5 -289v-576q0 -65 -42 -106t-108 -41h-455zM272 1239v176
h650v-176h-650zM336 322q0 -73 41.5 -103.5t124.5 -30.5h297v301l-250 -28q-113 -13 -163 -41.5t-50 -97.5z" />
    <glyph glyph-name="Abreve" unicode="&#x102;" horiz-adv-x="1490" 
d="M51 0l498 1454h405l498 -1454h-274l-144 438h-569l-143 -438h-271zM608 1808q20 -106 144 -106q122 0 143 106h197q-10 -126 -98.5 -193t-241.5 -67q-155 0 -242 67.5t-98 192.5h196zM537 659h424l-101 308l-84 264h-55l-84 -264z" />
    <glyph glyph-name="abreve" unicode="&#x103;" horiz-adv-x="1159" 
d="M446 0q-170 0 -272 79.5t-102 233.5q0 86 27 145t84.5 95t131 55t181.5 29l303 27v71q0 95 -53.5 137.5t-155.5 42.5q-101 0 -150.5 -39.5t-60.5 -127.5h-258q3 173 133.5 266.5t343.5 93.5q210 0 331.5 -96t121.5 -289v-576q0 -65 -42 -106t-108 -41h-455zM455 1454
q21 -115 143 -115q120 0 143 115h197q-11 -127 -99.5 -197.5t-240.5 -70.5q-153 0 -241 71t-99 197h197zM336 322q0 -73 41.5 -103.5t124.5 -30.5h297v301l-250 -28q-113 -13 -163 -41.5t-50 -97.5z" />
    <glyph glyph-name="Aogonek" unicode="&#x104;" horiz-adv-x="1490" 
d="M51 0l498 1454h405l498 -1454h-2q-147 -50 -147 -111q0 -51 94 -51h53v-207h-119q-120 0 -185 49t-65 125q0 123 121 195h-24l-144 438h-569l-143 -438h-271zM537 659h424l-101 308l-84 264h-55l-84 -264z" />
    <glyph glyph-name="aogonek" unicode="&#x105;" horiz-adv-x="1159" 
d="M924 -369q-120 0 -185 49t-65 125q0 122 121 195h-349q-170 0 -272 79.5t-102 233.5q0 86 27 145t84.5 95t131 55t181.5 29l303 27v71q0 95 -53.5 137.5t-155.5 42.5q-101 0 -150.5 -39.5t-60.5 -127.5h-258q3 173 133.5 266.5t343.5 93.5q210 0 331.5 -96t121.5 -289
v-576q0 -41 -16 -70.5t-39 -47.5t-46 -34.5t-39 -41.5t-16 -59q0 -56 94 -56h55v-207h-120zM336 322q0 -73 41.5 -103.5t124.5 -30.5h297v301l-250 -28q-113 -13 -163 -41.5t-50 -97.5z" />
    <glyph glyph-name="Cacute" unicode="&#x106;" horiz-adv-x="1558" 
d="M805 -23q-150 0 -283 51t-233 145t-158.5 238t-58.5 318q0 172 58.5 315t158.5 236.5t233 145t283 51.5q279 0 464.5 -143t227.5 -371h-287q-13 55 -42.5 103.5t-77 90t-121 66t-164.5 24.5q-94 0 -175.5 -32t-145 -94t-100 -162.5t-36.5 -229.5q0 -130 36.5 -232
t100 -164t145 -94t175.5 -32q91 0 164.5 24.5t121 66.5t77 90.5t42.5 103.5h285q-41 -228 -226 -371.5t-464 -143.5zM625 1561l217 247h321l-303 -247h-235z" />
    <glyph glyph-name="cacute" unicode="&#x107;" horiz-adv-x="1216" 
d="M631 -23q-113 0 -213 38.5t-175.5 109t-120 179t-44.5 239.5q0 132 44 240.5t120.5 178.5t176 108t212.5 38q108 0 200 -32t156 -87.5t105.5 -124t58.5 -145.5h-272q-9 32 -27.5 62t-47.5 58.5t-74 46t-99 17.5q-124 0 -207.5 -92.5t-83.5 -267.5t83.5 -268t207.5 -93
q54 0 99 17.5t74 46.5t47.5 59t27.5 62h272q-17 -77 -58.5 -146t-105.5 -124t-156 -87.5t-200 -32.5zM467 1200l225 254h316l-314 -254h-227z" />
    <glyph glyph-name="Ccircumflex" unicode="&#x108;" horiz-adv-x="1558" 
d="M805 -23q-150 0 -283 51t-233 145t-158.5 238t-58.5 318q0 172 58.5 315t158.5 236.5t233 145t283 51.5q279 0 464.5 -143t227.5 -371h-287q-13 55 -42.5 103.5t-77 90t-121 66t-164.5 24.5q-94 0 -175.5 -32t-145 -94t-100 -162.5t-36.5 -229.5q0 -130 36.5 -232
t100 -164t145 -94t175.5 -32q91 0 164.5 24.5t121 66.5t77 90.5t42.5 103.5h285q-41 -228 -226 -371.5t-464 -143.5zM457 1561l198 247h303l197 -247h-229l-107 114h-28l-107 -114h-227z" />
    <glyph glyph-name="ccircumflex" unicode="&#x109;" horiz-adv-x="1216" 
d="M631 -23q-113 0 -213 38.5t-175.5 109t-120 179t-44.5 239.5q0 132 44 240.5t120.5 178.5t176 108t212.5 38q108 0 200 -32t156 -87.5t105.5 -124t58.5 -145.5h-272q-9 32 -27.5 62t-47.5 58.5t-74 46t-99 17.5q-124 0 -207.5 -92.5t-83.5 -267.5t83.5 -268t207.5 -93
q54 0 99 17.5t74 46.5t47.5 59t27.5 62h272q-17 -77 -58.5 -146t-105.5 -124t-156 -87.5t-200 -32.5zM283 1200l198 254h303l197 -254h-229l-107 125h-29l-106 -125h-227z" />
    <glyph glyph-name="Cdotaccent" unicode="&#x10a;" horiz-adv-x="1558" 
d="M805 -23q-150 0 -283 51t-233 145t-158.5 238t-58.5 318q0 172 58.5 315t158.5 236.5t233 145t283 51.5q279 0 464.5 -143t227.5 -371h-287q-13 55 -42.5 103.5t-77 90t-121 66t-164.5 24.5q-94 0 -175.5 -32t-145 -94t-100 -162.5t-36.5 -229.5q0 -130 36.5 -232
t100 -164t145 -94t175.5 -32q91 0 164.5 24.5t121 66.5t77 90.5t42.5 103.5h285q-41 -228 -226 -371.5t-464 -143.5zM674 1569v233h266v-233h-266z" />
    <glyph glyph-name="cdotaccent" unicode="&#x10b;" horiz-adv-x="1216" 
d="M631 -23q-113 0 -213 38.5t-175.5 109t-120 179t-44.5 239.5q0 132 44 240.5t120.5 178.5t176 108t212.5 38q108 0 200 -32t156 -87.5t105.5 -124t58.5 -145.5h-272q-9 32 -27.5 62t-47.5 58.5t-74 46t-99 17.5q-124 0 -207.5 -92.5t-83.5 -267.5t83.5 -268t207.5 -93
q54 0 99 17.5t74 46.5t47.5 59t27.5 62h272q-17 -77 -58.5 -146t-105.5 -124t-156 -87.5t-200 -32.5zM498 1217v237h262v-237h-262z" />
    <glyph glyph-name="Ccaron" unicode="&#x10c;" horiz-adv-x="1558" 
d="M805 -23q-150 0 -283 51t-233 145t-158.5 238t-58.5 318q0 172 58.5 315t158.5 236.5t233 145t283 51.5q279 0 464.5 -143t227.5 -371h-287q-13 55 -42.5 103.5t-77 90t-121 66t-164.5 24.5q-94 0 -175.5 -32t-145 -94t-100 -162.5t-36.5 -229.5q0 -130 36.5 -232
t100 -164t145 -94t175.5 -32q91 0 164.5 24.5t121 66.5t77 90.5t42.5 103.5h285q-41 -228 -226 -371.5t-464 -143.5zM457 1808h227l107 -114h28l107 114h229l-197 -247h-303z" />
    <glyph glyph-name="ccaron" unicode="&#x10d;" horiz-adv-x="1216" 
d="M631 -23q-113 0 -213 38.5t-175.5 109t-120 179t-44.5 239.5q0 132 44 240.5t120.5 178.5t176 108t212.5 38q108 0 200 -32t156 -87.5t105.5 -124t58.5 -145.5h-272q-9 32 -27.5 62t-47.5 58.5t-74 46t-99 17.5q-124 0 -207.5 -92.5t-83.5 -267.5t83.5 -268t207.5 -93
q54 0 99 17.5t74 46.5t47.5 59t27.5 62h272q-17 -77 -58.5 -146t-105.5 -124t-156 -87.5t-200 -32.5zM283 1454h227l106 -125h29l107 125h229l-197 -254h-303z" />
    <glyph glyph-name="Dcaron" unicode="&#x10e;" horiz-adv-x="1458" 
d="M127 1307q0 64 42 105.5t107 41.5h412q210 0 369 -91.5t244 -255.5t85 -376q0 -330 -191.5 -530.5t-506.5 -200.5h-561v1307zM289 1808h227l107 -114h28l107 114h229l-196 -247h-304zM397 223h273q207 0 324.5 139t117.5 369q0 229 -119 364.5t-323 135.5h-273v-1008z
" />
    <glyph glyph-name="dcaron" unicode="&#x10f;" horiz-adv-x="1245" 
d="M592 0q-110 0 -205 38t-164 107t-108 171.5t-39 226.5q0 245 145 393.5t371 148.5h268v369h262v-1307q0 -65 -41 -106t-106 -41h-383zM346 543q0 -160 74.5 -246t216.5 -86h223v663h-223q-143 0 -217 -86t-74 -245zM1241 1139l29 315h256l-107 -315h-178z" />
    <glyph glyph-name="Dcroat" unicode="&#x110;" horiz-adv-x="1544" 
d="M211 1307q0 64 42 105.5t107 41.5h412q210 0 369 -91.5t244 -255.5t85 -376q0 -330 -191.5 -530.5t-506.5 -200.5h-561v616h-145v222h145v469zM481 223h273q207 0 324.5 139t117.5 369q0 229 -119 364.5t-323 135.5h-273v-393h301v-222h-301v-393z" />
    <glyph glyph-name="dcroat" unicode="&#x111;" horiz-adv-x="1245" 
d="M592 0q-110 0 -205 38t-164 107t-108 171.5t-39 226.5q0 245 145 393.5t371 148.5h268v82h-223v164h223v123h262v-123h154v-164h-154v-1020q0 -65 -41 -106t-106 -41h-383zM346 543q0 -160 74.5 -246t216.5 -86h223v663h-223q-143 0 -217 -86t-74 -245z" />
    <glyph glyph-name="Emacron" unicode="&#x112;" horiz-adv-x="1132" 
d="M127 1307q0 64 42 105.5t107 41.5h777v-229h-656v-383h588v-226h-588v-387h666v-229h-936v1307zM250 1597v177h690v-177h-690z" />
    <glyph glyph-name="emacron" unicode="&#x113;" horiz-adv-x="1243" 
d="M625 -23q-244 0 -395.5 157.5t-151.5 408.5q0 249 153.5 407t393.5 158q122 0 226 -44t178 -124t112 -200t28 -265h-829q18 -136 94 -217.5t191 -81.5q86 0 148.5 45t92.5 123h273q-47 -169 -186 -268t-328 -99zM299 1239v176h649v-176h-649zM346 655h559
q-22 121 -95.5 192t-184.5 71q-109 0 -182 -72t-97 -191z" />
    <glyph glyph-name="Ebreve" unicode="&#x114;" horiz-adv-x="1132" 
d="M127 1307q0 64 42 105.5t107 41.5h777v-229h-656v-383h588v-226h-588v-387h666v-229h-936v1307zM453 1808q20 -106 143 -106q122 0 143 106h197q-10 -126 -98.5 -193t-241.5 -67q-155 0 -242 67.5t-98 192.5h197z" />
    <glyph glyph-name="ebreve" unicode="&#x115;" horiz-adv-x="1243" 
d="M625 -23q-244 0 -395.5 157.5t-151.5 408.5q0 249 153.5 407t393.5 158q122 0 226 -44t178 -124t112 -200t28 -265h-829q18 -136 94 -217.5t191 -81.5q86 0 148.5 45t92.5 123h273q-47 -169 -186 -268t-328 -99zM481 1454q21 -115 144 -115q120 0 143 115h197
q-11 -127 -99.5 -197.5t-240.5 -70.5q-153 0 -241 71t-99 197h196zM346 655h559q-22 121 -95.5 192t-184.5 71q-109 0 -182 -72t-97 -191z" />
    <glyph glyph-name="Edotaccent" unicode="&#x116;" horiz-adv-x="1132" 
d="M127 1307q0 64 42 105.5t107 41.5h777v-229h-656v-383h588v-226h-588v-387h666v-229h-936v1307zM463 1569v233h266v-233h-266z" />
    <glyph glyph-name="edotaccent" unicode="&#x117;" horiz-adv-x="1243" 
d="M625 -23q-244 0 -395.5 157.5t-151.5 408.5q0 249 153.5 407t393.5 158q122 0 226 -44t178 -124t112 -200t28 -265h-829q18 -136 94 -217.5t191 -81.5q86 0 148.5 45t92.5 123h273q-47 -169 -186 -268t-328 -99zM346 655h559q-22 121 -95.5 192t-184.5 71
q-109 0 -182 -72t-97 -191zM492 1217v237h262v-237h-262z" />
    <glyph glyph-name="Eogonek" unicode="&#x118;" horiz-adv-x="1132" 
d="M127 1307q0 64 42 105.5t107 41.5h777v-229h-656v-383h588v-226h-588v-387h666v-229h2q-147 -50 -147 -111q0 -51 94 -51h53v-207h-119q-120 0 -185 49t-65 125q0 123 121 195h-690v1307z" />
    <glyph glyph-name="eogonek" unicode="&#x119;" horiz-adv-x="1243" 
d="M901 -369q-126 0 -193 49t-67 125q0 115 117 191q-62 -19 -133 -19q-244 0 -395.5 157.5t-151.5 408.5q0 249 153.5 407t393.5 158q122 0 226 -44t178 -124t112 -200t28 -265h-829q18 -136 94 -217.5t191 -81.5q86 0 148.5 45t92.5 123h273q-43 -146 -176 -276
q-58 -56 -83.5 -95.5t-25.5 -76.5q0 -58 100 -58h58v-207h-111zM346 655h559q-22 121 -95.5 192t-184.5 71q-109 0 -182 -72t-97 -191z" />
    <glyph glyph-name="Ecaron" unicode="&#x11a;" horiz-adv-x="1132" 
d="M127 1307q0 64 42 105.5t107 41.5h777v-229h-656v-383h588v-226h-588v-387h666v-229h-936v1307zM248 1808h227l107 -114h28l107 114h229l-196 -247h-304z" />
    <glyph glyph-name="ecaron" unicode="&#x11b;" horiz-adv-x="1243" 
d="M625 -23q-244 0 -395.5 157.5t-151.5 408.5q0 249 153.5 407t393.5 158q122 0 226 -44t178 -124t112 -200t28 -265h-829q18 -136 94 -217.5t191 -81.5q86 0 148.5 45t92.5 123h273q-47 -169 -186 -268t-328 -99zM276 1454h228l106 -125h29l106 125h230l-197 -254h-303z
M346 655h559q-22 121 -95.5 192t-184.5 71q-109 0 -182 -72t-97 -191z" />
    <glyph glyph-name="Gcircumflex" unicode="&#x11c;" horiz-adv-x="1587" 
d="M807 -23q-207 0 -372 88t-263 260.5t-98 403.5q0 172 58.5 315t158.5 236.5t232.5 145t281.5 51.5q281 0 465.5 -142.5t226.5 -371.5h-285q-28 118 -130 201t-275 83q-94 0 -175.5 -32t-145.5 -93.5t-101 -162.5t-37 -230q0 -130 37 -232t101 -164t145.5 -94t175.5 -32
q205 0 312.5 86t107.5 250v22h-475v211h749v-184q0 -132 -48 -245t-136.5 -195t-219.5 -128.5t-290 -46.5zM457 1561l198 247h303l197 -247h-229l-107 114h-28l-107 -114h-227z" />
    <glyph glyph-name="gcircumflex" unicode="&#x11d;" horiz-adv-x="1245" 
d="M219 -369v207h641v174h-270q-225 0 -369.5 147.5t-144.5 389.5q0 244 144.5 390t369.5 146h383q66 0 107.5 -41t41.5 -106v-1155q0 -68 -43 -110t-114 -42h-746zM299 1200l199 254h303l196 -254h-229l-106 125h-29l-107 -125h-227zM344 549q0 -154 75 -240t216 -86h225
v651h-225q-141 0 -216 -84.5t-75 -240.5z" />
    <glyph glyph-name="Gbreve" unicode="&#x11e;" horiz-adv-x="1587" 
d="M807 -23q-207 0 -372 88t-263 260.5t-98 403.5q0 172 58.5 315t158.5 236.5t232.5 145t281.5 51.5q281 0 465.5 -142.5t226.5 -371.5h-285q-28 118 -130 201t-275 83q-94 0 -175.5 -32t-145.5 -93.5t-101 -162.5t-37 -230q0 -130 37 -232t101 -164t145.5 -94t175.5 -32
q205 0 312.5 86t107.5 250v22h-475v211h749v-184q0 -132 -48 -245t-136.5 -195t-219.5 -128.5t-290 -46.5zM664 1808q20 -106 143 -106q122 0 143 106h197q-10 -126 -98.5 -193t-241.5 -67q-155 0 -242 67.5t-98 192.5h197z" />
    <glyph glyph-name="gbreve" unicode="&#x11f;" horiz-adv-x="1245" 
d="M219 -369v207h641v174h-270q-225 0 -369.5 147.5t-144.5 389.5q0 244 144.5 390t369.5 146h383q66 0 107.5 -41t41.5 -106v-1155q0 -68 -43 -110t-114 -42h-746zM506 1454q21 -115 143 -115q121 0 144 115h196q-11 -127 -99.5 -197.5t-240.5 -70.5q-153 0 -241 71
t-99 197h197zM344 549q0 -154 75 -240t216 -86h225v651h-225q-141 0 -216 -84.5t-75 -240.5z" />
    <glyph glyph-name="Gdotaccent" unicode="&#x120;" horiz-adv-x="1587" 
d="M807 -23q-207 0 -372 88t-263 260.5t-98 403.5q0 172 58.5 315t158.5 236.5t232.5 145t281.5 51.5q281 0 465.5 -142.5t226.5 -371.5h-285q-28 118 -130 201t-275 83q-94 0 -175.5 -32t-145.5 -93.5t-101 -162.5t-37 -230q0 -130 37 -232t101 -164t145.5 -94t175.5 -32
q205 0 312.5 86t107.5 250v22h-475v211h749v-184q0 -132 -48 -245t-136.5 -195t-219.5 -128.5t-290 -46.5zM674 1569v233h266v-233h-266z" />
    <glyph glyph-name="gdotaccent" unicode="&#x121;" horiz-adv-x="1245" 
d="M219 -369v207h641v174h-270q-225 0 -369.5 147.5t-144.5 389.5q0 244 144.5 390t369.5 146h383q66 0 107.5 -41t41.5 -106v-1155q0 -68 -43 -110t-114 -42h-746zM344 549q0 -154 75 -240t216 -86h225v651h-225q-141 0 -216 -84.5t-75 -240.5zM516 1217v237h262v-237h-262
z" />
    <glyph glyph-name="uni0122" unicode="&#x122;" horiz-adv-x="1587" 
d="M807 -23q-207 0 -372 88t-263 260.5t-98 403.5q0 172 58.5 315t158.5 236.5t232.5 145t281.5 51.5q281 0 465.5 -142.5t226.5 -371.5h-285q-28 118 -130 201t-275 83q-94 0 -175.5 -32t-145.5 -93.5t-101 -162.5t-37 -230q0 -130 37 -232t101 -164t145.5 -94t175.5 -32
q205 0 312.5 86t107.5 250v22h-475v211h749v-184q0 -132 -48 -245t-136.5 -195t-219.5 -128.5t-290 -46.5zM629 -430l49 336h256l-121 -336h-184z" />
    <glyph glyph-name="uni0123" unicode="&#x123;" horiz-adv-x="1245" 
d="M219 -369v207h641v174h-270q-225 0 -369.5 147.5t-144.5 389.5q0 244 144.5 390t369.5 146h383q66 0 107.5 -41t41.5 -106v-1155q0 -68 -43 -110t-114 -42h-746zM344 549q0 -154 75 -240t216 -86h225v651h-225q-141 0 -216 -84.5t-75 -240.5zM481 1200l252 254h228
l-164 -254h-316z" />
    <glyph glyph-name="Hcircumflex" unicode="&#x124;" horiz-adv-x="1429" 
d="M1032 0v608h-635v-608h-270v1454h270v-606h635v606h271v-1454h-271zM367 1561l198 247h303l197 -247h-229l-107 114h-29l-106 -114h-227z" />
    <glyph glyph-name="hcircumflex" unicode="&#x125;" horiz-adv-x="1200" 
d="M827 643q0 231 -209 231h-231v-874h-262v1454h262v-369h305q175 0 286.5 -110.5t111.5 -308.5v-666h-263v643zM-92 1548l198 254h304l196 -254h-229l-107 125h-28l-107 -125h-227z" />
    <glyph glyph-name="Hbar" unicode="&#x126;" horiz-adv-x="1429" 
d="M1032 0v608h-635v-608h-270v1073h-119v168h119v213h270v-213h635v213h271v-213h116v-168h-116v-1073h-271zM397 848h635v225h-635v-225z" />
    <glyph glyph-name="hbar" unicode="&#x127;" horiz-adv-x="1200" 
d="M827 643q0 231 -209 231h-231v-874h-262v1167h-154v164h154v123h262v-123h223v-164h-223v-82h305q175 0 286.5 -110.5t111.5 -308.5v-666h-263v643z" />
    <glyph glyph-name="Itilde" unicode="&#x128;" horiz-adv-x="524" 
d="M127 1454h270v-1454h-270v1454zM-113 1561q3 111 67 187.5t161 76.5q45 0 89.5 -17.5t73 -38t60 -38t53.5 -17.5q73 0 76 103h184q-3 -111 -67 -188t-160 -77q-45 0 -89.5 17t-73 37.5t-59.5 37.5t-52 17q-40 0 -58 -24.5t-20 -75.5h-185z" />
    <glyph glyph-name="itilde" unicode="&#x129;" horiz-adv-x="512" 
d="M125 0v1085h262v-1085h-262zM-121 1196q3 112 66.5 189t160.5 77q57 0 111.5 -27.5t96.5 -55t69 -27.5q73 0 76 100h184q-3 -111 -67 -187.5t-160 -76.5q-57 0 -111.5 27.5t-96 55t-67.5 27.5q-40 0 -58 -25.5t-20 -76.5h-184z" />
    <glyph glyph-name="Imacron" unicode="&#x12a;" horiz-adv-x="524" 
d="M127 1454h270v-1454h-270v1454zM-61 1587v176h649v-176h-649z" />
    <glyph glyph-name="imacron" unicode="&#x12b;" horiz-adv-x="512" 
d="M125 0v1085h262v-1085h-262zM-68 1239v176h650v-176h-650z" />
    <glyph glyph-name="Ibreve" unicode="&#x12c;" horiz-adv-x="524" 
d="M127 1454h270v-1454h-270v1454zM121 1808q20 -106 143 -106t144 106h196q-10 -126 -98.5 -193t-241.5 -67q-155 0 -242 67.5t-98 192.5h197z" />
    <glyph glyph-name="ibreve" unicode="&#x12d;" horiz-adv-x="512" 
d="M125 0v1085h262v-1085h-262zM115 1454q21 -115 143 -115q120 0 143 115h197q-11 -127 -99.5 -197.5t-240.5 -70.5q-153 0 -241 71t-99 197h197z" />
    <glyph glyph-name="Iogonek" unicode="&#x12e;" horiz-adv-x="524" 
d="M127 1454h270v-1454q-147 -50 -147 -111q0 -51 94 -51h53v-207h-118q-120 0 -185 49t-65 125q0 123 121 195h-23v1454z" />
    <glyph glyph-name="iogonek" unicode="&#x12f;" horiz-adv-x="512" 
d="M125 0v1085h262v-1085q-70 -20 -108.5 -48.5t-38.5 -60.5q0 -53 94 -53h53v-207h-119q-120 0 -185 49t-65 125q0 123 121 195h-14zM125 1217v237h262v-237h-262z" />
    <glyph glyph-name="Idotaccent" unicode="&#x130;" horiz-adv-x="524" 
d="M127 1454h270v-1454h-270v1454zM131 1569v233h266v-233h-266z" />
    <glyph glyph-name="dotlessi" unicode="&#x131;" horiz-adv-x="512" 
d="M125 0v1085h262v-1085h-262z" />
    <glyph glyph-name="IJ" unicode="&#x132;" horiz-adv-x="1273" 
d="M127 1454h270v-1454h-270v1454zM612 0v233h265v1221h270v-1307q0 -65 -42 -106t-108 -41h-385z" />
    <glyph glyph-name="ij" unicode="&#x133;" horiz-adv-x="1021" 
d="M125 0v1085h262v-1085h-262zM125 1217v237h262v-237h-262zM401 -369v207h236v1247h262v-1302q0 -68 -43 -110t-115 -42h-340zM635 1217v237h262v-237h-262z" />
    <glyph glyph-name="Jcircumflex" unicode="&#x134;" horiz-adv-x="720" 
d="M59 0v233h265v1221h270v-1307q0 -65 -42 -106t-108 -41h-385zM111 1561l198 247h303l197 -247h-229l-107 114h-29l-106 -114h-227z" />
    <glyph glyph-name="jcircumflex" unicode="&#x135;" horiz-adv-x="512" 
d="M-111 -369v207h236v1247h262v-1302q0 -68 -43 -110t-115 -42h-340zM-94 1200l198 254h304l196 -254h-229l-107 125h-28l-107 -125h-227z" />
    <glyph glyph-name="uni0136" unicode="&#x136;" horiz-adv-x="1312" 
d="M809 739l451 -725v-14h-299l-386 635h-178v-635h-270v1454h270v-590h178l383 590h302v-18l-451 -654v-43zM494 -430l49 336h256l-121 -336h-184z" />
    <glyph glyph-name="uni0137" unicode="&#x137;" horiz-adv-x="1163" 
d="M782 573l324 -559v-14h-287l-256 477h-176v-477h-262v1454h262v-762h176l256 393h289v-14l-326 -473v-25zM379 -430l49 336h256l-121 -336h-184z" />
    <glyph glyph-name="Lacute" unicode="&#x139;" horiz-adv-x="1101" 
d="M127 0v1454h270v-1221h650v-233h-920zM127 1561l217 247h322l-304 -247h-235z" />
    <glyph glyph-name="lacute" unicode="&#x13a;" horiz-adv-x="512" 
d="M387 0h-262v1454h262v-1454zM76 1561l217 247h321l-303 -247h-235z" />
    <glyph glyph-name="uni013B" unicode="&#x13b;" horiz-adv-x="1101" 
d="M127 0v1454h270v-1221h650v-233h-920zM393 -430l49 336h256l-120 -336h-185z" />
    <glyph glyph-name="uni013C" unicode="&#x13c;" horiz-adv-x="512" 
d="M387 0h-262v1454h262v-1454zM78 -430l49 336h256l-121 -336h-184z" />
    <glyph glyph-name="Lcaron" unicode="&#x13d;" horiz-adv-x="1101" 
d="M127 0v1454h270v-1221h650v-233h-920zM649 1139l29 315h256l-107 -315h-178z" />
    <glyph glyph-name="lcaron" unicode="&#x13e;" horiz-adv-x="512" 
d="M387 0h-262v1454h262v-1454zM506 1139l29 315h256l-107 -315h-178z" />
    <glyph glyph-name="Ldot" unicode="&#x13f;" horiz-adv-x="1101" 
d="M127 0v1454h270v-1221h650v-233h-920zM702 684v254h263v-254h-263z" />
    <glyph glyph-name="ldot" unicode="&#x140;" horiz-adv-x="794" 
d="M387 0h-262v1454h262v-1454zM522 588v254h262v-254h-262z" />
    <glyph glyph-name="Lslash" unicode="&#x141;" horiz-adv-x="1169" 
d="M195 0v668l-132 -39v215l132 39v571h270v-489l348 106v-217l-348 -104v-517h649v-233h-919z" />
    <glyph glyph-name="lslash" unicode="&#x142;" horiz-adv-x="729" 
d="M498 0h-262v575l-168 -94v248l168 94v631h262v-483l164 92v-248l-164 -92v-723z" />
    <glyph glyph-name="Nacute" unicode="&#x143;" horiz-adv-x="1472" 
d="M127 1307q0 64 42 105.5t107 41.5h293l361 -885l114 -297h52v1182h250v-1454h-441l-362 885l-113 297h-53v-1182h-250v1307zM555 1561l217 247h322l-303 -247h-236z" />
    <glyph glyph-name="nacute" unicode="&#x144;" horiz-adv-x="1196" 
d="M121 938q0 64 42 105.5t107 41.5h420q174 0 285.5 -110.5t111.5 -308.5v-666h-262v643q0 231 -209 231h-233v-874h-262v938zM422 1200l225 254h316l-314 -254h-227z" />
    <glyph glyph-name="uni0145" unicode="&#x145;" horiz-adv-x="1472" 
d="M127 1307q0 64 42 105.5t107 41.5h293l361 -885l114 -297h52v1182h250v-1454h-441l-362 885l-113 297h-53v-1182h-250v1307zM557 -430l49 336h256l-121 -336h-184z" />
    <glyph glyph-name="uni0146" unicode="&#x146;" horiz-adv-x="1196" 
d="M121 938q0 64 42 105.5t107 41.5h420q174 0 285.5 -110.5t111.5 -308.5v-666h-262v643q0 231 -209 231h-233v-874h-262v938zM428 -430l49 336h256l-121 -336h-184z" />
    <glyph glyph-name="Ncaron" unicode="&#x147;" horiz-adv-x="1472" 
d="M127 1307q0 64 42 105.5t107 41.5h293l361 -885l114 -297h52v1182h250v-1454h-441l-362 885l-113 297h-53v-1182h-250v1307zM387 1808h227l107 -114h29l106 114h229l-196 -247h-303z" />
    <glyph glyph-name="ncaron" unicode="&#x148;" horiz-adv-x="1196" 
d="M121 938q0 64 42 105.5t107 41.5h420q174 0 285.5 -110.5t111.5 -308.5v-666h-262v643q0 231 -209 231h-233v-874h-262v938zM238 1454h227l106 -125h29l107 125h229l-197 -254h-303z" />
    <glyph glyph-name="Eng" unicode="&#x14a;" horiz-adv-x="1472" 
d="M811 -369v207h283v162h-189l-362 885l-113 297h-53v-1182h-250v1307q0 64 42 105.5t107 41.5h293l361 -885l114 -297h52v1182h250v-1659q0 -72 -46 -118t-118 -46h-371z" />
    <glyph glyph-name="eng" unicode="&#x14b;" horiz-adv-x="1196" 
d="M690 1085q174 0 285.5 -110.5t111.5 -308.5v-883q0 -68 -42.5 -110t-112.5 -42h-342v207h235v805q0 231 -209 231h-233v-874h-262v938q0 64 42 105.5t107 41.5h420z" />
    <glyph glyph-name="Omacron" unicode="&#x14c;" horiz-adv-x="1609" 
d="M805 -23q-150 0 -283 51.5t-233 145.5t-158.5 237.5t-58.5 317.5q0 171 58.5 314t158.5 237t233 145.5t283 51.5t282.5 -51.5t232.5 -145.5t158 -237t58 -314q0 -173 -58 -316.5t-158 -238t-232.5 -146t-282.5 -51.5zM346 729q0 -247 128.5 -384.5t330.5 -137.5
q97 0 180 34.5t145 99.5t97 164.5t35 223.5q0 243 -128.5 380.5t-328.5 137.5q-202 0 -330.5 -137.5t-128.5 -380.5zM459 1597v177h690v-177h-690z" />
    <glyph glyph-name="omacron" unicode="&#x14d;" horiz-adv-x="1261" 
d="M631 -23q-113 0 -213 38t-176 108.5t-120 179t-44 240.5t44 240.5t120.5 178.5t176 108t212.5 38t212.5 -38t176 -108t120.5 -178.5t44 -240.5t-44 -240.5t-120 -179t-176 -108.5t-213 -38zM305 1239v176h649v-176h-649zM340 543q0 -175 83.5 -268t207.5 -93
q123 0 206 93t83 268t-83 267.5t-206 92.5q-124 0 -207.5 -92.5t-83.5 -267.5z" />
    <glyph glyph-name="Obreve" unicode="&#x14e;" horiz-adv-x="1609" 
d="M805 -23q-150 0 -283 51.5t-233 145.5t-158.5 237.5t-58.5 317.5q0 171 58.5 314t158.5 237t233 145.5t283 51.5t282.5 -51.5t232.5 -145.5t158 -237t58 -314q0 -173 -58 -316.5t-158 -238t-232.5 -146t-282.5 -51.5zM346 729q0 -247 128.5 -384.5t330.5 -137.5
q97 0 180 34.5t145 99.5t97 164.5t35 223.5q0 243 -128.5 380.5t-328.5 137.5q-202 0 -330.5 -137.5t-128.5 -380.5zM664 1808q20 -106 143 -106q122 0 143 106h197q-10 -126 -98.5 -193t-241.5 -67q-155 0 -242 67.5t-98 192.5h197z" />
    <glyph glyph-name="obreve" unicode="&#x14f;" horiz-adv-x="1261" 
d="M631 -23q-113 0 -213 38t-176 108.5t-120 179t-44 240.5t44 240.5t120.5 178.5t176 108t212.5 38t212.5 -38t176 -108t120.5 -178.5t44 -240.5t-44 -240.5t-120 -179t-176 -108.5t-213 -38zM487 1454q21 -115 144 -115q120 0 143 115h197q-11 -127 -99.5 -197.5
t-240.5 -70.5q-153 0 -241 71t-99 197h196zM340 543q0 -175 83.5 -268t207.5 -93q123 0 206 93t83 268t-83 267.5t-206 92.5q-124 0 -207.5 -92.5t-83.5 -267.5z" />
    <glyph glyph-name="Ohungarumlaut" unicode="&#x150;" horiz-adv-x="1609" 
d="M805 -23q-150 0 -283 51.5t-233 145.5t-158.5 237.5t-58.5 317.5q0 171 58.5 314t158.5 237t233 145.5t283 51.5t282.5 -51.5t232.5 -145.5t158 -237t58 -314q0 -173 -58 -316.5t-158 -238t-232.5 -146t-282.5 -51.5zM346 729q0 -247 128.5 -384.5t330.5 -137.5
q97 0 180 34.5t145 99.5t97 164.5t35 223.5q0 243 -128.5 380.5t-328.5 137.5q-202 0 -330.5 -137.5t-128.5 -380.5zM492 1561l163 247h303l-235 -247h-231zM924 1561l163 247h306l-238 -247h-231z" />
    <glyph glyph-name="ohungarumlaut" unicode="&#x151;" horiz-adv-x="1261" 
d="M631 -23q-113 0 -213 38t-176 108.5t-120 179t-44 240.5t44 240.5t120.5 178.5t176 108t212.5 38t212.5 -38t176 -108t120.5 -178.5t44 -240.5t-44 -240.5t-120 -179t-176 -108.5t-213 -38zM317 1200l193 254h291l-283 -254h-201zM340 543q0 -175 83.5 -268t207.5 -93
q123 0 206 93t83 268t-83 267.5t-206 92.5q-124 0 -207.5 -92.5t-83.5 -267.5zM735 1200l193 254h291l-283 -254h-201z" />
    <glyph glyph-name="OE" unicode="&#x152;" horiz-adv-x="1996" 
d="M764 0q-175 0 -308.5 54t-215.5 152.5t-123 230t-41 292.5q0 162 41 292.5t123 228.5t215 151t309 53h1153v-229h-655v-383h585v-226h-585v-387h663v-229h-1161zM350 729q0 -122 19.5 -209t66 -155t132 -102t210.5 -34h213v996h-213q-102 0 -178 -24t-123.5 -65
t-76 -105.5t-39.5 -136t-11 -165.5z" />
    <glyph glyph-name="oe" unicode="&#x153;" horiz-adv-x="2086" 
d="M631 -23q-113 0 -213 38t-176 108.5t-120 179t-44 240.5t44 240.5t120.5 178.5t176 108t212.5 38q126 0 236 -46.5t186 -133.5q73 86 179.5 133t233.5 47q122 0 226.5 -44t178.5 -124t112 -200t28 -265h-829q18 -136 93.5 -217.5t190.5 -81.5q86 0 149 45t93 123h272
q-47 -169 -186 -268t-328 -99q-129 0 -235.5 47t-179.5 134q-76 -88 -185 -134.5t-235 -46.5zM340 543q0 -175 83.5 -268t207.5 -93q123 0 206 93t83 268t-83 267.5t-206 92.5q-124 0 -207.5 -92.5t-83.5 -267.5zM1188 655h559q-22 121 -96 192t-185 71q-109 0 -181.5 -72
t-96.5 -191z" />
    <glyph glyph-name="Racute" unicode="&#x154;" horiz-adv-x="1345" 
d="M127 1307q0 64 42 105.5t107 41.5h472q216 0 346.5 -116t130.5 -320q0 -153 -77.5 -261t-215.5 -151l94 -151l268 -455h-307l-325 582h-265v-582h-270v1307zM397 799h355q101 0 149.5 58t48.5 163q0 103 -56 157t-163 54h-334v-432zM469 1561l217 247h322l-303 -247h-236
z" />
    <glyph glyph-name="racute" unicode="&#x155;" horiz-adv-x="735" 
d="M121 938q0 68 41.5 107.5t107.5 39.5h402v-213h-289v-872h-262v938zM233 1200l226 254h315l-313 -254h-228z" />
    <glyph glyph-name="uni0156" unicode="&#x156;" horiz-adv-x="1345" 
d="M127 1307q0 64 42 105.5t107 41.5h472q216 0 346.5 -116t130.5 -320q0 -153 -77.5 -261t-215.5 -151l94 -151l268 -455h-307l-325 582h-265v-582h-270v1307zM397 799h355q101 0 149.5 58t48.5 163q0 103 -56 157t-163 54h-334v-432zM463 -430l49 336h256l-121 -336h-184z
" />
    <glyph glyph-name="uni0157" unicode="&#x157;" horiz-adv-x="735" 
d="M121 938q0 68 41.5 107.5t107.5 39.5h402v-213h-289v-872h-262v938zM76 -430l49 336h256l-121 -336h-184z" />
    <glyph glyph-name="Rcaron" unicode="&#x158;" horiz-adv-x="1345" 
d="M127 1307q0 64 42 105.5t107 41.5h472q216 0 346.5 -116t130.5 -320q0 -153 -77.5 -261t-215.5 -151l94 -151l268 -455h-307l-325 582h-265v-582h-270v1307zM301 1808h227l107 -114h29l106 114h229l-196 -247h-303zM397 799h355q101 0 149.5 58t48.5 163q0 103 -56 157
t-163 54h-334v-432z" />
    <glyph glyph-name="rcaron" unicode="&#x159;" horiz-adv-x="735" 
d="M121 938q0 68 41.5 107.5t107.5 39.5h402v-213h-289v-872h-262v938zM49 1454h227l107 -125h29l106 125h230l-197 -254h-303z" />
    <glyph glyph-name="Sacute" unicode="&#x15a;" horiz-adv-x="1280" 
d="M653 -23q-166 0 -298 58.5t-210 173.5t-79 270h272q4 -129 92 -203.5t225 -74.5q132 0 208.5 53.5t76.5 155.5q0 52 -29 91t-77.5 63.5t-111.5 44.5t-133 38t-140 39t-133 53t-111.5 74t-77.5 108t-29 150q0 189 146.5 297.5t380.5 108.5q243 0 396 -128t159 -352h-271
q-4 125 -85 194t-208 69q-111 0 -181 -45.5t-70 -133.5q0 -49 29 -86t78 -61.5t112.5 -44.5t133.5 -39t140.5 -41t134 -55.5t112.5 -76.5t78 -110t29 -151q0 -136 -77 -237.5t-202 -151.5t-280 -50zM444 1561l218 247h321l-303 -247h-236z" />
    <glyph glyph-name="sacute" unicode="&#x15b;" horiz-adv-x="1093" 
d="M549 -23q-209 0 -338 93t-139 274h262q17 -94 72.5 -135t146.5 -41q53 0 96 11t76 42t33 80q0 47 -36.5 79t-95 49t-129 31.5t-141 35.5t-129 52.5t-95 90.5t-36.5 141q0 155 125 241.5t322 86.5q205 0 325 -95t131 -265h-260q-12 174 -202 174q-77 0 -130 -29.5
t-53 -89.5q0 -42 37 -71t96 -47t130 -35t142 -41t130 -57.5t96 -93t37 -139.5q0 -165 -132 -253.5t-341 -88.5zM377 1200l225 254h316l-314 -254h-227z" />
    <glyph glyph-name="Scircumflex" unicode="&#x15c;" horiz-adv-x="1280" 
d="M653 -23q-166 0 -298 58.5t-210 173.5t-79 270h272q4 -129 92 -203.5t225 -74.5q132 0 208.5 53.5t76.5 155.5q0 52 -29 91t-77.5 63.5t-111.5 44.5t-133 38t-140 39t-133 53t-111.5 74t-77.5 108t-29 150q0 189 146.5 297.5t380.5 108.5q243 0 396 -128t159 -352h-271
q-4 125 -85 194t-208 69q-111 0 -181 -45.5t-70 -133.5q0 -49 29 -86t78 -61.5t112.5 -44.5t133.5 -39t140.5 -41t134 -55.5t112.5 -76.5t78 -110t29 -151q0 -136 -77 -237.5t-202 -151.5t-280 -50zM276 1561l199 247h303l197 -247h-230l-106 114h-29l-106 -114h-228z" />
    <glyph glyph-name="scircumflex" unicode="&#x15d;" horiz-adv-x="1093" 
d="M549 -23q-209 0 -338 93t-139 274h262q17 -94 72.5 -135t146.5 -41q53 0 96 11t76 42t33 80q0 47 -36.5 79t-95 49t-129 31.5t-141 35.5t-129 52.5t-95 90.5t-36.5 141q0 155 125 241.5t322 86.5q205 0 325 -95t131 -265h-260q-12 174 -202 174q-77 0 -130 -29.5
t-53 -89.5q0 -42 37 -71t96 -47t130 -35t142 -41t130 -57.5t96 -93t37 -139.5q0 -165 -132 -253.5t-341 -88.5zM195 1200l198 254h303l197 -254h-229l-107 125h-29l-106 -125h-227z" />
    <glyph glyph-name="Scedilla" unicode="&#x15e;" horiz-adv-x="1280" 
d="M496 -471v113h180q38 0 59 16t21 45v4q0 26 -21 41.5t-59 15.5h-152l-14 15l51 203q-144 17 -254.5 79t-175 170t-65.5 248h272q4 -129 92 -203.5t225 -74.5q132 0 208.5 53.5t76.5 155.5q0 52 -29 91t-77.5 63.5t-111.5 44.5t-133 38t-140 39t-133 53t-111.5 74
t-77.5 108t-29 150q0 189 146.5 297.5t380.5 108.5q243 0 396 -128t159 -352h-271q-4 125 -85 194t-208 69q-111 0 -181 -45.5t-70 -133.5q0 -49 29 -86t78 -61.5t112.5 -44.5t133.5 -39t140.5 -41t134 -55.5t112.5 -76.5t78 -110t29 -151q0 -185 -134.5 -299.5
t-344.5 -134.5l-51 -88v-17h53q81 0 139 -44t58 -126v-4q0 -85 -58.5 -129.5t-138.5 -44.5h-239z" />
    <glyph glyph-name="scedilla" unicode="&#x15f;" horiz-adv-x="1093" 
d="M393 -471v113h180q38 0 59 16t21 45v4q0 26 -21 41.5t-59 15.5h-151l-14 15l51 203q-172 19 -275 110.5t-112 251.5h262q17 -94 72.5 -135t146.5 -41q53 0 96 11t76 42t33 80q0 47 -36.5 79t-95 49t-129 31.5t-141 35.5t-129 52.5t-95 90.5t-36.5 141q0 155 125 241.5
t322 86.5q205 0 325 -95t131 -265h-260q-12 174 -202 174q-77 0 -130 -29.5t-53 -89.5q0 -42 37 -71t96 -47t130 -35t142 -41t130 -57.5t96 -93t37 -139.5q0 -148 -107.5 -234.5t-283.5 -102.5l-51 -88v-17h53q81 0 138.5 -44t57.5 -126v-4q0 -85 -58 -129.5t-138 -44.5
h-240z" />
    <glyph glyph-name="Scaron" unicode="&#x160;" horiz-adv-x="1280" 
d="M653 -23q-166 0 -298 58.5t-210 173.5t-79 270h272q4 -129 92 -203.5t225 -74.5q132 0 208.5 53.5t76.5 155.5q0 52 -29 91t-77.5 63.5t-111.5 44.5t-133 38t-140 39t-133 53t-111.5 74t-77.5 108t-29 150q0 189 146.5 297.5t380.5 108.5q243 0 396 -128t159 -352h-271
q-4 125 -85 194t-208 69q-111 0 -181 -45.5t-70 -133.5q0 -49 29 -86t78 -61.5t112.5 -44.5t133.5 -39t140.5 -41t134 -55.5t112.5 -76.5t78 -110t29 -151q0 -136 -77 -237.5t-202 -151.5t-280 -50zM276 1808h228l106 -114h29l106 114h230l-197 -247h-303z" />
    <glyph glyph-name="scaron" unicode="&#x161;" horiz-adv-x="1093" 
d="M549 -23q-209 0 -338 93t-139 274h262q17 -94 72.5 -135t146.5 -41q53 0 96 11t76 42t33 80q0 47 -36.5 79t-95 49t-129 31.5t-141 35.5t-129 52.5t-95 90.5t-36.5 141q0 155 125 241.5t322 86.5q205 0 325 -95t131 -265h-260q-12 174 -202 174q-77 0 -130 -29.5
t-53 -89.5q0 -42 37 -71t96 -47t130 -35t142 -41t130 -57.5t96 -93t37 -139.5q0 -165 -132 -253.5t-341 -88.5zM195 1454h227l106 -125h29l107 125h229l-197 -254h-303z" />
    <glyph glyph-name="uni0162" unicode="&#x162;" horiz-adv-x="1239" 
d="M483 0v1221h-424v233h1121v-233h-426v-1221h-43l-62 -106v-17h53q81 0 139 -44t58 -126v-4q0 -85 -58.5 -129.5t-138.5 -44.5h-239v113h180q38 0 59 16t21 45v4q0 26 -21 41.5t-59 15.5h-151l-15 15l55 221h-49z" />
    <glyph glyph-name="uni0163" unicode="&#x163;" horiz-adv-x="782" 
d="M702 1085v-213h-223v-665h223v-207h-163l-62 -106v-17h53q81 0 139 -44t58 -126v-4q0 -85 -58.5 -129.5t-138.5 -44.5h-239v113h180q38 0 59 16t21 45v4q0 26 -21 41.5t-59 15.5h-152l-14 15l55 221q-63 1 -103 42.5t-40 104.5v725h-156v213h156v277h262v-277h223z" />
    <glyph glyph-name="Tcaron" unicode="&#x164;" horiz-adv-x="1239" 
d="M483 0v1221h-424v233h1121v-233h-426v-1221h-271zM270 1808h228l106 -114h29l106 114h230l-197 -247h-303z" />
    <glyph glyph-name="tcaron" unicode="&#x165;" horiz-adv-x="782" 
d="M702 1085v-213h-223v-665h223v-207h-335q-66 0 -108 41t-42 106v725h-156v213h156v277h262v-277h223zM582 1241l28 315h256l-106 -315h-178z" />
    <glyph glyph-name="Tbar" unicode="&#x166;" horiz-adv-x="1239" 
d="M483 0v612h-233v228h233v381h-424v233h1121v-233h-426v-381h237v-228h-237v-612h-271z" />
    <glyph glyph-name="tbar" unicode="&#x167;" horiz-adv-x="782" 
d="M702 1085v-213h-223v-251h223v-164h-223v-250h223v-207h-335q-66 0 -108 41t-42 106v310h-154v164h154v251h-156v213h156v277h262v-277h223z" />
    <glyph glyph-name="Utilde" unicode="&#x168;" horiz-adv-x="1402" 
d="M700 -23q-123 0 -223.5 35.5t-165 92.5t-108 132t-62 149.5t-18.5 148.5v919h270v-907q0 -155 87 -245.5t220 -90.5q135 0 222.5 90t87.5 246v907h270v-919q0 -74 -18.5 -148.5t-63 -149.5t-109 -132t-165.5 -92.5t-224 -35.5zM326 1561q3 111 67 187.5t160 76.5
q45 0 89.5 -17.5t73 -38t60 -38t53.5 -17.5q73 0 76 103h185q-3 -111 -67.5 -188t-160.5 -77q-45 0 -89.5 17t-73 37.5t-59.5 37.5t-52 17q-40 0 -58 -24.5t-20 -75.5h-184z" />
    <glyph glyph-name="utilde" unicode="&#x169;" horiz-adv-x="1173" 
d="M506 0q-174 0 -285.5 111t-111.5 309v665h262v-643q0 -231 209 -231h211v874h262v-938q0 -64 -42.5 -105.5t-107.5 -41.5h-397zM205 1196q3 112 66.5 189t160.5 77q57 0 111.5 -27.5t96.5 -55t69 -27.5q72 0 75 100h185q-3 -111 -67 -187.5t-161 -76.5q-45 0 -89.5 17
t-73 38t-59.5 38t-52 17q-40 0 -58 -25.5t-20 -76.5h-184z" />
    <glyph glyph-name="Umacron" unicode="&#x16a;" horiz-adv-x="1402" 
d="M700 -23q-123 0 -223.5 35.5t-165 92.5t-108 132t-62 149.5t-18.5 148.5v919h270v-907q0 -155 87 -245.5t220 -90.5q135 0 222.5 90t87.5 246v907h270v-919q0 -74 -18.5 -148.5t-63 -149.5t-109 -132t-165.5 -92.5t-224 -35.5zM377 1587v176h649v-176h-649z" />
    <glyph glyph-name="umacron" unicode="&#x16b;" horiz-adv-x="1173" 
d="M506 0q-174 0 -285.5 111t-111.5 309v665h262v-643q0 -231 209 -231h211v874h262v-938q0 -64 -42.5 -105.5t-107.5 -41.5h-397zM256 1239v176h649v-176h-649z" />
    <glyph glyph-name="Ubreve" unicode="&#x16c;" horiz-adv-x="1402" 
d="M700 -23q-123 0 -223.5 35.5t-165 92.5t-108 132t-62 149.5t-18.5 148.5v919h270v-907q0 -155 87 -245.5t220 -90.5q135 0 222.5 90t87.5 246v907h270v-919q0 -74 -18.5 -148.5t-63 -149.5t-109 -132t-165.5 -92.5t-224 -35.5zM559 1808q20 -106 143 -106t144 106h196
q-10 -126 -98.5 -193t-241.5 -67q-155 0 -242 67.5t-98 192.5h197z" />
    <glyph glyph-name="ubreve" unicode="&#x16d;" horiz-adv-x="1173" 
d="M506 0q-174 0 -285.5 111t-111.5 309v665h262v-643q0 -231 209 -231h211v874h262v-938q0 -64 -42.5 -105.5t-107.5 -41.5h-397zM438 1454q21 -115 144 -115q120 0 143 115h197q-11 -127 -99.5 -197.5t-240.5 -70.5q-153 0 -241 71t-99 197h196z" />
    <glyph glyph-name="Uring" unicode="&#x16e;" horiz-adv-x="1402" 
d="M700 -23q-123 0 -223.5 35.5t-165 92.5t-108 132t-62 149.5t-18.5 148.5v919h270v-907q0 -155 87 -245.5t220 -90.5q135 0 222.5 90t87.5 246v907h270v-919q0 -74 -18.5 -148.5t-63 -149.5t-109 -132t-165.5 -92.5t-224 -35.5zM487 1741q0 88 60.5 146.5t152.5 58.5
q93 0 153 -58.5t60 -146.5q0 -91 -60 -148t-153 -57q-92 0 -152.5 57t-60.5 148zM610 1741q0 -41 26 -65.5t64 -24.5t64.5 24.5t26.5 65.5q0 37 -26.5 61.5t-64.5 24.5q-39 0 -64.5 -24t-25.5 -62z" />
    <glyph glyph-name="uring" unicode="&#x16f;" horiz-adv-x="1173" 
d="M506 0q-174 0 -285.5 111t-111.5 309v665h262v-643q0 -231 209 -231h211v874h262v-938q0 -64 -42.5 -105.5t-107.5 -41.5h-397zM367 1382q0 88 60.5 146.5t152.5 58.5q93 0 153 -58.5t60 -146.5q0 -91 -60 -147.5t-153 -56.5q-92 0 -152.5 56.5t-60.5 147.5zM489 1382
q0 -41 26.5 -66.5t64.5 -25.5t64 25t26 67q0 37 -26 61.5t-64 24.5q-39 0 -65 -24t-26 -62z" />
    <glyph glyph-name="Uhungarumlaut" unicode="&#x170;" horiz-adv-x="1402" 
d="M700 -23q-123 0 -223.5 35.5t-165 92.5t-108 132t-62 149.5t-18.5 148.5v919h270v-907q0 -155 87 -245.5t220 -90.5q135 0 222.5 90t87.5 246v907h270v-919q0 -74 -18.5 -148.5t-63 -149.5t-109 -132t-165.5 -92.5t-224 -35.5zM387 1561l164 247h303l-236 -247h-231z
M819 1561l164 247h305l-237 -247h-232z" />
    <glyph glyph-name="uhungarumlaut" unicode="&#x171;" horiz-adv-x="1173" 
d="M506 0q-174 0 -285.5 111t-111.5 309v665h262v-643q0 -231 209 -231h211v874h262v-938q0 -64 -42.5 -105.5t-107.5 -41.5h-397zM268 1200l193 254h291l-283 -254h-201zM686 1200l193 254h290l-282 -254h-201z" />
    <glyph glyph-name="Uogonek" unicode="&#x172;" horiz-adv-x="1402" 
d="M717 -369q-120 0 -185 49t-65 125q0 114 102 183q-95 17 -172 59.5t-127 98t-84 123.5t-48.5 134.5t-14.5 131.5v919h270v-907q0 -155 87 -245.5t220 -90.5q135 0 222.5 90t87.5 246v907h270v-919q0 -69 -16 -138t-54 -139.5t-93 -126.5t-140 -96.5t-189 -52.5
q-100 -43 -100 -93q0 -51 94 -51h54v-207h-119z" />
    <glyph glyph-name="uogonek" unicode="&#x173;" horiz-adv-x="1173" 
d="M506 0q-174 0 -285.5 111t-111.5 309v665h262v-643q0 -231 209 -231h211v874h262v-938q0 -64 -42.5 -105.5t-107.5 -41.5h-139q-70 -21 -109 -49t-39 -60q0 -53 95 -53h53v-207h-119q-120 0 -185 49t-65 125q0 123 121 195h-10z" />
    <glyph glyph-name="Wcircumflex" unicode="&#x174;" horiz-adv-x="2066" 
d="M1053 1221h-37l-58 -310l-186 -911h-401l-316 1454h269l174 -915l55 -306h37l55 306l195 915h389l194 -915l56 -306h37l55 306l174 915h268l-315 -1454h-402l-186 911zM686 1561l199 247h303l196 -247h-229l-106 114h-29l-107 -114h-227z" />
    <glyph glyph-name="wcircumflex" unicode="&#x175;" horiz-adv-x="1779" 
d="M1251 215h29l49 246l133 624h260v-16l-270 -1069h-367l-135 625l-43 245h-33l-45 -245l-133 -625h-368l-271 1069v16h262l134 -624l47 -246h30l45 246l134 624h364l133 -624zM543 1200l198 254h303l197 -254h-229l-107 125h-28l-107 -125h-227z" />
    <glyph glyph-name="Ycircumflex" unicode="&#x176;" horiz-adv-x="1306" 
d="M518 571l-469 875v8h287l207 -412l104 -225h10l107 225l207 412h286v-8l-471 -873v-573h-268v571zM305 1561l199 247h303l197 -247h-230l-106 114h-29l-107 -114h-227z" />
    <glyph glyph-name="ycircumflex" unicode="&#x177;" horiz-adv-x="1198" 
d="M203 -369v207h313l41 174h-151l-351 1057v16h273l184 -624l68 -246h38l68 246l184 624h271v-16l-430 -1300q-44 -138 -185 -138h-323zM250 1200l199 254h303l196 -254h-229l-107 125h-28l-107 -125h-227z" />
    <glyph glyph-name="Ydieresis" unicode="&#x178;" horiz-adv-x="1306" 
d="M518 571l-469 875v8h287l207 -412l104 -225h10l107 225l207 412h286v-8l-471 -873v-573h-268v571zM334 1573v223h229v-223h-229zM743 1573v223h230v-223h-230z" />
    <glyph glyph-name="Zacute" unicode="&#x179;" horiz-adv-x="1204" 
d="M70 0l2 221l725 991v9h-709v233h1028v-221l-727 -991v-9h746v-233h-1065zM422 1561l217 247h322l-304 -247h-235z" />
    <glyph glyph-name="zacute" unicode="&#x17a;" horiz-adv-x="1050" 
d="M76 0v184l567 688h-549v213h871v-184l-572 -688h580v-213h-897zM360 1200l226 254h315l-313 -254h-228z" />
    <glyph glyph-name="Zdotaccent" unicode="&#x17b;" horiz-adv-x="1204" 
d="M70 0l2 221l725 991v9h-709v233h1028v-221l-727 -991v-9h746v-233h-1065zM471 1569v233h266v-233h-266z" />
    <glyph glyph-name="zdotaccent" unicode="&#x17c;" horiz-adv-x="1050" 
d="M76 0v184l567 688h-549v213h871v-184l-572 -688h580v-213h-897zM393 1217v237h262v-237h-262z" />
    <glyph glyph-name="Zcaron" unicode="&#x17d;" horiz-adv-x="1204" 
d="M70 0l2 221l725 991v9h-709v233h1028v-221l-727 -991v-9h746v-233h-1065zM254 1808h227l107 -114h28l107 114h229l-196 -247h-303z" />
    <glyph glyph-name="zcaron" unicode="&#x17e;" horiz-adv-x="1050" 
d="M76 0v184l567 688h-549v213h871v-184l-572 -688h580v-213h-897zM176 1454h227l107 -125h29l106 125h229l-196 -254h-303z" />
    <glyph glyph-name="uni018F" unicode="&#x18f;" horiz-adv-x="1603" 
d="M799 -23q-152 0 -286.5 52.5t-237 150.5t-159 252t-48.5 344h1185q-6 117 -44.5 208.5t-100.5 148t-140.5 85.5t-168.5 29q-86 0 -159 -24.5t-123 -66t-83 -90t-51 -103.5h-287q30 145 127.5 261.5t248.5 184.5t327 68q150 0 282.5 -51.5t232.5 -145t158 -236.5t58 -315
q0 -174 -58 -317.5t-158 -237.5t-232.5 -145.5t-282.5 -51.5zM356 578q38 -178 156.5 -274.5t286.5 -96.5q165 0 285 94t157 277h-885z" />
    <glyph glyph-name="uni0191" unicode="&#x191;" horiz-adv-x="884" 
d="M-223 -369v207h268l164 932h-135l2 213h170l57 328q12 69 57.5 106t118.5 37h348v-207h-270l-47 -264h233v-213h-270l-176 -995q-12 -71 -58 -107.5t-118 -36.5h-344z" />
    <glyph glyph-name="florin" unicode="&#x192;" horiz-adv-x="884" 
d="M-223 -369v207h268l164 932h-135l2 213h170l57 328q12 69 57.5 106t118.5 37h348v-207h-270l-47 -264h233v-213h-270l-176 -995q-12 -71 -58 -107.5t-118 -36.5h-344z" />
    <glyph glyph-name="Aringacute" unicode="&#x1fa;" horiz-adv-x="1490" 
d="M51 0l498 1454h405l498 -1454h-274l-144 438h-569l-143 -438h-271zM537 659h424l-101 308l-84 264h-55l-84 -264zM539 1704q0 88 60.5 146.5t152.5 58.5q93 0 153 -58.5t60 -146.5q0 -91 -60 -148t-153 -57q-92 0 -152.5 57t-60.5 148zM625 1952l225 254h315l-313 -254
h-227zM662 1704q0 -42 26 -67t64 -25t64 25t26 67q0 37 -26 61.5t-64 24.5q-39 0 -64.5 -24t-25.5 -62z" />
    <glyph glyph-name="aringacute" unicode="&#x1fb;" horiz-adv-x="1159" 
d="M446 0q-170 0 -272 79.5t-102 233.5q0 86 27 145t84.5 95t131 55t181.5 29l303 27v71q0 95 -53.5 137.5t-155.5 42.5q-101 0 -150.5 -39.5t-60.5 -127.5h-258q3 173 133.5 266.5t343.5 93.5q210 0 331.5 -96t121.5 -289v-576q0 -65 -42 -106t-108 -41h-455zM336 322
q0 -73 41.5 -103.5t124.5 -30.5h297v301l-250 -28q-113 -13 -163 -41.5t-50 -97.5zM383 1356q0 88 60.5 146.5t152.5 58.5q93 0 153 -58.5t60 -146.5q0 -91 -60 -148t-153 -57q-92 0 -152.5 57t-60.5 148zM471 1604l225 254h316l-314 -254h-227zM506 1356q0 -42 26 -67
t64 -25t64 25t26 67q0 37 -26 61.5t-64 24.5q-39 0 -64.5 -24t-25.5 -62z" />
    <glyph glyph-name="AEacute" unicode="&#x1fc;" horiz-adv-x="2000" 
d="M55 0l498 1454h1366v-229h-655v-383h587v-226h-587v-387h665v-229h-936v438h-526l-143 -438h-269zM541 659h452v566h-268l-84 -258zM1057 1561l217 247h321l-303 -247h-235z" />
    <glyph glyph-name="aeacute" unicode="&#x1fd;" horiz-adv-x="1961" 
d="M446 0q-170 0 -272 79.5t-102 233.5q0 86 27 145t84.5 95t131 55t181.5 29l303 27v71q0 95 -53.5 137.5t-155.5 42.5q-101 0 -150.5 -39.5t-60.5 -127.5h-258q3 173 133.5 266.5t343.5 93.5q259 0 373 -137q153 137 372 137q122 0 226.5 -44t178.5 -124t112 -200t28 -265
h-829q18 -136 93.5 -217.5t190.5 -81.5q86 0 149 45t93 123h273q-47 -169 -186.5 -268t-328.5 -99q-176 0 -313 91q-45 -68 -129 -68h-455zM336 322q0 -73 41.5 -103.5t124.5 -30.5h297v299v2l-250 -28q-113 -13 -163 -41.5t-50 -97.5zM815 1200l225 254h316l-314 -254h-227
zM1065 655h559q-22 121 -96 192t-185 71q-109 0 -181.5 -72t-96.5 -191z" />
    <glyph glyph-name="Oslashacute" unicode="&#x1fe;" horiz-adv-x="1609" 
d="M805 -23q-191 0 -352 82l-99 -141h-239l178 254q-104 98 -162.5 240t-58.5 317q0 171 58.5 314t158.5 237t233 145.5t283 51.5q194 0 348 -80l100 139h238l-178 -252q106 -98 164.5 -239.5t58.5 -315.5q0 -173 -58 -316.5t-158 -238t-232.5 -146t-282.5 -51.5zM346 729
q0 -206 96 -346l574 815q-91 49 -211 49q-202 0 -330.5 -137.5t-128.5 -380.5zM590 256q94 -49 215 -49q97 0 180 34.5t145 99.5t97 164.5t35 223.5q0 206 -99 342zM625 1561l217 247h321l-303 -247h-235z" />
    <glyph glyph-name="oslashacute" unicode="&#x1ff;" horiz-adv-x="1261" 
d="M631 -23q-133 0 -250 54l-80 -113h-221l151 217q-153 156 -153 408q0 132 44 240.5t120.5 178.5t176 108t212.5 38q135 0 250 -53l77 112h222l-152 -215q156 -156 156 -409q0 -132 -44 -240.5t-120 -179t-176 -108.5t-213 -38zM340 543q0 -121 41 -201l375 532
q-63 29 -125 29q-124 0 -207.5 -92.5t-83.5 -267.5zM467 1200l225 254h316l-314 -254h-227zM504 211q63 -29 127 -29q123 0 206 93t83 268q0 120 -41 200z" />
    <glyph glyph-name="uni0218" unicode="&#x218;" horiz-adv-x="1280" 
d="M653 -23q-166 0 -298 58.5t-210 173.5t-79 270h272q4 -129 92 -203.5t225 -74.5q132 0 208.5 53.5t76.5 155.5q0 52 -29 91t-77.5 63.5t-111.5 44.5t-133 38t-140 39t-133 53t-111.5 74t-77.5 108t-29 150q0 189 146.5 297.5t380.5 108.5q243 0 396 -128t159 -352h-271
q-4 125 -85 194t-208 69q-111 0 -181 -45.5t-70 -133.5q0 -49 29 -86t78 -61.5t112.5 -44.5t133.5 -39t140.5 -41t134 -55.5t112.5 -76.5t78 -110t29 -151q0 -136 -77 -237.5t-202 -151.5t-280 -50zM475 -430l49 336h256l-121 -336h-184z" />
    <glyph glyph-name="uni0219" unicode="&#x219;" horiz-adv-x="1093" 
d="M549 -23q-209 0 -338 93t-139 274h262q17 -94 72.5 -135t146.5 -41q53 0 96 11t76 42t33 80q0 47 -36.5 79t-95 49t-129 31.5t-141 35.5t-129 52.5t-95 90.5t-36.5 141q0 155 125 241.5t322 86.5q205 0 325 -95t131 -265h-260q-12 174 -202 174q-77 0 -130 -29.5
t-53 -89.5q0 -42 37 -71t96 -47t130 -35t142 -41t130 -57.5t96 -93t37 -139.5q0 -165 -132 -253.5t-341 -88.5zM373 -430l49 336h256l-121 -336h-184z" />
    <glyph glyph-name="uni021A" unicode="&#x21a;" horiz-adv-x="1239" 
d="M483 0v1221h-424v233h1121v-233h-426v-1221h-271zM440 -430l49 336h256l-120 -336h-185z" />
    <glyph glyph-name="uni021B" unicode="&#x21b;" horiz-adv-x="782" 
d="M702 1085v-213h-223v-665h223v-207h-335q-66 0 -108 41t-42 106v725h-156v213h156v277h262v-277h223zM268 -430l49 336h256l-120 -336h-185z" />
    <glyph glyph-name="uni0237" unicode="&#x237;" horiz-adv-x="512" 
d="M-111 -369v207h236v1247h262v-1302q0 -68 -43 -110t-115 -42h-340z" />
    <glyph glyph-name="uni0259" unicode="&#x259;" horiz-adv-x="1243" 
d="M618 1108q244 0 395.5 -157t151.5 -408q0 -249 -153.5 -407.5t-393.5 -158.5q-122 0 -226 44t-178 124t-112 200t-28 265h829q-18 136 -94 217.5t-191 81.5q-86 0 -148.5 -45t-92.5 -123h-273q47 169 186 268t328 99zM338 430q22 -121 95.5 -191.5t184.5 -70.5
q109 0 182 71.5t97 190.5h-559z" />
    <glyph glyph-name="uni02BC" unicode="&#x2bc;" horiz-adv-x="575" 
d="M119 954l63 500h275l-125 -500h-213z" />
    <glyph glyph-name="circumflex" unicode="&#x2c6;" horiz-adv-x="903" 
d="M571 1200l-106 125h-29l-106 -125h-228l199 254h303l197 -254h-230z" />
    <glyph glyph-name="caron" unicode="&#x2c7;" horiz-adv-x="903" 
d="M571 1454h230l-197 -254h-303l-199 254h228l106 -125h29z" />
    <glyph glyph-name="breve" unicode="&#x2d8;" horiz-adv-x="884" 
d="M442 1186q-153 0 -241 71t-99 197h197q21 -115 143 -115q121 0 144 115h196q-11 -127 -99.5 -197.5t-240.5 -70.5z" />
    <glyph glyph-name="dotaccent" unicode="&#x2d9;" horiz-adv-x="468" 
d="M102 1210v232h265v-232h-265z" />
    <glyph glyph-name="ring" unicode="&#x2da;" horiz-adv-x="630" 
d="M315 1178q-92 0 -152.5 56.5t-60.5 147.5q0 88 60.5 146.5t152.5 58.5q93 0 153 -58.5t60 -146.5q0 -91 -60 -147.5t-153 -56.5zM225 1382q0 -42 26 -67t64 -25t64.5 25.5t26.5 66.5q0 37 -26.5 61.5t-64.5 24.5q-39 0 -64.5 -24t-25.5 -62z" />
    <glyph glyph-name="ogonek" unicode="&#x2db;" horiz-adv-x="620" 
d="M322 -418q-100 0 -160 49t-60 131q0 63 33 121.5t111 130.5l147 -14q-90 -72 -90 -135q0 -80 117 -80h98v-203h-196z" />
    <glyph glyph-name="tilde" unicode="&#x2dc;" horiz-adv-x="968" 
d="M102 1198q3 112 67 189t161 77q45 0 89.5 -17t73 -38t60 -38t53.5 -17q73 0 76 100h184q-3 -111 -67 -187.5t-160 -76.5q-45 0 -89.5 17t-73 38t-59.5 38t-52 17q-40 0 -58 -25.5t-20 -76.5h-185z" />
    <glyph glyph-name="hungarumlaut" unicode="&#x2dd;" horiz-adv-x="1134" 
d="M549 1200l192 254h291l-280 -254h-203zM102 1200l193 254h291l-283 -254h-201z" />
    <glyph glyph-name="gravecomb" unicode="&#x300;" 
d="M416 1200l-314 254h316l225 -254h-227z" />
    <glyph glyph-name="acutecomb" unicode="&#x301;" 
d="M102 1200l226 254h315l-313 -254h-228z" />
    <glyph glyph-name="uni0302" unicode="&#x302;" 
d="M571 1200l-106 125h-29l-106 -125h-228l199 254h303l197 -254h-230z" />
    <glyph glyph-name="tildecomb" unicode="&#x303;" 
d="M102 1198q3 112 67 189t161 77q45 0 89.5 -17t73 -38t60 -38t53.5 -17q73 0 76 100h184q-3 -111 -67 -187.5t-160 -76.5q-45 0 -89.5 17t-73 38t-59.5 38t-52 17q-40 0 -58 -25.5t-20 -76.5h-185z" />
    <glyph glyph-name="uni0304" unicode="&#x304;" 
d="M102 1415h650v-176h-650v176z" />
    <glyph glyph-name="uni0306" unicode="&#x306;" 
d="M442 1186q-153 0 -241 71t-99 197h197q21 -115 143 -115q121 0 144 115h196q-11 -127 -99.5 -197.5t-240.5 -70.5z" />
    <glyph glyph-name="uni0307" unicode="&#x307;" 
d="M102 1217v237h263v-237h-263z" />
    <glyph glyph-name="uni0308" unicode="&#x308;" 
d="M512 1219v217h229v-217h-229zM102 1219v217h230v-217h-230z" />
    <glyph glyph-name="uni030A" unicode="&#x30a;" 
d="M315 1178q-92 0 -152.5 56.5t-60.5 147.5q0 88 60.5 146.5t152.5 58.5q93 0 153 -58.5t60 -146.5q0 -91 -60 -147.5t-153 -56.5zM225 1382q0 -42 26 -67t64 -25t64.5 25.5t26.5 66.5q0 37 -26.5 61.5t-64.5 24.5q-39 0 -64.5 -24t-25.5 -62z" />
    <glyph glyph-name="uni030B" unicode="&#x30b;" 
d="M520 1200l193 254h291l-283 -254h-201zM102 1200l193 254h291l-283 -254h-201z" />
    <glyph glyph-name="uni030C" unicode="&#x30c;" 
d="M571 1454h230l-197 -254h-303l-199 254h228l106 -125h29z" />
    <glyph glyph-name="uni0312" unicode="&#x312;" 
d="M102 1200l252 254h228l-164 -254h-316z" />
    <glyph glyph-name="uni0326" unicode="&#x326;" 
d="M102 -430l50 336h256l-121 -336h-185z" />
    <glyph glyph-name="uni0327" unicode="&#x327;" 
d="M102 -471v113h181q79 0 79 61v4q0 27 -20.5 42t-58.5 15h-152l-14 15l57 225l176 -4l-61 -106v-17h53q81 0 139 -44t58 -126v-4q0 -85 -58.5 -129.5t-138.5 -44.5h-240z" />
    <glyph glyph-name="uni0328" unicode="&#x328;" 
d="M352 -369q-120 0 -185 49t-65 125q0 70 44.5 128.5t136.5 95.5l188 -29q-70 -20 -108.5 -48.5t-38.5 -60.5q0 -53 94 -53h53v-207h-119z" />
    <glyph glyph-name="uni0337" unicode="&#x337;" 
d="M102 481v248l594 334v-248z" />
    <glyph glyph-name="uni0338" unicode="&#x338;" 
d="M102 -82l195 279l70 94l444 631l66 96l104 149h221l-180 -256l-78 -108l-444 -629l-64 -96l-112 -160h-222z" />
    <glyph glyph-name="uni03A9" unicode="&#x3a9;" horiz-adv-x="1630" 
d="M86 0v227h307q-139 82 -225 220.5t-86 336.5q0 135 47.5 258t136.5 221t231 156t318 58q141 0 261.5 -38t206 -104t145.5 -154t89 -189t29 -208q0 -198 -86 -336.5t-225 -220.5h307v-227h-627v223q48 11 93 32t94 61t85 94t59.5 136t23.5 181q0 239 -130 376.5
t-325 137.5q-197 0 -327 -137.5t-130 -376.5q0 -99 23.5 -181t59.5 -136t85 -94t94 -61t93 -32v-223h-627z" />
    <glyph glyph-name="pi" unicode="&#x3c0;" horiz-adv-x="1378" 
d="M963 0q-65 0 -106.5 41.5t-41.5 105.5v725h-336v-872h-262v872h-156v213h1239v-213h-223v-665h223v-207h-337z" />
    <glyph glyph-name="Wgrave" unicode="&#x1e80;" horiz-adv-x="2066" 
d="M1053 1221h-37l-58 -310l-186 -911h-401l-316 1454h269l174 -915l55 -306h37l55 306l195 915h389l194 -915l56 -306h37l55 306l174 915h268l-315 -1454h-402l-186 911zM670 1808h321l217 -247h-235z" />
    <glyph glyph-name="wgrave" unicode="&#x1e81;" horiz-adv-x="1779" 
d="M1251 215h29l49 246l133 624h260v-16l-270 -1069h-367l-135 625l-43 245h-33l-45 -245l-133 -625h-368l-271 1069v16h262l134 -624l47 -246h30l45 246l134 624h364l133 -624zM545 1454h315l225 -254h-227z" />
    <glyph glyph-name="Wacute" unicode="&#x1e82;" horiz-adv-x="2066" 
d="M1053 1221h-37l-58 -310l-186 -911h-401l-316 1454h269l174 -915l55 -306h37l55 306l195 915h389l194 -915l56 -306h37l55 306l174 915h268l-315 -1454h-402l-186 911zM854 1561l217 247h322l-303 -247h-236z" />
    <glyph glyph-name="wacute" unicode="&#x1e83;" horiz-adv-x="1779" 
d="M1251 215h29l49 246l133 624h260v-16l-270 -1069h-367l-135 625l-43 245h-33l-45 -245l-133 -625h-368l-271 1069v16h262l134 -624l47 -246h30l45 246l134 624h364l133 -624zM727 1200l225 254h316l-314 -254h-227z" />
    <glyph glyph-name="Wdieresis" unicode="&#x1e84;" horiz-adv-x="2066" 
d="M1053 1221h-37l-58 -310l-186 -911h-401l-316 1454h269l174 -915l55 -306h37l55 306l195 915h389l194 -915l56 -306h37l55 306l174 915h268l-315 -1454h-402l-186 911zM715 1573v223h229v-223h-229zM1124 1573v223h230v-223h-230z" />
    <glyph glyph-name="wdieresis" unicode="&#x1e85;" horiz-adv-x="1779" 
d="M1251 215h29l49 246l133 624h260v-16l-270 -1069h-367l-135 625l-43 245h-33l-45 -245l-133 -625h-368l-271 1069v16h262l134 -624l47 -246h30l45 246l134 624h364l133 -624zM571 1219v217h230v-217h-230zM981 1219v217h229v-217h-229z" />
    <glyph glyph-name="uni1E9E" unicode="&#x1e9e;" horiz-adv-x="1282" 
d="M127 1307q0 64 42 105.5t107 41.5h863v-221l-299 -389q174 -26 274 -138t100 -278q0 -189 -124.5 -308.5t-327.5 -119.5h-193v223h154q107 0 163 57.5t56 147.5t-56.5 146.5t-162.5 56.5h-154v221l287 371v10h-465v-1233h-264v1307z" />
    <glyph glyph-name="uni1EBC" unicode="&#x1ebc;" horiz-adv-x="1132" 
d="M127 1307q0 64 42 105.5t107 41.5h777v-229h-656v-383h588v-226h-588v-387h666v-229h-936v1307zM219 1561q3 111 67 187.5t160 76.5q45 0 89.5 -17.5t73.5 -38t60.5 -38t53.5 -17.5q73 0 76 103h184q-3 -111 -67 -188t-160 -77q-45 0 -89.5 17t-73.5 37.5t-60 37.5
t-52 17q-40 0 -58 -24.5t-20 -75.5h-184z" />
    <glyph glyph-name="uni1EBD" unicode="&#x1ebd;" horiz-adv-x="1243" 
d="M625 -23q-244 0 -395.5 157.5t-151.5 408.5q0 249 153.5 407t393.5 158q122 0 226 -44t178 -124t112 -200t28 -265h-829q18 -136 94 -217.5t191 -81.5q86 0 148.5 45t92.5 123h273q-47 -169 -186 -268t-328 -99zM248 1196q3 112 66.5 189t160.5 77q57 0 111.5 -27.5
t96.5 -55t69 -27.5q72 0 75 100h185q-3 -111 -67 -187.5t-161 -76.5q-45 0 -89.5 17t-73 38t-59.5 38t-52 17q-40 0 -58 -25.5t-20 -76.5h-184zM346 655h559q-22 121 -95.5 192t-184.5 71q-109 0 -182 -72t-97 -191z" />
    <glyph glyph-name="Ygrave" unicode="&#x1ef2;" horiz-adv-x="1306" 
d="M518 571l-469 875v8h287l207 -412l104 -225h10l107 225l207 412h286v-8l-471 -873v-573h-268v571zM291 1808h321l217 -247h-235z" />
    <glyph glyph-name="ygrave" unicode="&#x1ef3;" horiz-adv-x="1198" 
d="M203 -369v207h313l41 174h-151l-351 1057v16h273l184 -624l68 -246h38l68 246l184 624h271v-16l-430 -1300q-44 -138 -185 -138h-323zM254 1454h315l226 -254h-228z" />
    <glyph glyph-name="uni1EF8" unicode="&#x1ef8;" horiz-adv-x="1306" 
d="M518 571l-469 875v8h287l207 -412l104 -225h10l107 225l207 412h286v-8l-471 -873v-573h-268v571zM279 1561q3 111 67 187.5t160 76.5q45 0 89.5 -17.5t73 -38t60 -38t53.5 -17.5q73 0 76 103h184q-3 -111 -67 -188t-160 -77q-45 0 -89.5 17t-73 37.5t-59.5 37.5t-52 17
q-40 0 -58 -24.5t-20 -75.5h-184z" />
    <glyph glyph-name="uni1EF9" unicode="&#x1ef9;" horiz-adv-x="1198" 
d="M203 -369v207h313l41 174h-151l-351 1057v16h273l184 -624l68 -246h38l68 246l184 624h271v-16l-430 -1300q-44 -138 -185 -138h-323zM223 1196q3 112 67 189t161 77q45 0 89.5 -17t73 -38t60 -38t53.5 -17q73 0 76 100h184q-3 -111 -67 -187.5t-160 -76.5
q-57 0 -111.5 27.5t-96 55t-67.5 27.5q-40 0 -57.5 -25.5t-19.5 -76.5h-185z" />
    <glyph glyph-name="uni2002" unicode="&#x2002;" horiz-adv-x="1024" 
 />
    <glyph glyph-name="uni2003" unicode="&#x2003;" horiz-adv-x="2048" 
 />
    <glyph glyph-name="uni2004" unicode="&#x2004;" horiz-adv-x="681" 
 />
    <glyph glyph-name="uni2005" unicode="&#x2005;" horiz-adv-x="512" 
 />
    <glyph glyph-name="uni2009" unicode="&#x2009;" horiz-adv-x="256" 
 />
    <glyph glyph-name="uni200A" unicode="&#x200a;" horiz-adv-x="86" 
 />
    <glyph glyph-name="uni200B" unicode="&#x200b;" 
 />
    <glyph glyph-name="endash" unicode="&#x2013;" horiz-adv-x="1257" 
d="M100 465v209h1057v-209h-1057z" />
    <glyph glyph-name="emdash" unicode="&#x2014;" horiz-adv-x="1921" 
d="M125 465v209h1671v-209h-1671z" />
    <glyph glyph-name="quoteleft" unicode="&#x2018;" horiz-adv-x="575" 
d="M119 954l125 500h213l-64 -500h-274z" />
    <glyph glyph-name="quoteright" unicode="&#x2019;" horiz-adv-x="575" 
d="M119 954l63 500h275l-125 -500h-213z" />
    <glyph glyph-name="quotesinglbase" unicode="&#x201a;" horiz-adv-x="575" 
d="M119 -254l63 500h275l-125 -500h-213z" />
    <glyph glyph-name="quotedblleft" unicode="&#x201c;" horiz-adv-x="993" 
d="M119 954l125 500h213l-64 -500h-274zM537 954l125 500h212l-63 -500h-274z" />
    <glyph glyph-name="quotedblright" unicode="&#x201d;" horiz-adv-x="993" 
d="M119 954l63 500h275l-125 -500h-213zM537 954l63 500h274l-124 -500h-213z" />
    <glyph glyph-name="quotedblbase" unicode="&#x201e;" horiz-adv-x="993" 
d="M119 -254l63 500h275l-125 -500h-213zM537 -254l63 500h274l-124 -500h-213z" />
    <glyph glyph-name="dagger" unicode="&#x2020;" horiz-adv-x="1230" 
d="M485 -205v1047h-362v243h362v369h263v-369h362v-243h-362v-1047h-263z" />
    <glyph glyph-name="daggerdbl" unicode="&#x2021;" horiz-adv-x="1259" 
d="M498 -205v529h-363v241h363v277h-363v243h363v369h262v-369h362v-243h-362v-277h362v-241h-362v-529h-262z" />
    <glyph glyph-name="bullet" unicode="&#x2022;" horiz-adv-x="937" 
d="M469 295q-126 0 -213.5 88t-87.5 213t87.5 213t213.5 88q125 0 213 -88.5t88 -212.5t-88 -212.5t-213 -88.5z" />
    <glyph glyph-name="ellipsis" unicode="&#x2026;" horiz-adv-x="1378" 
d="M125 0v254h262v-254h-262zM559 0v254h262v-254h-262zM993 0v254h262v-254h-262z" />
    <glyph glyph-name="uni202F" unicode="&#x202f;" horiz-adv-x="256" 
 />
    <glyph glyph-name="perthousand" unicode="&#x2030;" horiz-adv-x="2772" 
d="M389 639q-177 0 -263.5 111t-86.5 305q0 192 87 301.5t263 109.5q174 0 262 -111t88 -300q0 -194 -88 -305t-262 -111zM236 1055q0 -264 153 -264q152 0 152 264q0 260 -152 260q-45 0 -76 -20t-47 -57t-23 -81t-7 -102zM578 0l628 1454h180l-628 -1454h-180zM1219 403
q0 192 87 302t263 110q174 0 262 -111.5t88 -300.5q0 -194 -88 -304.5t-262 -110.5q-177 0 -263.5 110.5t-86.5 304.5zM1415 403q0 -264 154 -264q151 0 151 264q0 122 -34 191.5t-117 69.5q-59 0 -94.5 -37t-47.5 -91.5t-12 -132.5zM2036 403q0 192 87 302t263 110
q174 0 262 -111.5t88 -300.5q0 -194 -88 -304.5t-262 -110.5q-177 0 -263.5 110.5t-86.5 304.5zM2232 403q0 -264 154 -264q151 0 151 264q0 122 -34 191.5t-117 69.5q-59 0 -94.5 -37t-47.5 -91.5t-12 -132.5z" />
    <glyph glyph-name="guilsinglleft" unicode="&#x2039;" horiz-adv-x="698" 
d="M332 139l-240 406l240 403h268l-242 -403l242 -406h-268z" />
    <glyph glyph-name="guilsinglright" unicode="&#x203a;" horiz-adv-x="698" 
d="M367 948l239 -405l-239 -404h-269l242 404l-242 405h269z" />
    <glyph glyph-name="fraction" unicode="&#x2044;" horiz-adv-x="436" 
d="M-168 0l629 1454h180l-629 -1454h-180z" />
    <glyph glyph-name="uni2070" unicode="&#x2070;" horiz-adv-x="776" 
d="M389 842q-177 0 -263.5 110.5t-86.5 304.5q0 192 87 302t263 110q174 0 262 -111.5t88 -300.5q0 -194 -88 -304.5t-262 -110.5zM236 1257q0 -264 153 -264q152 0 152 264q0 261 -152 261q-59 0 -94 -37t-47 -91.5t-12 -132.5z" />
    <glyph glyph-name="uni2074" unicode="&#x2074;" horiz-adv-x="716" 
d="M457 854v170h-439v137l357 496h172q40 0 68 -26.5t28 -65.5v-711h-186zM219 1180h238v161l4 152h-25l-217 -307v-6z" />
    <glyph glyph-name="uni2075" unicode="&#x2075;" horiz-adv-x="729" 
d="M367 842q-150 0 -237.5 69t-92.5 183h186q9 -53 46.5 -83t92.5 -30q63 0 101.5 34.5t38.5 92.5q0 59 -37 94t-96 35q-100 0 -131 -72h-132q-21 0 -35.5 13.5t-11.5 31.5l29 355q3 40 29.5 66t64.5 26h475v-160h-409l-17 -180q64 47 175 47q135 0 213.5 -68.5t78.5 -185.5
q0 -124 -90.5 -196t-240.5 -72z" />
    <glyph glyph-name="uni2076" unicode="&#x2076;" horiz-adv-x="749" 
d="M383 842q-171 0 -258.5 99t-87.5 276q0 208 90.5 330t273.5 122q130 0 213.5 -63.5t92.5 -175.5h-197q-7 45 -39 69.5t-82 24.5q-75 0 -115 -63t-45 -158q71 57 185 57q134 0 217.5 -69t83.5 -185q0 -123 -94 -193.5t-238 -70.5zM244 1106q0 -58 39 -92.5t98 -34.5
q63 0 100 34.5t37 92.5t-38 91.5t-99 33.5q-62 0 -99.5 -34t-37.5 -91z" />
    <glyph glyph-name="uni2077" unicode="&#x2077;" horiz-adv-x="638" 
d="M82 854l321 643h-389v160h609v-117l-328 -686h-213z" />
    <glyph glyph-name="uni2078" unicode="&#x2078;" horiz-adv-x="733" 
d="M365 842q-148 0 -241 64.5t-93 174.5q0 67 40 117.5t109 75.5v6q-121 51 -121 170q0 99 85.5 159t220.5 60q136 0 222.5 -60.5t86.5 -158.5q0 -116 -121 -170v-6q71 -26 110 -76t39 -117q0 -111 -93.5 -175t-243.5 -64zM225 1092q0 -53 40 -84t100 -31q62 0 101.5 31
t39.5 84q0 51 -40 80.5t-101 29.5q-59 0 -99.5 -29.5t-40.5 -80.5zM248 1434q0 -45 33 -73t84 -28q52 0 86 27.5t34 73.5q0 45 -33.5 72.5t-86.5 27.5q-52 0 -84.5 -27.5t-32.5 -72.5z" />
    <glyph glyph-name="uni2079" unicode="&#x2079;" horiz-adv-x="749" 
d="M348 842q-131 0 -213.5 63t-91.5 176h197q17 -96 125 -96q71 0 111.5 63.5t45.5 159.5q-76 -57 -188 -57q-132 0 -215.5 69t-83.5 185q0 123 94 193.5t238 70.5q171 0 257.5 -99.5t86.5 -275.5q0 -100 -21.5 -181.5t-64.5 -142.5t-113.5 -94.5t-163.5 -33.5zM231 1405
q0 -59 39 -93t99 -34q62 0 100.5 35t38.5 92q0 58 -39.5 92.5t-99.5 34.5q-63 0 -100.5 -34.5t-37.5 -92.5z" />
    <glyph glyph-name="Euro" unicode="&#x20ac;" horiz-adv-x="1343" 
d="M748 -23q-228 0 -370.5 133.5t-187.5 376.5h-118v181h100q-2 20 -2 59v49h-98v182h116q43 248 186 383.5t374 135.5q108 0 202 -38.5t161 -105.5t110.5 -154.5t58.5 -187.5h-287q-14 106 -83.5 184t-168.5 78q-116 0 -185 -73t-95 -222h436v-182h-455v-49v-59h455v-181
h-436q28 -145 96.5 -215.5t183.5 -70.5q99 0 168.5 78t83.5 184h287q-15 -99 -58.5 -186.5t-110 -154.5t-161 -106t-202.5 -39z" />
    <glyph glyph-name="uni2116" unicode="&#x2116;" horiz-adv-x="2426" 
d="M1626 598v139h666v-139h-666zM184 0v1307q0 65 42 106t108 41h291l362 -885l113 -297h53v1182h250v-1454h-440l-363 885l-115 297h-51v-1182h-250zM1626 1153q0 145 95.5 229t238.5 84q144 0 238 -84t94 -229q0 -144 -94 -227.5t-238 -83.5q-143 0 -238.5 84t-95.5 227z
M1812 1153q0 -87 41 -132.5t107 -45.5q65 0 106 45t41 133t-41 133t-106 45q-66 0 -107 -45t-41 -133z" />
    <glyph glyph-name="uni2117" unicode="&#x2117;" horiz-adv-x="1763" 
d="M879 -23q-153 0 -291 59t-237.5 159.5t-158.5 240t-59 293.5q0 153 58.5 291t158.5 238.5t239 159.5t294 59q153 0 291.5 -59t238.5 -159.5t158.5 -239.5t58.5 -292q0 -154 -58.5 -293t-159 -239t-239.5 -159t-294 -59zM242 729q0 -177 85 -326.5t232 -236t322 -86.5
q173 0 320.5 86t234 235t86.5 326t-86.5 325t-233 233t-319.5 85q-177 0 -324.5 -85t-232 -232.5t-84.5 -323.5zM580 268v817q0 41 27.5 69t68.5 28h309q131 0 213 -76t82 -207q0 -128 -80 -204.5t-213 -76.5h-215v-350h-192zM772 770h201q110 0 110 129q0 59 -32 92t-93 33
h-186v-254z" />
    <glyph glyph-name="trademark" unicode="&#x2122;" horiz-adv-x="2002" 
d="M340 651v621h-213v182h637v-182h-213v-621h-211zM850 651v721q0 35 23.5 58.5t58.5 23.5h276l97 -475l22 -139h23l22 139l94 475h351v-803h-193v457l2 154h-27l-26 -154l-94 -457h-283l-102 457l-27 154h-25l2 -154v-457h-194z" />
    <glyph glyph-name="estimated" unicode="&#x212e;" horiz-adv-x="1777" 
d="M889 0q-235 0 -418 89.5t-286 257t-103 388.5q0 163 60 301.5t166 234.5t255.5 150t325.5 54q362 0 577 -197.5t230 -560.5h-1284q-11 0 -16.5 -2t-10 -10.5t-4.5 -26.5v-361q0 -30 37.5 -73t101 -85.5t162.5 -72t207 -29.5q147 0 283 66t227 170h151
q-145 -161 -291 -227t-370 -66zM381 780q0 -18 31 -18h950q21 0 27 7t6 28v354q0 56 -78.5 120.5t-198.5 108t-231 43.5q-102 0 -200.5 -31t-162.5 -73.5t-103.5 -85t-39.5 -68.5v-385z" />
    <glyph glyph-name="uni2153" unicode="&#x2153;" horiz-adv-x="1622" 
d="M211 651v645h-197v158h295q40 0 67 -26t27 -66v-711h-192zM309 0l629 1454h180l-629 -1454h-180zM1126 242q3 -51 38.5 -82t92.5 -31t93 29t36 80q0 53 -40.5 77.5t-108.5 24.5h-66v143h66q68 0 107.5 27t39.5 74q0 41 -35 65.5t-87 24.5q-54 0 -85.5 -27.5t-37.5 -75.5
h-191q4 115 88.5 179.5t225.5 64.5q139 0 226 -60t87 -155q0 -61 -37 -108t-94 -66v-6q64 -23 102.5 -71t38.5 -118q0 -115 -90 -179t-233 -64q-145 0 -235 66.5t-93 187.5h192z" />
    <glyph glyph-name="uni2154" unicode="&#x2154;" horiz-adv-x="1853" 
d="M43 797q257 188 340.5 270.5t83.5 149.5q0 52 -32 79t-87 27q-59 0 -93.5 -33.5t-35.5 -91.5h-192q3 132 90.5 199t232.5 67q141 0 227.5 -66t86.5 -171q0 -108 -79 -197.5t-282 -216.5v-8l141 6h215v-160h-616v146zM541 0l628 1454h181l-629 -1454h-180zM1358 242
q3 -51 38.5 -82t92.5 -31t93 29t36 80q0 53 -41 77.5t-109 24.5h-65v143h65q68 0 108 27t40 74q0 41 -35.5 65.5t-87.5 24.5q-54 0 -85.5 -27.5t-37.5 -75.5h-190q4 115 88 179.5t225 64.5q139 0 226 -60t87 -155q0 -61 -37 -108t-94 -66v-6q64 -23 103 -71t39 -118
q0 -115 -90.5 -179t-233.5 -64q-145 0 -235 66.5t-93 187.5h193z" />
    <glyph glyph-name="oneeighth" unicode="&#x215b;" horiz-adv-x="1646" 
d="M211 651v645h-197v158h295q40 0 67 -26t27 -66v-711h-192zM309 0l629 1454h180l-629 -1454h-180zM944 227q0 67 40.5 117.5t109.5 75.5v6q-121 51 -121 170q0 99 85 159t220 60q136 0 222.5 -60.5t86.5 -158.5q0 -116 -121 -170v-6q71 -27 110.5 -76.5t39.5 -116.5
q0 -111 -93.5 -175t-244.5 -64q-148 0 -241 64.5t-93 174.5zM1139 238q0 -53 39.5 -84t99.5 -31q62 0 101.5 31t39.5 84q0 51 -40 80.5t-101 29.5q-59 0 -99 -29.5t-40 -80.5zM1161 580q0 -45 33 -73t84 -28q52 0 86.5 27.5t34.5 73.5q0 45 -34 72.5t-87 27.5
q-52 0 -84.5 -27.5t-32.5 -72.5z" />
    <glyph glyph-name="threeeighths" unicode="&#x215c;" horiz-adv-x="1871" 
d="M352 639q-145 0 -234.5 66.5t-92.5 187.5h192q3 -51 38.5 -82t92.5 -31t93 29t36 80q0 53 -40.5 77.5t-108.5 24.5h-66v144h66q68 0 107.5 26.5t39.5 73.5q0 41 -35.5 65.5t-87.5 24.5q-54 0 -85.5 -27t-37.5 -75h-190q4 115 88 179t225 64q139 0 226.5 -60t87.5 -155
q0 -61 -37 -108t-94 -66v-6q64 -23 102.5 -70.5t38.5 -117.5q0 -115 -90.5 -179.5t-233.5 -64.5zM537 0l628 1454h181l-629 -1454h-180zM1171 227q0 67 40.5 117.5t109.5 75.5v6q-121 51 -121 170q0 99 85 159t220 60q136 0 223 -60.5t87 -158.5q0 -116 -121 -170v-6
q71 -26 110 -76t39 -117q0 -111 -93.5 -175t-244.5 -64q-148 0 -241 64.5t-93 174.5zM1366 238q0 -53 39.5 -84t99.5 -31q62 0 102 31t40 84q0 51 -40.5 80.5t-101.5 29.5q-59 0 -99 -29.5t-40 -80.5zM1389 580q0 -45 32.5 -73t83.5 -28q52 0 86.5 27.5t34.5 73.5
q0 45 -34 72.5t-87 27.5q-51 0 -83.5 -27.5t-32.5 -72.5z" />
    <glyph glyph-name="fiveeighths" unicode="&#x215d;" horiz-adv-x="1886" 
d="M367 639q-150 0 -237.5 69t-92.5 183h186q9 -53 46.5 -83t92.5 -30q63 0 101.5 34.5t38.5 92.5q0 59 -37 94t-96 35q-100 0 -131 -71h-132q-21 0 -35.5 13.5t-11.5 31.5l29 354q3 40 29.5 66t64.5 26h475v-160h-409l-17 -180q64 47 175 47q135 0 213.5 -68.5t78.5 -185.5
q0 -124 -90.5 -196t-240.5 -72zM551 0l629 1454h180l-629 -1454h-180zM1186 227q0 67 40 117.5t109 75.5v6q-121 51 -121 170q0 99 85.5 159t220.5 60q136 0 222.5 -60.5t86.5 -158.5q0 -116 -121 -170v-6q71 -27 110.5 -76.5t39.5 -116.5q0 -111 -93.5 -175t-244.5 -64
q-148 0 -241 64.5t-93 174.5zM1380 238q0 -53 40 -84t100 -31q62 0 101.5 31t39.5 84q0 51 -40 80.5t-101 29.5q-59 0 -99.5 -29.5t-40.5 -80.5zM1403 580q0 -45 33 -73t84 -28q52 0 86 27.5t34 73.5q0 45 -33.5 72.5t-86.5 27.5q-52 0 -84.5 -27.5t-32.5 -72.5z" />
    <glyph glyph-name="seveneighths" unicode="&#x215e;" horiz-adv-x="1654" 
d="M82 651l321 643h-389v160h609v-117l-328 -686h-213zM317 0l629 1454h180l-628 -1454h-181zM952 227q0 67 40.5 117.5t109.5 75.5v6q-121 51 -121 170q0 99 85 159t220 60q136 0 222.5 -60.5t86.5 -158.5q0 -117 -120 -170v-6q71 -26 110 -76t39 -117q0 -111 -93.5 -175
t-244.5 -64q-148 0 -241 64.5t-93 174.5zM1147 238q0 -53 39.5 -84t99.5 -31q62 0 101.5 31t39.5 84q0 51 -40 80.5t-101 29.5q-59 0 -99 -29.5t-40 -80.5zM1169 580q0 -45 33 -73t84 -28q52 0 86.5 27.5t34.5 73.5q0 45 -34 72.5t-87 27.5q-52 0 -84.5 -27.5t-32.5 -72.5z
" />
    <glyph glyph-name="arrowleft" unicode="&#x2190;" horiz-adv-x="1779" 
d="M1628 864v-270h-1048l407 -414h-323l-512 549l512 549h323l-409 -414h1050z" />
    <glyph glyph-name="arrowup" unicode="&#x2191;" horiz-adv-x="1400" 
d="M565 0v1051l-413 -410v324l548 512l549 -512v-324l-413 408v-1049h-271z" />
    <glyph glyph-name="arrowright" unicode="&#x2192;" horiz-adv-x="1779" 
d="M152 864h1050l-409 414h323l512 -549l-512 -549h-323l407 414h-1048v270z" />
    <glyph glyph-name="arrowdown" unicode="&#x2193;" horiz-adv-x="1400" 
d="M565 1454h271v-1048l413 407v-324l-549 -512l-548 512v324l413 -410v1051z" />
    <glyph glyph-name="uni2196" unicode="&#x2196;" horiz-adv-x="1468" 
d="M1317 336l-191 -193l-741 742l-4 -580l-229 230l26 749l750 27l229 -230l-582 -4z" />
    <glyph glyph-name="uni2197" unicode="&#x2197;" horiz-adv-x="1468" 
d="M152 334l743 743l-584 4l230 228l749 -25l27 -752l-230 -227l-4 580l-741 -742z" />
    <glyph glyph-name="uni2198" unicode="&#x2198;" horiz-adv-x="1468" 
d="M152 1120l190 191l741 -742l4 582l230 -229l-27 -750l-749 -27l-230 230l584 2z" />
    <glyph glyph-name="uni2199" unicode="&#x2199;" horiz-adv-x="1468" 
d="M1317 1120l-742 -743l582 -2l-229 -230l-750 27l-26 750l229 229l4 -582l741 742z" />
    <glyph glyph-name="partialdiff" unicode="&#x2202;" horiz-adv-x="1273" 
d="M631 -23q-247 0 -399 157.5t-152 408.5q0 248 152.5 406.5t388.5 158.5q110 0 192 -57q-85 129 -203 232t-245 167v4h340q222 -165 353.5 -391.5t131.5 -493.5q0 -169 -67 -303t-195.5 -211.5t-296.5 -77.5zM348 543q0 -158 81 -257.5t212 -99.5q130 0 210.5 99.5
t80.5 257.5t-80 257t-211 99t-212 -99t-81 -257z" />
    <glyph glyph-name="emptyset" unicode="&#x2205;" horiz-adv-x="1501" 
d="M752 -20q-161 0 -301 81l-70 -81h-252l172 206q-141 163 -141 383q0 160 79 296t215.5 215t297.5 79q163 0 299 -82l67 82h252l-172 -205q143 -162 143 -385q0 -120 -46.5 -229t-125.5 -188t-188 -125.5t-229 -46.5zM362 569q0 -124 72 -225l484 576q-80 36 -166 36
q-161 0 -275.5 -113.5t-114.5 -273.5zM584 221q80 -39 168 -39q160 0 272.5 113.5t112.5 273.5q0 125 -72 226z" />
    <glyph glyph-name="uni2206" unicode="&#x2206;" horiz-adv-x="1628" 
d="M115 0l497 1454h404l497 -1454h-1398zM455 221h714l-245 746l-84 264h-56l-84 -264z" />
    <glyph glyph-name="product" unicode="&#x220f;" horiz-adv-x="1505" 
d="M1319 1454v-1679h-270v1448h-592v-1448h-271v1679h1133z" />
    <glyph glyph-name="summation" unicode="&#x2211;" horiz-adv-x="1290" 
d="M131 -225v227l475 619l-467 606v227h1002v-227h-703l467 -606l-485 -619h741v-227h-1030z" />
    <glyph glyph-name="minus" unicode="&#x2212;" horiz-adv-x="1138" 
d="M68 618v222h1003v-222h-1003z" />
    <glyph glyph-name="radical" unicode="&#x221a;" horiz-adv-x="1740" 
d="M682 -225l-262 800h-301v218h508l159 -508l76 -277h51l76 277l365 1169h274v-16l-538 -1663h-408z" />
    <glyph glyph-name="infinity" unicode="&#x221e;" horiz-adv-x="2002" 
d="M1434 274q-75 0 -140.5 21t-119 61t-94 84.5t-81.5 104.5q-40 -60 -80.5 -104.5t-93 -84.5t-118 -61t-140.5 -21q-188 0 -308 134t-120 329q0 192 121 325.5t307 133.5q144 0 246.5 -72t187.5 -198q40 60 80.5 104.5t93.5 84t118.5 60.5t140.5 21q185 0 306.5 -134
t121.5 -329q0 -192 -119.5 -325.5t-308.5 -133.5zM354 733q0 -105 63 -178.5t169 -73.5q47 0 88.5 18.5t79 57.5t65 77.5t64.5 98.5q-37 61 -64.5 99t-65 77.5t-79 58.5t-88.5 19q-107 0 -169.5 -73.5t-62.5 -180.5zM1118 735q37 -61 64.5 -99t65 -77.5t79.5 -58.5t90 -19
q105 0 167.5 74t62.5 178q0 107 -62.5 180.5t-167.5 73.5q-48 0 -90 -18.5t-79.5 -57.5t-65 -77.5t-64.5 -98.5z" />
    <glyph glyph-name="integral" unicode="&#x222b;" horiz-adv-x="1138" 
d="M119 -369v228h319v1448q0 68 42 107.5t108 39.5h434v-227h-322v-1448q0 -68 -41 -108t-108 -40h-432z" />
    <glyph glyph-name="approxequal" unicode="&#x2248;" horiz-adv-x="1255" 
d="M883 766q-77 0 -162.5 29t-159 57.5t-121.5 28.5q-112 0 -118 -113h-240q3 69 23 129.5t56.5 109t94 77t129.5 28.5q61 0 128.5 -17.5t116.5 -39t104 -39t93 -17.5q56 0 85.5 29t31.5 82h240q-2 -68 -21 -128.5t-55 -109.5t-94 -77.5t-131 -28.5zM70 295q3 92 36 168
t102.5 126t164.5 50q61 0 128 -18t115.5 -39.5t103.5 -39.5t93 -18q57 0 87.5 29.5t33.5 83.5h237q-2 -68 -21 -128t-55 -108.5t-94 -77t-131 -28.5q-61 0 -128 17.5t-116 38t-104 38t-94 17.5q-56 0 -86 -29t-33 -82h-239z" />
    <glyph glyph-name="notequal" unicode="&#x2260;" horiz-adv-x="1185" 
d="M1096 825h-348l-86 -194h434v-215h-529l-67 -156h-224l68 156h-252v215h346l86 194h-432v215h526l68 154h223l-67 -154h254v-215z" />
    <glyph glyph-name="lessequal" unicode="&#x2264;" horiz-adv-x="1163" 
d="M1069 401l-987 336v242l987 336l2 -234l-698 -207v-32l698 -207zM82 127v207h989v-207h-989z" />
    <glyph glyph-name="greaterequal" unicode="&#x2265;" horiz-adv-x="1163" 
d="M94 401v234l697 207v32l-697 207v234l987 -336v-242zM92 127v207h989v-207h-989z" />
    <glyph glyph-name="lozenge" unicode="&#x25ca;" horiz-adv-x="1474" 
d="M602 0l-487 727l487 727h270l490 -727l-490 -727h-270zM401 727l326 -481h21l325 481l-325 481h-21z" />
    <glyph glyph-name="uniA78B" unicode="&#xa78b;" horiz-adv-x="430" 
d="M117 674l-39 780h274l-39 -780h-196z" />
    <glyph glyph-name="uniA78C" unicode="&#xa78c;" horiz-adv-x="354" 
d="M80 829l-39 625h272l-39 -625h-194z" />
    <glyph glyph-name="fi" unicode="&#xfb01;" horiz-adv-x="1259" 
d="M217 1307q0 68 41 107.5t107 39.5h366v-207h-252v-162h252v-213h-252v-872h-262v872h-156v213h156v222zM872 0v1085h263v-1085h-263zM872 1217v237h263v-237h-263z" />
    <glyph glyph-name="fl" unicode="&#xfb02;" horiz-adv-x="1259" 
d="M217 1307q0 68 41 107.5t107 39.5h366v-207h-252v-162h252v-213h-252v-872h-262v872h-156v213h156v222zM872 0v1454h263v-1454h-263z" />
    <glyph glyph-name="uni004A0301" horiz-adv-x="720" 
d="M59 0v233h265v1221h270v-1307q0 -65 -42 -106t-108 -41h-385zM279 1561l217 247h321l-303 -247h-235z" />
    <glyph glyph-name="B.ss01" horiz-adv-x="1282" 
d="M127 0v1454h604q193 0 314.5 -106t121.5 -281q0 -62 -19 -121.5t-63.5 -113t-107.5 -80.5q112 -37 174.5 -132t62.5 -204q0 -179 -125.5 -297.5t-324.5 -118.5h-637zM393 223h330q105 0 162 58.5t57 146.5q0 84 -55.5 142.5t-163.5 58.5h-330v-406zM393 842h291
q101 0 159 63.5t58 149.5q0 83 -56 133.5t-161 50.5h-291v-397z" />
    <glyph glyph-name="D.ss01" horiz-adv-x="1458" 
d="M127 0v1454h561q210 0 369 -91.5t244 -255.5t85 -376q0 -330 -191.5 -530.5t-506.5 -200.5h-561zM397 223h273q207 0 324.5 139t117.5 369q0 229 -119 364.5t-323 135.5h-273v-1008z" />
    <glyph glyph-name="Eth.ss01" horiz-adv-x="1478" 
d="M147 0v616h-147v222h147v616h562q210 0 369 -91.5t244 -255.5t85 -376q0 -330 -191.5 -530.5t-506.5 -200.5h-562zM418 223h272q207 0 325 139t118 369q0 228 -119 364t-324 136h-272v-393h299v-222h-299v-393z" />
    <glyph glyph-name="Dcaron.ss01" horiz-adv-x="1458" 
d="M127 0v1454h561q210 0 369 -91.5t244 -255.5t85 -376q0 -330 -191.5 -530.5t-506.5 -200.5h-561zM303 1808h227l107 -114h29l106 114h229l-196 -247h-303zM397 223h273q207 0 324.5 139t117.5 369q0 229 -119 364.5t-323 135.5h-273v-1008z" />
    <glyph glyph-name="Dcroat.ss01" horiz-adv-x="1478" 
d="M147 0v616h-147v222h147v616h562q210 0 369 -91.5t244 -255.5t85 -376q0 -330 -191.5 -530.5t-506.5 -200.5h-562zM418 223h272q207 0 325 139t118 369q0 228 -119 364t-324 136h-272v-393h299v-222h-299v-393z" />
    <glyph glyph-name="E.ss01" horiz-adv-x="1132" 
d="M127 0v1454h926v-229h-656v-383h588v-226h-588v-387h666v-229h-936z" />
    <glyph glyph-name="Eacute.ss01" horiz-adv-x="1132" 
d="M412 1561l217 247h321l-303 -247h-235zM127 0v1454h926v-229h-656v-383h588v-226h-588v-387h666v-229h-936z" />
    <glyph glyph-name="Ebreve.ss01" horiz-adv-x="1132" 
d="M594 1548q-155 0 -242 67.5t-98 192.5h197q20 -106 143 -106q122 0 143 106h197q-10 -126 -98.5 -193t-241.5 -67zM127 0v1454h926v-229h-656v-383h588v-226h-588v-387h666v-229h-936z" />
    <glyph glyph-name="Ecaron.ss01" horiz-adv-x="1132" 
d="M713 1808h229l-197 -247h-303l-198 247h227l107 -114h28zM127 0v1454h926v-229h-656v-383h588v-226h-588v-387h666v-229h-936z" />
    <glyph glyph-name="Ecircumflex.ss01" horiz-adv-x="1132" 
d="M713 1561l-107 114h-28l-107 -114h-227l198 247h303l197 -247h-229zM127 0v1454h926v-229h-656v-383h588v-226h-588v-387h666v-229h-936z" />
    <glyph glyph-name="Edieresis.ss01" horiz-adv-x="1132" 
d="M682 1573v223h229v-223h-229zM127 0v1454h926v-229h-656v-383h588v-226h-588v-387h666v-229h-936zM272 1573v223h230v-223h-230z" />
    <glyph glyph-name="Edotaccent.ss01" horiz-adv-x="1132" 
d="M461 1569v233h266v-233h-266zM127 0v1454h926v-229h-656v-383h588v-226h-588v-387h666v-229h-936z" />
    <glyph glyph-name="Egrave.ss01" horiz-adv-x="1132" 
d="M532 1561l-303 247h322l217 -247h-236zM127 0v1454h926v-229h-656v-383h588v-226h-588v-387h666v-229h-936z" />
    <glyph glyph-name="Emacron.ss01" horiz-adv-x="1132" 
d="M248 1774h690v-177h-690v177zM127 0v1454h926v-229h-656v-383h588v-226h-588v-387h666v-229h-936z" />
    <glyph glyph-name="Eogonek.ss01" horiz-adv-x="1132" 
d="M942 -369q-120 0 -185 49t-65 125q0 123 121 195h-686v1454h926v-229h-656v-383h588v-226h-588v-387h666v-229h-2q-148 -50 -148 -111q0 -51 95 -51h53v-207h-119z" />
    <glyph glyph-name="uni1EBC.ss01" horiz-adv-x="1132" 
d="M217 1561q3 111 67 187.5t160 76.5q45 0 89.5 -17.5t73.5 -38t60.5 -38t53.5 -17.5q73 0 76 103h184q-3 -111 -67 -188t-160 -77q-45 0 -89.5 17t-73.5 37.5t-60 37.5t-52 17q-40 0 -58 -24.5t-20 -75.5h-184zM127 0v1454h926v-229h-656v-383h588v-226h-588v-387h666
v-229h-936z" />
    <glyph glyph-name="F.ss01" horiz-adv-x="1148" 
d="M397 0h-270v1454h922v-233h-652v-390h584v-225h-584v-606z" />
    <glyph glyph-name="G.ss01" horiz-adv-x="1622" 
d="M770 -23q-146 0 -273 51.5t-221 146.5t-148 238t-54 316q0 172 58.5 315t158.5 236.5t232.5 145t281.5 51.5q281 0 465.5 -142.5t226.5 -371.5h-285q-28 118 -130 201t-275 83q-94 0 -175.5 -32t-145.5 -93.5t-101 -162.5t-37 -230q0 -130 37 -232t101 -164t145.5 -94
t175.5 -32q173 0 303 101.5t139 256.5h-497v211h749v-776h-194l-19 231q-86 -120 -218 -187t-300 -67z" />
    <glyph glyph-name="Gbreve.ss01" horiz-adv-x="1622" 
d="M770 -23q-146 0 -273 51.5t-221 146.5t-148 238t-54 316q0 172 58.5 315t158.5 236.5t232.5 145t281.5 51.5q281 0 465.5 -142.5t226.5 -371.5h-285q-28 118 -130 201t-275 83q-94 0 -175.5 -32t-145.5 -93.5t-101 -162.5t-37 -230q0 -130 37 -232t101 -164t145.5 -94
t175.5 -32q173 0 303 101.5t139 256.5h-497v211h749v-776h-194l-19 231q-86 -120 -218 -187t-300 -67zM664 1808q20 -106 143 -106q122 0 143 106h197q-10 -126 -98.5 -193t-241.5 -67q-155 0 -242 67.5t-98 192.5h197z" />
    <glyph glyph-name="Gcircumflex.ss01" horiz-adv-x="1622" 
d="M770 -23q-146 0 -273 51.5t-221 146.5t-148 238t-54 316q0 172 58.5 315t158.5 236.5t232.5 145t281.5 51.5q281 0 465.5 -142.5t226.5 -371.5h-285q-28 118 -130 201t-275 83q-94 0 -175.5 -32t-145.5 -93.5t-101 -162.5t-37 -230q0 -130 37 -232t101 -164t145.5 -94
t175.5 -32q173 0 303 101.5t139 256.5h-497v211h749v-776h-194l-19 231q-86 -120 -218 -187t-300 -67zM457 1561l198 247h303l197 -247h-229l-107 114h-28l-107 -114h-227z" />
    <glyph glyph-name="uni0122.ss01" horiz-adv-x="1622" 
d="M770 -23q-146 0 -273 51.5t-221 146.5t-148 238t-54 316q0 172 58.5 315t158.5 236.5t232.5 145t281.5 51.5q281 0 465.5 -142.5t226.5 -371.5h-285q-28 118 -130 201t-275 83q-94 0 -175.5 -32t-145.5 -93.5t-101 -162.5t-37 -230q0 -130 37 -232t101 -164t145.5 -94
t175.5 -32q173 0 303 101.5t139 256.5h-497v211h749v-776h-194l-19 231q-86 -120 -218 -187t-300 -67zM606 -430l49 336h256l-120 -336h-185z" />
    <glyph glyph-name="Gdotaccent.ss01" horiz-adv-x="1622" 
d="M770 -23q-146 0 -273 51.5t-221 146.5t-148 238t-54 316q0 172 58.5 315t158.5 236.5t232.5 145t281.5 51.5q281 0 465.5 -142.5t226.5 -371.5h-285q-28 118 -130 201t-275 83q-94 0 -175.5 -32t-145.5 -93.5t-101 -162.5t-37 -230q0 -130 37 -232t101 -164t145.5 -94
t175.5 -32q173 0 303 101.5t139 256.5h-497v211h749v-776h-194l-19 231q-86 -120 -218 -187t-300 -67zM674 1569v233h266v-233h-266z" />
    <glyph glyph-name="M.ss01" horiz-adv-x="1865" 
d="M377 0h-250v1454h475l240 -926l67 -284h45l70 284l240 926h473v-1454h-248v1206h-45l-76 -307l-244 -899h-385l-243 899l-74 307h-47l2 -307v-899z" />
    <glyph glyph-name="N.ss01" horiz-adv-x="1472" 
d="M127 0v1454h442l361 -885l114 -297h52v1182h250v-1454h-441l-362 885l-113 297h-53v-1182h-250z" />
    <glyph glyph-name="Nacute.ss01" horiz-adv-x="1472" 
d="M127 0v1454h442l361 -885l114 -297h52v1182h250v-1454h-441l-362 885l-113 297h-53v-1182h-250zM555 1561l217 247h322l-303 -247h-236z" />
    <glyph glyph-name="Ncaron.ss01" horiz-adv-x="1472" 
d="M127 0v1454h442l361 -885l114 -297h52v1182h250v-1454h-441l-362 885l-113 297h-53v-1182h-250zM387 1808h227l107 -114h29l106 114h229l-196 -247h-303z" />
    <glyph glyph-name="uni0145.ss01" horiz-adv-x="1472" 
d="M127 0v1454h442l361 -885l114 -297h52v1182h250v-1454h-441l-362 885l-113 297h-53v-1182h-250zM557 -430l49 336h256l-121 -336h-184z" />
    <glyph glyph-name="Eng.ss01" horiz-adv-x="1472" 
d="M811 -369v207h283v162h-189l-360 885l-115 297h-53v-1182h-250v1454h440l363 -885l112 -297h54v1182h250v-1659q0 -72 -46 -118t-118 -46h-371z" />
    <glyph glyph-name="Ntilde.ss01" horiz-adv-x="1472" 
d="M127 0v1454h442l361 -885l114 -297h52v1182h250v-1454h-441l-362 885l-113 297h-53v-1182h-250zM360 1561q3 111 67 187.5t161 76.5q45 0 89.5 -17.5t73 -38t60 -38t53.5 -17.5q73 0 76 103h184q-3 -111 -67 -188t-160 -77q-45 0 -89.5 17t-73 37.5t-59.5 37.5t-52 17
q-40 0 -58 -24.5t-20 -75.5h-185z" />
    <glyph glyph-name="P.ss01" horiz-adv-x="1259" 
d="M127 0v1454h592q215 0 345 -116t130 -318q0 -212 -128.5 -328.5t-340.5 -116.5h-328v-575h-270zM397 799h324q101 0 150 58t49 163q0 102 -55.5 156.5t-162.5 54.5h-305v-432z" />
    <glyph glyph-name="Q.ss01" horiz-adv-x="1609" 
d="M805 -23q-150 0 -283 51.5t-233 145.5t-158.5 237.5t-58.5 317.5q0 171 58.5 314t158.5 237t233 145.5t283 51.5t282.5 -51.5t232.5 -145.5t158 -237t58 -314q0 -329 -197 -532l256 -273h-321l-123 131q-159 -78 -346 -78zM346 729q0 -247 128.5 -384.5t330.5 -137.5
q92 0 174 31l-215 229h321l78 -84q99 140 99 346q0 243 -128.5 380.5t-328.5 137.5q-202 0 -330.5 -137.5t-128.5 -380.5z" />
    <glyph glyph-name="R.ss01" horiz-adv-x="1345" 
d="M127 0v1454h621q216 0 346.5 -116t130.5 -320q0 -153 -77.5 -261t-215.5 -151l94 -151l268 -455h-307l-325 582h-265v-582h-270zM397 799h355q101 0 149.5 58t48.5 163q0 103 -56 157t-163 54h-334v-432z" />
    <glyph glyph-name="Racute.ss01" horiz-adv-x="1345" 
d="M127 0v1454h621q216 0 346.5 -116t130.5 -320q0 -153 -77.5 -261t-215.5 -151l94 -151l268 -455h-307l-325 582h-265v-582h-270zM397 799h355q101 0 149.5 58t48.5 163q0 103 -56 157t-163 54h-334v-432zM449 1561l217 247h321l-303 -247h-235z" />
    <glyph glyph-name="Rcaron.ss01" horiz-adv-x="1345" 
d="M127 0v1454h621q216 0 346.5 -116t130.5 -320q0 -153 -77.5 -261t-215.5 -151l94 -151l268 -455h-307l-325 582h-265v-582h-270zM281 1808h227l106 -114h29l107 114h229l-197 -247h-303zM397 799h355q101 0 149.5 58t48.5 163q0 103 -56 157t-163 54h-334v-432z" />
    <glyph glyph-name="uni0156.ss01" horiz-adv-x="1345" 
d="M127 0v1454h621q216 0 346.5 -116t130.5 -320q0 -153 -77.5 -261t-215.5 -151l94 -151l268 -455h-307l-325 582h-265v-582h-270zM397 799h355q101 0 149.5 58t48.5 163q0 103 -56 157t-163 54h-334v-432zM463 -430l49 336h256l-121 -336h-184z" />
    <glyph glyph-name="uni1E9E.ss01" horiz-adv-x="1277" 
d="M127 0v1454h1012v-221l-299 -389q174 -26 274 -138t100 -278q0 -189 -124.5 -308.5t-327.5 -119.5h-193v223h154q107 0 163 57.5t56 147.5t-56.5 146.5t-162.5 56.5h-154v221l287 371v10h-465v-1233h-264z" />
    <glyph glyph-name="G.ss09" horiz-adv-x="1574" 
d="M768 0q-213 0 -372 94.5t-241.5 259t-82.5 375.5q0 172 55.5 314t152 236.5t226.5 146t278 51.5q139 0 258 -40t202.5 -110t136.5 -163t69 -201h-285q-26 123 -120.5 203.5t-260.5 80.5q-194 0 -315 -137t-121 -381q0 -234 114 -370t322 -136h416v336h-452v217h706v-629
q0 -64 -42 -105.5t-107 -41.5h-537z" />
    <glyph glyph-name="Gbreve.ss09" horiz-adv-x="1574" 
d="M768 0q-213 0 -372 94.5t-241.5 259t-82.5 375.5q0 172 55.5 314t152 236.5t226.5 146t278 51.5q139 0 258 -40t202.5 -110t136.5 -163t69 -201h-285q-26 123 -120.5 203.5t-260.5 80.5q-194 0 -315 -137t-121 -381q0 -234 114 -370t322 -136h416v336h-452v217h706v-629
q0 -64 -42 -105.5t-107 -41.5h-537zM643 1808q20 -106 143 -106t144 106h196q-10 -126 -98.5 -193t-241.5 -67q-155 0 -242 67.5t-98 192.5h197z" />
    <glyph glyph-name="Gcircumflex.ss09" horiz-adv-x="1574" 
d="M768 0q-213 0 -372 94.5t-241.5 259t-82.5 375.5q0 172 55.5 314t152 236.5t226.5 146t278 51.5q139 0 258 -40t202.5 -110t136.5 -163t69 -201h-285q-26 123 -120.5 203.5t-260.5 80.5q-194 0 -315 -137t-121 -381q0 -234 114 -370t322 -136h416v336h-452v217h706v-629
q0 -64 -42 -105.5t-107 -41.5h-537zM436 1561l199 247h303l197 -247h-230l-106 114h-29l-106 -114h-228z" />
    <glyph glyph-name="uni0122.ss09" horiz-adv-x="1574" 
d="M768 0q-213 0 -372 94.5t-241.5 259t-82.5 375.5q0 172 55.5 314t152 236.5t226.5 146t278 51.5q139 0 258 -40t202.5 -110t136.5 -163t69 -201h-285q-26 123 -120.5 203.5t-260.5 80.5q-194 0 -315 -137t-121 -381q0 -234 114 -370t322 -136h416v336h-452v217h706v-629
q0 -64 -42 -105.5t-107 -41.5h-537zM637 -430l49 336h256l-121 -336h-184z" />
    <glyph glyph-name="Gdotaccent.ss09" horiz-adv-x="1574" 
d="M768 0q-213 0 -372 94.5t-241.5 259t-82.5 375.5q0 172 55.5 314t152 236.5t226.5 146t278 51.5q139 0 258 -40t202.5 -110t136.5 -163t69 -201h-285q-26 123 -120.5 203.5t-260.5 80.5q-194 0 -315 -137t-121 -381q0 -234 114 -370t322 -136h416v336h-452v217h706v-629
q0 -64 -42 -105.5t-107 -41.5h-537zM653 1569v233h267v-233h-267z" />
    <glyph glyph-name="G.ss01.ss08" horiz-adv-x="1587" 
d="M807 -23q-207 0 -372 88t-263 260.5t-98 403.5q0 172 58.5 315t158.5 236.5t232.5 145t281.5 51.5q281 0 465.5 -142.5t226.5 -371.5h-285q-28 118 -130 201t-275 83q-94 0 -175.5 -32t-145.5 -93.5t-101 -162.5t-37 -230q0 -130 37 -232t101 -164t145.5 -94t175.5 -32
q205 0 312.5 86t107.5 250v22h-475v211h749v-184q0 -132 -48 -245t-136.5 -195t-219.5 -128.5t-290 -46.5z" />
    <glyph glyph-name="Gbreve.ss01.ss08" horiz-adv-x="1587" 
d="M807 -23q-207 0 -372 88t-263 260.5t-98 403.5q0 172 58.5 315t158.5 236.5t232.5 145t281.5 51.5q281 0 465.5 -142.5t226.5 -371.5h-285q-28 118 -130 201t-275 83q-94 0 -175.5 -32t-145.5 -93.5t-101 -162.5t-37 -230q0 -130 37 -232t101 -164t145.5 -94t175.5 -32
q205 0 312.5 86t107.5 250v22h-475v211h749v-184q0 -132 -48 -245t-136.5 -195t-219.5 -128.5t-290 -46.5zM664 1808q20 -106 143 -106q122 0 143 106h197q-10 -126 -98.5 -193t-241.5 -67q-155 0 -242 67.5t-98 192.5h197z" />
    <glyph glyph-name="Gcircumflex.ss01.ss08" horiz-adv-x="1587" 
d="M807 -23q-207 0 -372 88t-263 260.5t-98 403.5q0 172 58.5 315t158.5 236.5t232.5 145t281.5 51.5q281 0 465.5 -142.5t226.5 -371.5h-285q-28 118 -130 201t-275 83q-94 0 -175.5 -32t-145.5 -93.5t-101 -162.5t-37 -230q0 -130 37 -232t101 -164t145.5 -94t175.5 -32
q205 0 312.5 86t107.5 250v22h-475v211h749v-184q0 -132 -48 -245t-136.5 -195t-219.5 -128.5t-290 -46.5zM457 1561l198 247h303l197 -247h-229l-107 114h-28l-107 -114h-227z" />
    <glyph glyph-name="uni0122.ss01.ss08" horiz-adv-x="1587" 
d="M807 -23q-207 0 -372 88t-263 260.5t-98 403.5q0 172 58.5 315t158.5 236.5t232.5 145t281.5 51.5q281 0 465.5 -142.5t226.5 -371.5h-285q-28 118 -130 201t-275 83q-94 0 -175.5 -32t-145.5 -93.5t-101 -162.5t-37 -230q0 -130 37 -232t101 -164t145.5 -94t175.5 -32
q205 0 312.5 86t107.5 250v22h-475v211h749v-184q0 -132 -48 -245t-136.5 -195t-219.5 -128.5t-290 -46.5zM629 -430l49 336h256l-121 -336h-184z" />
    <glyph glyph-name="Gdotaccent.ss01.ss08" horiz-adv-x="1587" 
d="M807 -23q-207 0 -372 88t-263 260.5t-98 403.5q0 172 58.5 315t158.5 236.5t232.5 145t281.5 51.5q281 0 465.5 -142.5t226.5 -371.5h-285q-28 118 -130 201t-275 83q-94 0 -175.5 -32t-145.5 -93.5t-101 -162.5t-37 -230q0 -130 37 -232t101 -164t145.5 -94t175.5 -32
q205 0 312.5 86t107.5 250v22h-475v211h749v-184q0 -132 -48 -245t-136.5 -195t-219.5 -128.5t-290 -46.5zM674 1569v233h266v-233h-266z" />
    <glyph glyph-name="a.dnom" horiz-adv-x="686" 
d="M250 0q-98 0 -157.5 45t-59.5 129q0 91 61 130.5t187 49.5l168 13v34q0 91 -103 91q-51 0 -76.5 -20t-29.5 -64h-177q1 102 80 153t207 51q130 0 202.5 -54.5t72.5 -168.5v-299q0 -38 -28 -64t-69 -26h-278zM217 180q0 -67 86 -67h146v147l-127 -14q-57 -6 -81 -21.5
t-24 -44.5z" />
    <glyph glyph-name="b.dnom" horiz-adv-x="743" 
d="M168 0q-40 0 -68 26t-28 64v713h188v-203h152q130 0 212.5 -82t82.5 -219q0 -135 -83 -217t-212 -82h-244zM260 137h109q71 0 108 41.5t37 120.5q0 80 -37.5 122t-107.5 42h-109v-326z" />
    <glyph glyph-name="c.dnom" horiz-adv-x="720" 
d="M371 -12q-143 0 -238.5 84.5t-95.5 226.5q0 145 95.5 229t238.5 84q131 0 215 -66t104 -169h-188q-11 42 -43 71t-88 29q-66 0 -106 -44.5t-40 -133.5q0 -87 40 -132.5t106 -45.5q56 0 88 29t43 71h188q-20 -102 -104 -167.5t-215 -65.5z" />
    <glyph glyph-name="d.dnom" horiz-adv-x="743" 
d="M330 0q-129 0 -211 82t-82 217q0 137 81.5 219t211.5 82h151v203h191v-713q0 -38 -28.5 -64t-68.5 -26h-245zM227 299q0 -80 38 -121t108 -41h108v326h-108q-69 0 -107.5 -42.5t-38.5 -121.5z" />
    <glyph glyph-name="e.dnom" horiz-adv-x="733" 
d="M367 -12q-147 0 -238.5 86t-91.5 225t92.5 226t237.5 87q154 0 248 -94.5t81 -257.5h-473q9 -71 46 -108t98 -37q90 0 122 82h193q-28 -96 -112 -152.5t-203 -56.5zM229 369h279q-11 60 -47 92.5t-94 32.5q-54 0 -90 -33.5t-48 -91.5z" />
    <glyph glyph-name="f.dnom" horiz-adv-x="438" 
d="M104 713q0 41 27.5 65.5t69.5 24.5h219v-131h-129v-72h129v-139h-129v-461h-187v461h-86v139h86v113z" />
    <glyph glyph-name="g.dnom" horiz-adv-x="743" 
d="M119 -203v131h362v86h-151q-130 0 -212.5 80.5t-82.5 210.5q0 132 83 213.5t212 81.5h243q40 0 68.5 -26.5t28.5 -65.5v-619q0 -40 -29 -66t-72 -26h-450zM227 305q0 -72 38 -113.5t108 -41.5h108v313h-108q-69 0 -107.5 -41.5t-38.5 -116.5z" />
    <glyph glyph-name="h.dnom" horiz-adv-x="722" 
d="M473 356q0 107 -113 107h-98v-463h-186v803h186v-203h166q101 0 166 -61t65 -168v-371h-186v356z" />
    <glyph glyph-name="i.dnom" horiz-adv-x="337" 
d="M76 0v600h186v-600h-186zM76 668v135h186v-135h-186z" />
    <glyph glyph-name="j.dnom" horiz-adv-x="335" 
d="M-57 -203v131h133v672h186v-711q0 -40 -27.5 -66t-70.5 -26h-221zM76 668v135h186v-135h-186z" />
    <glyph glyph-name="k.dnom" horiz-adv-x="698" 
d="M504 311l180 -303v-8h-205l-131 252h-86v-252h-186v803h186v-410h86l131 207h205v-8l-180 -264v-17z" />
    <glyph glyph-name="l.dnom" horiz-adv-x="337" 
d="M262 0h-186v803h186v-803z" />
    <glyph glyph-name="m.dnom" horiz-adv-x="1069" 
d="M72 508q0 39 28 65.5t68 26.5h604q103 0 169.5 -62.5t66.5 -168.5v-369h-187v354q0 109 -112 109h-74v-463h-189v463h-186v-463h-188v508z" />
    <glyph glyph-name="n.dnom" horiz-adv-x="720" 
d="M72 508q0 39 28 65.5t68 26.5h254q104 0 169.5 -62t65.5 -169v-369h-186v354q0 57 -28 83t-83 26h-100v-463h-188v508z" />
    <glyph glyph-name="o.dnom" horiz-adv-x="739" 
d="M371 -12q-143 0 -238.5 84t-95.5 227q0 145 95.5 229t238.5 84q144 0 237.5 -84t93.5 -229q0 -144 -93.5 -227.5t-237.5 -83.5zM225 299q0 -87 40 -132.5t106 -45.5t106.5 44.5t40.5 133.5t-40.5 133.5t-106.5 44.5t-106 -44.5t-40 -133.5z" />
    <glyph glyph-name="p.dnom" horiz-adv-x="743" 
d="M72 508q0 39 28 65.5t68 26.5h244q130 0 212.5 -82t82.5 -219q0 -135 -83 -217t-212 -82h-152v-203h-188v711zM260 137h109q70 0 107.5 42t37.5 120q0 80 -36.5 122t-108.5 42h-109v-326z" />
    <glyph glyph-name="q.dnom" horiz-adv-x="743" 
d="M481 -203v203h-151q-129 0 -211 82t-82 217q0 137 81.5 219t211.5 82h245q40 0 68.5 -26.5t28.5 -65.5v-711h-191zM227 299q0 -78 38.5 -120t107.5 -42h108v326h-108q-71 0 -108.5 -42.5t-37.5 -121.5z" />
    <glyph glyph-name="r.dnom" horiz-adv-x="434" 
d="M74 508q0 42 27 67t69 25h246v-139h-156v-461h-186v508z" />
    <glyph glyph-name="s.dnom" horiz-adv-x="659" 
d="M330 -12q-133 0 -211 52.5t-82 156.5h186q10 -93 111 -93q100 0 100 64q0 32 -39.5 49.5t-96 28t-113.5 26t-96.5 54.5t-39.5 102q0 87 76.5 135.5t204.5 48.5q131 0 202.5 -51.5t77.5 -152.5h-182q-6 90 -106 90q-39 0 -64 -14.5t-25 -43.5q0 -23 29 -39.5t72 -25
t94 -23t94 -32t72 -54t29 -86.5q0 -90 -78.5 -141t-214.5 -51z" />
    <glyph glyph-name="t.dnom" horiz-adv-x="448" 
d="M408 600v-139h-117v-330h117v-131h-209q-40 0 -67.5 26t-27.5 64v371h-86v139h86v152h187v-152h117z" />
    <glyph glyph-name="u.dnom" horiz-adv-x="700" 
d="M637 92q0 -39 -28 -65.5t-68 -26.5h-242q-104 0 -170 62.5t-66 168.5v369h187v-354q0 -57 27.5 -83t82.5 -26h91v463h186v-508z" />
    <glyph glyph-name="v.dnom" horiz-adv-x="686" 
d="M213 0l-201 586v14h197l92 -330l33 -129h22l35 129l88 330h195v-14l-199 -586h-262z" />
    <glyph glyph-name="w.dnom" horiz-adv-x="1101" 
d="M186 0l-170 588v12h185l75 -330l25 -129h25l24 129l74 330h254l74 -330l24 -129h23l26 129l78 330h182v-12l-170 -588h-258l-67 328l-27 131h-24l-25 -131l-70 -328h-258z" />
    <glyph glyph-name="x.dnom" horiz-adv-x="708" 
d="M528 295l166 -287v-8h-200l-119 231h-41l-117 -231h-201v8l166 287v22l-166 275v8h201l117 -229h41l119 229h200v-8l-166 -275v-22z" />
    <glyph glyph-name="y.dnom" horiz-adv-x="686" 
d="M106 -203v131h197l16 84h-112l-195 578v10h197l92 -330l33 -129h22l33 129l90 330h195v-10l-236 -709q-27 -84 -119 -84h-213z" />
    <glyph glyph-name="z.dnom" horiz-adv-x="610" 
d="M37 0v127l313 334h-303v139h520v-129l-311 -332h315v-139h-534z" />
    <glyph glyph-name="a.numr" horiz-adv-x="686" 
d="M250 651q-98 0 -157.5 45t-59.5 129q0 91 61 131t187 50l168 12v35q0 48 -26 69t-77 21t-76.5 -20t-29.5 -64h-177q1 102 80.5 153.5t206.5 51.5q130 0 202.5 -55t72.5 -169v-299q0 -38 -28 -64t-69 -26h-278zM217 831q0 -67 86 -67h146v147l-127 -14q-57 -6 -81 -21.5
t-24 -44.5z" />
    <glyph glyph-name="b.numr" horiz-adv-x="743" 
d="M168 651q-40 0 -68 26t-28 64v713h188v-203h152q130 0 212.5 -82.5t82.5 -218.5q0 -135 -83 -217t-212 -82h-244zM260 788h109q71 0 108 41.5t37 120.5q0 80 -37.5 122t-107.5 42h-109v-326z" />
    <glyph glyph-name="c.numr" horiz-adv-x="720" 
d="M371 639q-143 0 -238.5 84.5t-95.5 226.5q0 145 95.5 229.5t238.5 84.5q131 0 215 -66.5t104 -169.5h-188q-11 42 -43 71t-88 29q-66 0 -106 -44.5t-40 -133.5q0 -87 40 -132.5t106 -45.5q56 0 88 29t43 71h188q-20 -102 -104 -167.5t-215 -65.5z" />
    <glyph glyph-name="d.numr" horiz-adv-x="743" 
d="M330 651q-129 0 -211 82t-82 217q0 137 81.5 219t211.5 82h151v203h191v-713q0 -38 -28.5 -64t-68.5 -26h-245zM227 950q0 -80 38 -121t108 -41h108v326h-108q-69 0 -107.5 -42.5t-38.5 -121.5z" />
    <glyph glyph-name="e.numr" horiz-adv-x="733" 
d="M367 639q-147 0 -238.5 86t-91.5 225t92.5 226.5t237.5 87.5q154 0 248 -95t81 -258h-473q9 -71 46 -108t98 -37q90 0 122 82h193q-28 -96 -112 -152.5t-203 -56.5zM229 1020h279q-11 60 -47 92.5t-94 32.5q-54 0 -90 -33.5t-48 -91.5z" />
    <glyph glyph-name="f.numr" horiz-adv-x="438" 
d="M104 1364q0 41 27.5 65.5t69.5 24.5h219v-131h-129v-72h129v-139h-129v-461h-187v461h-86v139h86v113z" />
    <glyph glyph-name="g.numr" horiz-adv-x="743" 
d="M119 449v131h362v86h-151q-130 0 -212.5 80t-82.5 210q0 132 83 213.5t212 81.5h243q40 0 68.5 -26.5t28.5 -65.5v-618q0 -40 -29 -66t-72 -26h-450zM227 956q0 -72 38 -113.5t108 -41.5h108v313h-108q-69 0 -107.5 -41.5t-38.5 -116.5z" />
    <glyph glyph-name="h.numr" horiz-adv-x="722" 
d="M473 1008q0 54 -27.5 80t-85.5 26h-98v-463h-186v803h186v-203h166q101 0 166 -61t65 -168v-371h-186v357z" />
    <glyph glyph-name="i.numr" horiz-adv-x="337" 
d="M76 651v600h186v-600h-186zM76 1319v135h186v-135h-186z" />
    <glyph glyph-name="j.numr" horiz-adv-x="335" 
d="M-57 449v131h133v671h186v-710q0 -40 -27.5 -66t-70.5 -26h-221zM76 1319v135h186v-135h-186z" />
    <glyph glyph-name="k.numr" horiz-adv-x="698" 
d="M504 963l180 -304v-8h-205l-131 252h-86v-252h-186v803h186v-410h86l131 207h205v-8l-180 -264v-16z" />
    <glyph glyph-name="l.numr" horiz-adv-x="337" 
d="M262 651h-186v803h186v-803z" />
    <glyph glyph-name="m.numr" horiz-adv-x="1069" 
d="M72 1159q0 39 28 65.5t68 26.5h604q103 0 169.5 -62.5t66.5 -168.5v-369h-187v355q0 57 -28 82.5t-84 25.5h-74v-463h-189v463h-186v-463h-188v508z" />
    <glyph glyph-name="n.numr" horiz-adv-x="720" 
d="M72 1159q0 39 28 65.5t68 26.5h254q104 0 169.5 -62t65.5 -169v-369h-186v355q0 57 -27.5 82.5t-83.5 25.5h-100v-463h-188v508z" />
    <glyph glyph-name="o.numr" horiz-adv-x="739" 
d="M371 639q-143 0 -238.5 84t-95.5 227q0 145 95.5 229.5t238.5 84.5q144 0 237.5 -84.5t93.5 -229.5q0 -144 -93.5 -227.5t-237.5 -83.5zM225 950q0 -87 40 -132.5t106 -45.5t106.5 44.5t40.5 133.5t-40.5 133.5t-106.5 44.5t-106 -44.5t-40 -133.5z" />
    <glyph glyph-name="p.numr" horiz-adv-x="743" 
d="M72 1159q0 39 28 65.5t68 26.5h244q130 0 212.5 -82.5t82.5 -218.5q0 -135 -83 -217t-212 -82h-152v-202h-188v710zM260 788h109q70 0 107.5 42t37.5 120q0 80 -36.5 122t-108.5 42h-109v-326z" />
    <glyph glyph-name="q.numr" horiz-adv-x="743" 
d="M481 449v202h-151q-129 0 -211 82t-82 217q0 137 81.5 219t211.5 82h245q40 0 68.5 -26.5t28.5 -65.5v-710h-191zM227 950q0 -78 38.5 -120t107.5 -42h108v326h-108q-71 0 -108.5 -42.5t-37.5 -121.5z" />
    <glyph glyph-name="r.numr" horiz-adv-x="434" 
d="M74 1159q0 42 27 67t69 25h246v-139h-156v-461h-186v508z" />
    <glyph glyph-name="s.numr" horiz-adv-x="659" 
d="M330 639q-133 0 -211 52.5t-82 156.5h186q10 -92 111 -92q100 0 100 63q0 32 -39.5 49.5t-96 28t-113.5 26t-96.5 54.5t-39.5 102q0 87 76.5 136t204.5 49q131 0 202.5 -52t77.5 -153h-182q-6 90 -106 90q-89 0 -89 -57q0 -23 29 -39.5t72 -25.5t94 -23.5t94 -32t72 -54
t29 -86.5q0 -90 -78.5 -141t-214.5 -51z" />
    <glyph glyph-name="t.numr" horiz-adv-x="448" 
d="M408 1251v-139h-117v-330h117v-131h-209q-40 0 -67.5 26t-27.5 64v371h-86v139h86v152h187v-152h117z" />
    <glyph glyph-name="u.numr" horiz-adv-x="700" 
d="M637 743q0 -39 -28 -65.5t-68 -26.5h-242q-104 0 -170 62.5t-66 169.5v368h187v-354q0 -57 27.5 -83t82.5 -26h91v463h186v-508z" />
    <glyph glyph-name="v.numr" horiz-adv-x="686" 
d="M213 651l-201 586v14h197l92 -329l33 -129h22l35 129l88 329h195v-14l-199 -586h-262z" />
    <glyph glyph-name="w.numr" horiz-adv-x="1101" 
d="M186 651l-170 588v12h185l75 -329l25 -129h25l24 129l74 329h254l74 -329l24 -129h23l26 129l78 329h182v-12l-170 -588h-258l-67 328l-27 131h-24l-25 -131l-70 -328h-258z" />
    <glyph glyph-name="x.numr" horiz-adv-x="708" 
d="M528 946l166 -287v-8h-200l-119 232h-41l-117 -232h-201v8l166 287v23l-166 274v8h201l117 -229h41l119 229h200v-8l-166 -274v-23z" />
    <glyph glyph-name="y.numr" horiz-adv-x="686" 
d="M106 449v131h197l16 84h-112l-195 577v10h197l92 -329l33 -129h22l33 129l90 329h195v-10l-236 -709q-26 -83 -119 -83h-213z" />
    <glyph glyph-name="z.numr" horiz-adv-x="610" 
d="M37 651v127l313 334h-303v139h520v-129l-311 -331h315v-140h-534z" />
    <glyph glyph-name="a.dnom.ss01" horiz-adv-x="690" 
d="M252 -12q-97 0 -157 50.5t-60 135.5q0 92 60 131t188 49l168 13v34q0 48 -26 69.5t-79 21.5q-50 0 -75 -20t-29 -64h-176q1 68 39 115t101 68t146 21q129 0 202 -54.5t73 -168.5v-389h-166l-10 68q-72 -80 -199 -80zM219 176q0 -35 24.5 -53.5t69.5 -18.5q60 0 99 31
t39 78v47l-127 -14q-55 -6 -80 -22t-25 -48z" />
    <glyph glyph-name="b.dnom.ss01" horiz-adv-x="776" 
d="M455 -12q-129 0 -199 88v-76h-180v803h186v-271q71 80 193 80q121 0 202.5 -88t81.5 -225q0 -138 -81.5 -224.5t-202.5 -86.5zM254 299q0 -88 39.5 -133t105.5 -45q67 0 107.5 45t40.5 133q0 89 -40 133.5t-108 44.5q-66 0 -105.5 -44.5t-39.5 -133.5z" />
    <glyph glyph-name="d.dnom.ss01" horiz-adv-x="776" 
d="M324 -12q-123 0 -205 86.5t-82 224.5q0 137 82 225t205 88q122 0 190 -80v271h188v-803h-180v78q-33 -44 -86 -67t-112 -23zM229 299q0 -88 41 -133t107 -45q65 0 106 45t41 133q0 89 -40.5 133.5t-106.5 44.5t-107 -45t-41 -133z" />
    <glyph glyph-name="g.dnom.ss01" horiz-adv-x="776" 
d="M125 -203v131h387v168q-34 -40 -85.5 -59t-104.5 -19q-124 0 -204.5 85.5t-80.5 211.5q0 127 80.5 212t204.5 85q127 0 196 -86v74h182v-711q0 -40 -27.5 -66t-70.5 -26h-477zM227 315q0 -75 40.5 -118t109.5 -43t107 43.5t38 117.5q0 75 -38 118.5t-107 43.5
q-70 0 -110 -45t-40 -117z" />
    <glyph glyph-name="h.dnom.ss01" horiz-adv-x="731" 
d="M76 0v803h186v-266q35 39 75.5 57t100.5 18q98 0 164 -64.5t66 -170.5v-377h-187v375q0 102 -110 102q-109 0 -109 -102v-375h-186z" />
    <glyph glyph-name="m.dnom.ss01" horiz-adv-x="1128" 
d="M76 0v600h172v-70h10q35 42 77 62t103 20q58 0 109 -24.5t82 -73.5q61 98 202 98q104 0 169 -60.5t65 -172.5v-379h-186v377q0 100 -107 100q-108 0 -108 -102v-375h-187v375q0 102 -106 102q-109 0 -109 -102v-375h-186z" />
    <glyph glyph-name="n.dnom.ss01" horiz-adv-x="733" 
d="M258 530q35 42 77 62t103 20q100 0 165 -59.5t65 -169.5v-383h-187v377q0 100 -110 100q-109 0 -109 -102v-375h-186v600h176v-70h6z" />
    <glyph glyph-name="p.dnom.ss01" horiz-adv-x="776" 
d="M76 -203v803h180v-76q34 43 86.5 65.5t110.5 22.5q123 0 204.5 -87t81.5 -226q0 -136 -82 -223.5t-204 -87.5q-54 0 -105.5 20.5t-85.5 59.5v-271h-186zM254 299q0 -88 39.5 -133t105.5 -45q67 0 107.5 45t40.5 133q0 89 -40 133.5t-108 44.5q-66 0 -105.5 -44.5
t-39.5 -133.5z" />
    <glyph glyph-name="q.dnom.ss01" horiz-adv-x="776" 
d="M514 -203v271q-68 -80 -190 -80q-124 0 -205.5 86t-81.5 225q0 137 82 225t205 88q59 0 112 -23t86 -67v78h180v-803h-188zM229 299q0 -87 41 -132.5t107 -45.5t106.5 45.5t40.5 132.5q0 89 -40.5 133.5t-106.5 44.5t-107 -45t-41 -133z" />
    <glyph glyph-name="r.dnom.ss01" horiz-adv-x="456" 
d="M258 530q26 40 58.5 55t93.5 15h28v-151h-73q-52 0 -77.5 -21t-25.5 -72v-356h-186v600h176v-70h6z" />
    <glyph glyph-name="u.dnom.ss01" horiz-adv-x="729" 
d="M473 70q-35 -41 -76 -61.5t-104 -20.5q-100 0 -163.5 59t-63.5 170v383h188v-377q0 -102 104 -102q109 0 109 102v377h186v-600h-174v70h-6z" />
    <glyph glyph-name="a.numr.ss01" horiz-adv-x="690" 
d="M252 639q-97 0 -157 50.5t-60 135.5q0 91 60.5 131t187.5 50l168 12v35q0 48 -26 69t-79 21q-50 0 -75 -20t-29 -64h-176q1 102 79.5 153.5t206.5 51.5q129 0 202 -55t73 -169v-389h-166l-10 68q-72 -80 -199 -80zM219 827q0 -71 94 -71q60 0 99 30.5t39 77.5v47
l-127 -14q-55 -6 -80 -22t-25 -48z" />
    <glyph glyph-name="b.numr.ss01" horiz-adv-x="776" 
d="M455 639q-129 0 -199 88v-76h-180v803h186v-270q71 80 193 80q121 0 202.5 -88.5t81.5 -225.5q0 -138 -81.5 -224.5t-202.5 -86.5zM254 950q0 -88 39.5 -133t105.5 -45q67 0 107.5 45t40.5 133q0 89 -40 133.5t-108 44.5q-66 0 -105.5 -44.5t-39.5 -133.5z" />
    <glyph glyph-name="d.numr.ss01" horiz-adv-x="776" 
d="M324 639q-123 0 -205 86.5t-82 224.5q0 137 82 225.5t205 88.5q122 0 190 -80v270h188v-803h-180v78q-33 -44 -86 -67t-112 -23zM229 950q0 -88 41 -133t107 -45q65 0 106 45t41 133q0 89 -40.5 133.5t-106.5 44.5t-107 -45t-41 -133z" />
    <glyph glyph-name="g.numr.ss01" horiz-adv-x="776" 
d="M125 449v131h387v168q-34 -40 -85.5 -59t-104.5 -19q-124 0 -204.5 85.5t-80.5 211.5q0 127 80.5 212t204.5 85q127 0 196 -86v73h182v-710q0 -40 -27.5 -66t-70.5 -26h-477zM227 967q0 -75 40.5 -118.5t109.5 -43.5t107 44t38 118q0 75 -38 118t-107 43
q-71 0 -110.5 -44.5t-39.5 -116.5z" />
    <glyph glyph-name="h.numr.ss01" horiz-adv-x="731" 
d="M76 651v803h186v-266q35 39 75.5 57.5t100.5 18.5q98 0 164 -65t66 -171v-377h-187v375q0 102 -110 102q-109 0 -109 -102v-375h-186z" />
    <glyph glyph-name="m.numr.ss01" horiz-adv-x="1128" 
d="M76 651v600h172v-69h10q35 42 77 62t103 20q58 0 109 -25t82 -74q61 99 202 99q104 0 169 -61t65 -173v-379h-186v377q0 100 -107 100q-108 0 -108 -102v-375h-187v375q0 102 -106 102q-109 0 -109 -102v-375h-186z" />
    <glyph glyph-name="n.numr.ss01" horiz-adv-x="733" 
d="M258 1182q35 42 77 62t103 20q100 0 165 -60t65 -170v-383h-187v377q0 100 -110 100q-109 0 -109 -102v-375h-186v600h176v-69h6z" />
    <glyph glyph-name="p.numr.ss01" horiz-adv-x="776" 
d="M76 449v802h180v-75q34 43 86.5 65.5t110.5 22.5q123 0 204.5 -87.5t81.5 -226.5q0 -136 -82 -223.5t-204 -87.5q-54 0 -105.5 20.5t-85.5 59.5v-270h-186zM254 950q0 -88 39.5 -133t105.5 -45q67 0 107.5 45t40.5 133q0 89 -40 133.5t-108 44.5q-66 0 -105.5 -44.5
t-39.5 -133.5z" />
    <glyph glyph-name="q.numr.ss01" horiz-adv-x="776" 
d="M514 449v270q-68 -80 -190 -80q-124 0 -205.5 86t-81.5 225q0 137 82 225.5t205 88.5q59 0 112 -23t86 -67v77h180v-802h-188zM229 950q0 -87 41 -132.5t107 -45.5t106.5 45.5t40.5 132.5q0 89 -40.5 133.5t-106.5 44.5t-107 -45t-41 -133z" />
    <glyph glyph-name="r.numr.ss01" horiz-adv-x="456" 
d="M258 1182q26 40 58.5 54.5t93.5 14.5h28v-151h-73q-52 0 -77.5 -21t-25.5 -71v-357h-186v600h176v-69h6z" />
    <glyph glyph-name="u.numr.ss01" horiz-adv-x="729" 
d="M473 721q-35 -41 -76 -61.5t-104 -20.5q-100 0 -163.5 59t-63.5 170v383h188v-377q0 -102 104 -102q109 0 109 102v377h186v-600h-174v70h-6z" />
    <glyph glyph-name="a.dnom.ss01.ss02" horiz-adv-x="708" 
d="M248 -12q-94 0 -153.5 50.5t-59.5 135.5q0 91 58.5 131t185.5 49l165 13v34q0 91 -102 91q-91 0 -100 -84h-176q0 99 78 151.5t202 52.5q127 0 198.5 -54.5t71.5 -168.5v-250h68v-139h-172q-27 0 -43 15t-16 40v21h-9q-68 -88 -196 -88zM219 176q0 -35 24.5 -53.5
t67.5 -18.5q57 0 95 31t38 78v47l-122 -14q-55 -6 -79 -22t-24 -48z" />
    <glyph glyph-name="a.numr.ss01.ss02" horiz-adv-x="708" 
d="M248 639q-94 0 -153.5 50.5t-59.5 135.5q0 91 59 131.5t185 49.5l165 12v35q0 90 -102 90q-91 0 -100 -84h-176q0 99 78 152t202 53q127 0 198.5 -55t71.5 -169v-249h68v-140h-172q-27 0 -43 15.5t-16 40.5v20h-9q-68 -88 -196 -88zM219 827q0 -35 24.5 -53t67.5 -18
q57 0 95 30.5t38 77.5v47l-122 -14q-55 -6 -79 -22t-24 -48z" />
    <glyph glyph-name="i.loclTRK" horiz-adv-x="512" 
d="M125 0v1085h262v-1085h-262zM125 1217v237h262v-237h-262z" />
    <glyph glyph-name="uni006A0301" horiz-adv-x="512" 
d="M-111 -369v207h236v1247h262v-1302q0 -68 -43 -110t-115 -42h-340zM90 1200l225 254h316l-314 -254h-227z" />
    <glyph glyph-name="r.calt" horiz-adv-x="735" 
d="M121 938q0 68 41.5 107.5t107.5 39.5h402v-213h-289v-872h-262v938z" />
    <glyph glyph-name="racute.calt" horiz-adv-x="735" 
d="M121 938q0 68 41.5 107.5t107.5 39.5h402v-213h-289v-872h-262v938zM233 1200l226 254h315l-313 -254h-228z" />
    <glyph glyph-name="rcaron.calt" horiz-adv-x="735" 
d="M121 938q0 68 41.5 107.5t107.5 39.5h402v-213h-289v-872h-262v938zM49 1454h227l107 -125h29l106 125h230l-197 -254h-303z" />
    <glyph glyph-name="uni0157.calt" horiz-adv-x="735" 
d="M121 938q0 68 41.5 107.5t107.5 39.5h402v-213h-289v-872h-262v938zM74 -430l49 336h256l-121 -336h-184z" />
    <glyph glyph-name="a.ss01" horiz-adv-x="1163" 
d="M449 -23q-169 0 -273 89.5t-104 246.5q0 86 27 145t84.5 95t131 55t181.5 29l303 27v71q0 95 -53.5 137.5t-155.5 42.5q-101 0 -150.5 -39.5t-60.5 -127.5h-258q3 173 133.5 266.5t343.5 93.5q210 0 331.5 -96t121.5 -289v-723h-236l-18 131q-120 -154 -348 -154z
M336 322q0 -154 186 -154q118 0 197.5 59.5t79.5 157.5v104l-250 -28q-113 -13 -163 -41.5t-50 -97.5z" />
    <glyph glyph-name="aacute.ss01" horiz-adv-x="1163" 
d="M449 -23q-169 0 -273 89.5t-104 246.5q0 86 27 145t84.5 95t131 55t181.5 29l303 27v71q0 95 -53.5 137.5t-155.5 42.5q-101 0 -150.5 -39.5t-60.5 -127.5h-258q3 173 133.5 266.5t343.5 93.5q210 0 331.5 -96t121.5 -289v-723h-236l-18 131q-120 -154 -348 -154z
M336 322q0 -154 186 -154q118 0 197.5 59.5t79.5 157.5v104l-250 -28q-113 -13 -163 -41.5t-50 -97.5zM432 1200l225 254h316l-314 -254h-227z" />
    <glyph glyph-name="abreve.ss01" horiz-adv-x="1163" 
d="M449 -23q-169 0 -273 89.5t-104 246.5q0 86 27 145t84.5 95t131 55t181.5 29l303 27v71q0 95 -53.5 137.5t-155.5 42.5q-101 0 -150.5 -39.5t-60.5 -127.5h-258q3 173 133.5 266.5t343.5 93.5q210 0 331.5 -96t121.5 -289v-723h-236l-18 131q-120 -154 -348 -154z
M455 1454q21 -115 143 -115q120 0 143 115h197q-11 -127 -99.5 -197.5t-240.5 -70.5q-153 0 -241 71t-99 197h197zM336 322q0 -154 186 -154q118 0 197.5 59.5t79.5 157.5v104l-250 -28q-113 -13 -163 -41.5t-50 -97.5z" />
    <glyph glyph-name="acircumflex.ss01" horiz-adv-x="1163" 
d="M449 -23q-169 0 -273 89.5t-104 246.5q0 86 27 145t84.5 95t131 55t181.5 29l303 27v71q0 95 -53.5 137.5t-155.5 42.5q-101 0 -150.5 -39.5t-60.5 -127.5h-258q3 173 133.5 266.5t343.5 93.5q210 0 331.5 -96t121.5 -289v-723h-236l-18 131q-120 -154 -348 -154z
M248 1200l198 254h304l196 -254h-229l-107 125h-28l-107 -125h-227zM336 322q0 -154 186 -154q118 0 197.5 59.5t79.5 157.5v104l-250 -28q-113 -13 -163 -41.5t-50 -97.5z" />
    <glyph glyph-name="adieresis.ss01" horiz-adv-x="1163" 
d="M449 -23q-169 0 -273 89.5t-104 246.5q0 86 27 145t84.5 95t131 55t181.5 29l303 27v71q0 95 -53.5 137.5t-155.5 42.5q-101 0 -150.5 -39.5t-60.5 -127.5h-258q3 173 133.5 266.5t343.5 93.5q210 0 331.5 -96t121.5 -289v-723h-236l-18 131q-120 -154 -348 -154z
M276 1219v217h230v-217h-230zM336 322q0 -154 186 -154q118 0 197.5 59.5t79.5 157.5v104l-250 -28q-113 -13 -163 -41.5t-50 -97.5zM686 1219v217h229v-217h-229z" />
    <glyph glyph-name="agrave.ss01" horiz-adv-x="1163" 
d="M449 -23q-169 0 -273 89.5t-104 246.5q0 86 27 145t84.5 95t131 55t181.5 29l303 27v71q0 95 -53.5 137.5t-155.5 42.5q-101 0 -150.5 -39.5t-60.5 -127.5h-258q3 173 133.5 266.5t343.5 93.5q210 0 331.5 -96t121.5 -289v-723h-236l-18 131q-120 -154 -348 -154z
M252 1454h315l226 -254h-228zM336 322q0 -154 186 -154q118 0 197.5 59.5t79.5 157.5v104l-250 -28q-113 -13 -163 -41.5t-50 -97.5z" />
    <glyph glyph-name="amacron.ss01" horiz-adv-x="1163" 
d="M449 -23q-169 0 -273 89.5t-104 246.5q0 86 27 145t84.5 95t131 55t181.5 29l303 27v71q0 95 -53.5 137.5t-155.5 42.5q-101 0 -150.5 -39.5t-60.5 -127.5h-258q3 173 133.5 266.5t343.5 93.5q210 0 331.5 -96t121.5 -289v-723h-236l-18 131q-120 -154 -348 -154z
M272 1239v176h650v-176h-650zM336 322q0 -154 186 -154q118 0 197.5 59.5t79.5 157.5v104l-250 -28q-113 -13 -163 -41.5t-50 -97.5z" />
    <glyph glyph-name="aogonek.ss01" horiz-adv-x="1163" 
d="M449 -23q-169 0 -273 89.5t-104 246.5q0 86 27 145t84.5 95t131 55t181.5 29l303 27v71q0 95 -53.5 137.5t-155.5 42.5q-101 0 -150.5 -39.5t-60.5 -127.5h-258q3 173 133.5 266.5t343.5 93.5q210 0 331.5 -96t121.5 -289v-723q-70 -21 -109 -49t-39 -60q0 -53 94 -53h54
v-207h-119q-120 0 -185 49t-65 125q0 129 133 201l-18 125q-120 -154 -348 -154zM336 322q0 -154 186 -154q118 0 197.5 59.5t79.5 157.5v104l-250 -28q-113 -13 -163 -41.5t-50 -97.5z" />
    <glyph glyph-name="aring.ss01" horiz-adv-x="1163" 
d="M449 -23q-169 0 -273 89.5t-104 246.5q0 86 27 145t84.5 95t131 55t181.5 29l303 27v71q0 95 -53.5 137.5t-155.5 42.5q-101 0 -150.5 -39.5t-60.5 -127.5h-258q3 173 133.5 266.5t343.5 93.5q210 0 331.5 -96t121.5 -289v-723h-236l-18 131q-120 -154 -348 -154z
M336 322q0 -154 186 -154q118 0 197.5 59.5t79.5 157.5v104l-250 -28q-113 -13 -163 -41.5t-50 -97.5zM383 1382q0 88 60.5 146.5t152.5 58.5q93 0 153 -58.5t60 -146.5q0 -91 -60 -147.5t-153 -56.5q-92 0 -152.5 56.5t-60.5 147.5zM506 1382q0 -42 26 -67t64 -25t64 25
t26 67q0 37 -26 61.5t-64 24.5q-39 0 -64.5 -24t-25.5 -62z" />
    <glyph glyph-name="aringacute.ss01" horiz-adv-x="1163" 
d="M449 -23q-169 0 -273 89.5t-104 246.5q0 86 27 145t84.5 95t131 55t181.5 29l303 27v71q0 95 -53.5 137.5t-155.5 42.5q-101 0 -150.5 -39.5t-60.5 -127.5h-258q3 173 133.5 266.5t343.5 93.5q210 0 331.5 -96t121.5 -289v-723h-236l-18 131q-120 -154 -348 -154z
M336 322q0 -154 186 -154q118 0 197.5 59.5t79.5 157.5v104l-250 -28q-113 -13 -163 -41.5t-50 -97.5zM383 1356q0 88 60.5 146.5t152.5 58.5q93 0 153 -58.5t60 -146.5q0 -91 -60 -148t-153 -57q-92 0 -152.5 57t-60.5 148zM471 1604l225 254h316l-314 -254h-227zM506 1356
q0 -42 26 -67t64 -25t64 25t26 67q0 37 -26 61.5t-64 24.5q-39 0 -64.5 -24t-25.5 -62z" />
    <glyph glyph-name="atilde.ss01" horiz-adv-x="1163" 
d="M449 -23q-169 0 -273 89.5t-104 246.5q0 86 27 145t84.5 95t131 55t181.5 29l303 27v71q0 95 -53.5 137.5t-155.5 42.5q-101 0 -150.5 -39.5t-60.5 -127.5h-258q3 173 133.5 266.5t343.5 93.5q210 0 331.5 -96t121.5 -289v-723h-236l-18 131q-120 -154 -348 -154z
M221 1196q3 112 67 189t161 77q45 0 89.5 -17t73 -38t60 -38t53.5 -17q73 0 76 100h184q-3 -111 -67 -187.5t-160 -76.5q-57 0 -111.5 27.5t-96 55t-67.5 27.5q-40 0 -57.5 -25.5t-19.5 -76.5h-185zM336 322q0 -154 186 -154q118 0 197.5 59.5t79.5 157.5v104l-250 -28
q-113 -13 -163 -41.5t-50 -97.5z" />
    <glyph glyph-name="ae.ss01" horiz-adv-x="1945" 
d="M469 -23q-184 0 -290.5 88.5t-106.5 247.5q0 86 27 145t83.5 95t129.5 55t180 29l301 27v71q0 94 -52.5 135t-154.5 41q-101 0 -150.5 -39t-60.5 -124h-256q3 115 64.5 197.5t166 122.5t242.5 40q252 0 364 -139q148 139 371 139q122 0 226 -44t178 -124t111.5 -200
t27.5 -265h-828q18 -132 94 -214.5t191 -82.5q86 0 148 44.5t94 121.5h272q-47 -169 -186 -268t-328 -99q-128 0 -233.5 45.5t-178.5 129.5q-163 -175 -446 -175zM332 324q0 -154 186 -154q117 0 196 60t79 157v105l-248 -31q-112 -13 -162.5 -42t-50.5 -95zM1051 655h557
q-24 117 -99 187.5t-182 70.5q-108 0 -180 -71.5t-96 -186.5z" />
    <glyph glyph-name="aeacute.ss01" horiz-adv-x="1945" 
d="M469 -23q-184 0 -290.5 88.5t-106.5 247.5q0 86 27 145t83.5 95t129.5 55t180 29l301 27v71q0 94 -52.5 135t-154.5 41q-101 0 -150.5 -39t-60.5 -124h-256q3 115 64.5 197.5t166 122.5t242.5 40q252 0 364 -139q148 139 371 139q122 0 226 -44t178 -124t111.5 -200
t27.5 -265h-828q18 -132 94 -214.5t191 -82.5q86 0 148 44.5t94 121.5h272q-47 -169 -186 -268t-328 -99q-128 0 -233.5 45.5t-178.5 129.5q-163 -175 -446 -175zM332 324q0 -154 186 -154q117 0 196 60t79 157v105l-248 -31q-112 -13 -162.5 -42t-50.5 -95zM795 1200
l225 254h315l-313 -254h-227zM1051 655h557q-24 117 -99 187.5t-182 70.5q-108 0 -180 -71.5t-96 -186.5z" />
    <glyph glyph-name="b.ss01" horiz-adv-x="1298" 
d="M731 -23q-106 0 -199.5 42t-150.5 120v-139h-256v1454h262v-500q58 74 149.5 114t194.5 40q98 0 186.5 -39.5t156 -111t107.5 -179t40 -235.5t-41 -236.5t-109 -179.5t-156 -110.5t-184 -39.5zM373 543q0 -175 83 -268t206 -93q124 0 207 93t83 268t-83 267.5t-207 92.5
q-123 0 -206 -92.5t-83 -267.5z" />
    <glyph glyph-name="d.ss01" horiz-adv-x="1298" 
d="M571 -23q-98 0 -187.5 39.5t-157.5 111t-108 179.5t-40 236t40 235.5t107.5 179t157 111t188.5 39.5q100 0 191.5 -40t148.5 -114v500h263v-1454h-256v139q-57 -78 -150 -120t-197 -42zM346 543q0 -175 83.5 -268t207.5 -93q123 0 206 93t83 268t-83 267.5t-206 92.5
q-124 0 -207.5 -92.5t-83.5 -267.5z" />
    <glyph glyph-name="dcaron.ss01" horiz-adv-x="1298" 
d="M571 -23q-98 0 -187.5 39.5t-157.5 111t-108 179.5t-40 236t40 235.5t107.5 179t157 111t188.5 39.5q100 0 191.5 -40t148.5 -114v500h263v-1454h-256v139q-57 -78 -150 -120t-197 -42zM346 543q0 -175 83.5 -268t207.5 -93q123 0 206 93t83 268t-83 267.5t-206 92.5
q-124 0 -207.5 -92.5t-83.5 -267.5zM1253 1139l29 315h256l-106 -315h-179z" />
    <glyph glyph-name="dcroat.ss01" horiz-adv-x="1298" 
d="M571 -23q-98 0 -187.5 39.5t-157.5 111t-108 179.5t-40 236t40 235.5t107.5 179t157 111t188.5 39.5q100 0 191.5 -40t148.5 -114v213h-223v164h223v123h263v-123h153v-164h-153v-1167h-256v139q-57 -78 -150 -120t-197 -42zM346 543q0 -175 83.5 -268t207.5 -93
q123 0 206 93t83 268t-83 267.5t-206 92.5q-124 0 -207.5 -92.5t-83.5 -267.5z" />
    <glyph glyph-name="g.ss01" horiz-adv-x="1296" 
d="M225 -369v207h686v348q-61 -77 -150.5 -114t-187.5 -37q-214 0 -354.5 153t-140.5 383q0 229 141 383t354 154q101 0 192.5 -39.5t152.5 -122.5v139h256v-1302q0 -68 -43 -110t-115 -42h-791zM346 571q0 -149 80.5 -241t214.5 -92t209.5 93.5t75.5 239.5q0 148 -76.5 240
t-208.5 92q-136 0 -215.5 -94t-79.5 -238z" />
    <glyph glyph-name="gbreve.ss01" horiz-adv-x="1296" 
d="M225 -369v207h686v348q-61 -77 -150.5 -114t-187.5 -37q-214 0 -354.5 153t-140.5 383q0 229 141 383t354 154q101 0 192.5 -39.5t152.5 -122.5v139h256v-1302q0 -68 -43 -110t-115 -42h-791zM498 1454q21 -115 143 -115q120 0 143 115h197q-11 -127 -99.5 -197.5
t-240.5 -70.5q-153 0 -241 71t-99 197h197zM346 571q0 -149 80.5 -241t214.5 -92t209.5 93.5t75.5 239.5q0 148 -76.5 240t-208.5 92q-136 0 -215.5 -94t-79.5 -238z" />
    <glyph glyph-name="gcircumflex.ss01" horiz-adv-x="1296" 
d="M225 -369v207h686v348q-61 -77 -150.5 -114t-187.5 -37q-214 0 -354.5 153t-140.5 383q0 229 141 383t354 154q101 0 192.5 -39.5t152.5 -122.5v139h256v-1302q0 -68 -43 -110t-115 -42h-791zM293 1200l199 254h303l196 -254h-229l-107 125h-28l-107 -125h-227zM346 571
q0 -149 80.5 -241t214.5 -92t209.5 93.5t75.5 239.5q0 148 -76.5 240t-208.5 92q-136 0 -215.5 -94t-79.5 -238z" />
    <glyph glyph-name="uni0123.ss01" horiz-adv-x="1296" 
d="M225 -369v207h686v348q-61 -77 -150.5 -114t-187.5 -37q-214 0 -354.5 153t-140.5 383q0 229 141 383t354 154q101 0 192.5 -39.5t152.5 -122.5v139h256v-1302q0 -68 -43 -110t-115 -42h-791zM346 571q0 -149 80.5 -241t214.5 -92t209.5 93.5t75.5 239.5q0 148 -76.5 240
t-208.5 92q-136 0 -215.5 -94t-79.5 -238zM475 1200l252 254h227l-163 -254h-316z" />
    <glyph glyph-name="gdotaccent.ss01" horiz-adv-x="1296" 
d="M225 -369v207h686v348q-61 -77 -150.5 -114t-187.5 -37q-214 0 -354.5 153t-140.5 383q0 229 141 383t354 154q101 0 192.5 -39.5t152.5 -122.5v139h256v-1302q0 -68 -43 -110t-115 -42h-791zM346 571q0 -149 80.5 -241t214.5 -92t209.5 93.5t75.5 239.5q0 148 -76.5 240
t-208.5 92q-136 0 -215.5 -94t-79.5 -238zM508 1217v237h262v-237h-262z" />
    <glyph glyph-name="h.ss01" horiz-adv-x="1200" 
d="M125 0v1454h262v-493q58 76 130.5 111.5t178.5 35.5q173 0 283.5 -110t110.5 -312v-686h-263v670q0 118 -57 175.5t-162 57.5q-106 0 -163.5 -57.5t-57.5 -175.5v-670h-262z" />
    <glyph glyph-name="hbar.ss01" horiz-adv-x="1200" 
d="M125 0v1167h-154v164h154v123h262v-123h223v-164h-223v-206q58 76 130.5 111.5t178.5 35.5q173 0 283.5 -110t110.5 -312v-686h-263v670q0 118 -57 175.5t-162 57.5q-106 0 -163.5 -57.5t-57.5 -175.5v-670h-262z" />
    <glyph glyph-name="hcircumflex.ss01" horiz-adv-x="1200" 
d="M125 0v1454h262v-493q58 76 130.5 111.5t178.5 35.5q173 0 283.5 -110t110.5 -312v-686h-263v670q0 118 -57 175.5t-162 57.5q-106 0 -163.5 -57.5t-57.5 -175.5v-670h-262zM-92 1561l198 247h304l196 -247h-229l-107 114h-28l-107 -114h-227z" />
    <glyph glyph-name="m.ss01" horiz-adv-x="1892" 
d="M125 0v1085h242v-124h18q115 147 307 147q102 0 187.5 -45.5t138.5 -132.5q102 178 358 178q178 0 292 -115.5t114 -318.5v-674h-262v670q0 233 -217 233q-220 0 -220 -233v-670h-262v670q0 233 -217 233t-217 -233v-670h-262z" />
    <glyph glyph-name="n.ss01" horiz-adv-x="1200" 
d="M125 0v1085h250v-127h10q58 77 132 113.5t179 36.5q173 0 283.5 -110t110.5 -312v-686h-263v670q0 118 -57 175.5t-162 57.5q-106 0 -163.5 -57.5t-57.5 -175.5v-670h-262z" />
    <glyph glyph-name="nacute.ss01" horiz-adv-x="1200" 
d="M125 0v1085h250v-127h10q58 77 132 113.5t179 36.5q173 0 283.5 -110t110.5 -312v-686h-263v670q0 118 -57 175.5t-162 57.5q-106 0 -163.5 -57.5t-57.5 -175.5v-670h-262zM446 1200l226 254h315l-313 -254h-228z" />
    <glyph glyph-name="ncaron.ss01" horiz-adv-x="1200" 
d="M125 0v1085h250v-127h10q58 77 132 113.5t179 36.5q173 0 283.5 -110t110.5 -312v-686h-263v670q0 118 -57 175.5t-162 57.5q-106 0 -163.5 -57.5t-57.5 -175.5v-670h-262zM262 1454h227l107 -125h29l106 125h230l-197 -254h-303z" />
    <glyph glyph-name="uni0146.ss01" horiz-adv-x="1200" 
d="M125 0v1085h250v-127h10q58 77 132 113.5t179 36.5q173 0 283.5 -110t110.5 -312v-686h-263v670q0 118 -57 175.5t-162 57.5q-106 0 -163.5 -57.5t-57.5 -175.5v-670h-262zM428 -430l49 336h256l-121 -336h-184z" />
    <glyph glyph-name="eng.ss01" horiz-adv-x="1200" 
d="M592 -369v207h235v828q0 117 -57.5 175t-161.5 58q-106 0 -163.5 -58t-57.5 -175v-666h-262v1085h250v-124h12q57 75 130.5 111t178.5 36q173 0 283.5 -110t110.5 -312v-903q0 -68 -42.5 -110t-113.5 -42h-342z" />
    <glyph glyph-name="ntilde.ss01" horiz-adv-x="1200" 
d="M125 0v1085h250v-127h10q58 77 132 113.5t179 36.5q173 0 283.5 -110t110.5 -312v-686h-263v670q0 118 -57 175.5t-162 57.5q-106 0 -163.5 -57.5t-57.5 -175.5v-670h-262zM233 1196q3 112 67 189t161 77q45 0 89.5 -17t73 -38t60 -38t53.5 -17q73 0 76 100h184
q-3 -111 -67 -187.5t-160 -76.5q-45 0 -89.5 17t-73 38t-59.5 38t-52 17q-40 0 -58 -25.5t-20 -76.5h-185z" />
    <glyph glyph-name="p.ss01" horiz-adv-x="1298" 
d="M125 -369v1454h256v-139q57 78 149.5 120t196.5 42q98 0 187.5 -39.5t157.5 -110.5t108.5 -179t40.5 -236t-40.5 -235.5t-109 -179t-157.5 -111.5t-187 -40q-100 0 -191.5 40t-148.5 114v-500h-262zM373 543q0 -175 83 -268t206 -93q124 0 207 93t83 268t-83 267.5
t-207 92.5q-123 0 -206 -92.5t-83 -267.5z" />
    <glyph glyph-name="thorn.ss01" horiz-adv-x="1298" 
d="M125 -369v1823h262v-500q57 74 148.5 114t191.5 40q98 0 187.5 -39.5t157.5 -110.5t108.5 -179t40.5 -236t-40.5 -235.5t-109 -179t-157.5 -111.5t-187 -40q-100 0 -191.5 40t-148.5 114v-500h-262zM373 543q0 -170 83.5 -263.5t205.5 -93.5q123 0 206.5 93.5t83.5 263.5
q0 169 -83.5 262.5t-206.5 93.5q-121 0 -205 -93.5t-84 -262.5z" />
    <glyph glyph-name="q.ss01" horiz-adv-x="1298" 
d="M911 -369v500q-57 -74 -148.5 -114t-191.5 -40q-98 0 -187.5 39.5t-157.5 111t-108 179.5t-40 236t40 235.5t107.5 179t157 111t188.5 39.5q104 0 197 -42t150 -120v139h256v-1454h-263zM346 543q0 -175 83.5 -268t207.5 -93q123 0 206 93t83 268t-83 267.5t-206 92.5
q-124 0 -207.5 -92.5t-83.5 -267.5z" />
    <glyph glyph-name="r.ss01" horiz-adv-x="757" 
d="M125 0v1085h250v-127h10q46 75 97.5 101t152.5 26h57v-227h-100q-106 0 -155.5 -45t-49.5 -160v-653h-262z" />
    <glyph glyph-name="racute.ss01" horiz-adv-x="757" 
d="M125 0v1085h250v-127h10q46 75 97.5 101t152.5 26h57v-227h-100q-106 0 -155.5 -45t-49.5 -160v-653h-262zM233 1200l226 254h315l-313 -254h-228z" />
    <glyph glyph-name="rcaron.ss01" horiz-adv-x="757" 
d="M125 0v1085h250v-127h10q46 75 97.5 101t152.5 26h57v-227h-100q-106 0 -155.5 -45t-49.5 -160v-653h-262zM49 1454h227l107 -125h29l106 125h230l-197 -254h-303z" />
    <glyph glyph-name="uni0157.ss01" horiz-adv-x="757" 
d="M125 0v1085h250v-127h10q46 75 97.5 101t152.5 26h57v-227h-100q-106 0 -155.5 -45t-49.5 -160v-653h-262zM78 -430l49 336h256l-121 -336h-184z" />
    <glyph glyph-name="u.ss01" horiz-adv-x="1193" 
d="M502 -23q-172 0 -281.5 110t-109.5 312v686h262v-669q0 -234 217 -234t217 234v669h262v-1085h-250v127h-10q-59 -77 -130.5 -113.5t-176.5 -36.5z" />
    <glyph glyph-name="uacute.ss01" horiz-adv-x="1193" 
d="M502 -23q-172 0 -281.5 110t-109.5 312v686h262v-669q0 -234 217 -234t217 234v669h262v-1085h-250v127h-10q-59 -77 -130.5 -113.5t-176.5 -36.5zM426 1200l225 254h316l-314 -254h-227z" />
    <glyph glyph-name="ubreve.ss01" horiz-adv-x="1193" 
d="M502 -23q-172 0 -281.5 110t-109.5 312v686h262v-669q0 -234 217 -234t217 234v669h262v-1085h-250v127h-10q-59 -77 -130.5 -113.5t-176.5 -36.5zM446 1454q21 -115 144 -115q120 0 143 115h197q-11 -127 -99.5 -197.5t-240.5 -70.5q-153 0 -241 71t-99 197h196z" />
    <glyph glyph-name="ucircumflex.ss01" horiz-adv-x="1193" 
d="M502 -23q-172 0 -281.5 110t-109.5 312v686h262v-669q0 -234 217 -234t217 234v669h262v-1085h-250v127h-10q-59 -77 -130.5 -113.5t-176.5 -36.5zM242 1200l198 254h303l197 -254h-229l-107 125h-29l-106 -125h-227z" />
    <glyph glyph-name="udieresis.ss01" horiz-adv-x="1193" 
d="M502 -23q-172 0 -281.5 110t-109.5 312v686h262v-669q0 -234 217 -234t217 234v669h262v-1085h-250v127h-10q-59 -77 -130.5 -113.5t-176.5 -36.5zM270 1219v217h230v-217h-230zM680 1219v217h229v-217h-229z" />
    <glyph glyph-name="ugrave.ss01" horiz-adv-x="1193" 
d="M502 -23q-172 0 -281.5 110t-109.5 312v686h262v-669q0 -234 217 -234t217 234v669h262v-1085h-250v127h-10q-59 -77 -130.5 -113.5t-176.5 -36.5zM244 1454h315l225 -254h-227z" />
    <glyph glyph-name="uhungarumlaut.ss01" horiz-adv-x="1193" 
d="M502 -23q-172 0 -281.5 110t-109.5 312v686h262v-669q0 -234 217 -234t217 234v669h262v-1085h-250v127h-10q-59 -77 -130.5 -113.5t-176.5 -36.5zM276 1200l193 254h291l-283 -254h-201zM694 1200l193 254h291l-283 -254h-201z" />
    <glyph glyph-name="umacron.ss01" horiz-adv-x="1193" 
d="M502 -23q-172 0 -281.5 110t-109.5 312v686h262v-669q0 -234 217 -234t217 234v669h262v-1085h-250v127h-10q-59 -77 -130.5 -113.5t-176.5 -36.5zM264 1239v176h649v-176h-649z" />
    <glyph glyph-name="uogonek.ss01" horiz-adv-x="1193" 
d="M502 -23q-172 0 -281.5 110t-109.5 312v686h262v-669q0 -234 217 -234t217 234v669h262v-1085q-70 -20 -108.5 -48.5t-38.5 -60.5q0 -53 94 -53h53v-207h-119q-120 0 -185 49t-65 125q0 123 121 195h-2v127h-10q-59 -77 -130.5 -113.5t-176.5 -36.5z" />
    <glyph glyph-name="uring.ss01" horiz-adv-x="1193" 
d="M502 -23q-172 0 -281.5 110t-109.5 312v686h262v-669q0 -234 217 -234t217 234v669h262v-1085h-250v127h-10q-59 -77 -130.5 -113.5t-176.5 -36.5zM377 1382q0 88 60.5 146.5t152.5 58.5q93 0 153 -58.5t60 -146.5q0 -91 -60 -147.5t-153 -56.5q-92 0 -152.5 56.5
t-60.5 147.5zM500 1382q0 -42 26 -67t64 -25t64 25t26 67q0 37 -26 61.5t-64 24.5q-39 0 -64.5 -24t-25.5 -62z" />
    <glyph glyph-name="utilde.ss01" horiz-adv-x="1193" 
d="M502 -23q-172 0 -281.5 110t-109.5 312v686h262v-669q0 -234 217 -234t217 234v669h262v-1085h-250v127h-10q-59 -77 -130.5 -113.5t-176.5 -36.5zM213 1196q3 112 66.5 189t160.5 77q57 0 111.5 -27.5t96.5 -55t69 -27.5q73 0 76 100h184q-3 -111 -67 -187.5t-160 -76.5
q-57 0 -111.5 27.5t-96 55t-67.5 27.5q-40 0 -58 -25.5t-20 -76.5h-184z" />
    <glyph glyph-name="a.ss01.ss02" horiz-adv-x="1224" 
d="M442 -23q-165 0 -267.5 90t-102.5 248q0 85 26 144t81.5 95t128 54.5t179.5 28.5l297 27v71q0 180 -202 180q-95 0 -144 -39.5t-59 -127.5h-258q0 113 62 196t166.5 123.5t238.5 40.5q204 0 325 -96.5t121 -288.5v-510h129v-213h-248q-51 0 -82.5 32t-31.5 83v39h-8
q-60 -91 -152.5 -134t-198.5 -43zM336 322q0 -154 180 -154q115 0 191.5 59.5t76.5 157.5v104l-241 -28q-111 -13 -159 -42t-48 -97z" />
    <glyph glyph-name="aacute.ss01.ss02" horiz-adv-x="1224" 
d="M442 -23q-165 0 -267.5 90t-102.5 248q0 85 26 144t81.5 95t128 54.5t179.5 28.5l297 27v71q0 180 -202 180q-95 0 -144 -39.5t-59 -127.5h-258q0 113 62 196t166.5 123.5t238.5 40.5q204 0 325 -96.5t121 -288.5v-510h129v-213h-248q-51 0 -82.5 32t-31.5 83v39h-8
q-60 -91 -152.5 -134t-198.5 -43zM336 322q0 -154 180 -154q115 0 191.5 59.5t76.5 157.5v104l-241 -28q-111 -13 -159 -42t-48 -97zM422 1200l225 254h316l-314 -254h-227z" />
    <glyph glyph-name="abreve.ss01.ss02" horiz-adv-x="1224" 
d="M442 -23q-165 0 -267.5 90t-102.5 248q0 85 26 144t81.5 95t128 54.5t179.5 28.5l297 27v71q0 180 -202 180q-95 0 -144 -39.5t-59 -127.5h-258q0 113 62 196t166.5 123.5t238.5 40.5q204 0 325 -96.5t121 -288.5v-510h129v-213h-248q-51 0 -82.5 32t-31.5 83v39h-8
q-60 -91 -152.5 -134t-198.5 -43zM444 1454q21 -115 144 -115q120 0 143 115h197q-11 -127 -99.5 -197.5t-240.5 -70.5q-153 0 -241 71t-99 197h196zM336 322q0 -154 180 -154q115 0 191.5 59.5t76.5 157.5v104l-241 -28q-111 -13 -159 -42t-48 -97z" />
    <glyph glyph-name="acircumflex.ss01.ss02" horiz-adv-x="1224" 
d="M442 -23q-165 0 -267.5 90t-102.5 248q0 85 26 144t81.5 95t128 54.5t179.5 28.5l297 27v71q0 180 -202 180q-95 0 -144 -39.5t-59 -127.5h-258q0 113 62 196t166.5 123.5t238.5 40.5q204 0 325 -96.5t121 -288.5v-510h129v-213h-248q-51 0 -82.5 32t-31.5 83v39h-8
q-60 -91 -152.5 -134t-198.5 -43zM238 1200l198 254h303l197 -254h-229l-107 125h-29l-106 -125h-227zM336 322q0 -154 180 -154q115 0 191.5 59.5t76.5 157.5v104l-241 -28q-111 -13 -159 -42t-48 -97z" />
    <glyph glyph-name="adieresis.ss01.ss02" horiz-adv-x="1224" 
d="M442 -23q-165 0 -267.5 90t-102.5 248q0 85 26 144t81.5 95t128 54.5t179.5 28.5l297 27v71q0 180 -202 180q-95 0 -144 -39.5t-59 -127.5h-258q0 113 62 196t166.5 123.5t238.5 40.5q204 0 325 -96.5t121 -288.5v-510h129v-213h-248q-51 0 -82.5 32t-31.5 83v39h-8
q-60 -91 -152.5 -134t-198.5 -43zM266 1219v217h230v-217h-230zM336 322q0 -154 180 -154q115 0 191.5 59.5t76.5 157.5v104l-241 -28q-111 -13 -159 -42t-48 -97zM676 1219v217h229v-217h-229z" />
    <glyph glyph-name="agrave.ss01.ss02" horiz-adv-x="1224" 
d="M442 -23q-165 0 -267.5 90t-102.5 248q0 85 26 144t81.5 95t128 54.5t179.5 28.5l297 27v71q0 180 -202 180q-95 0 -144 -39.5t-59 -127.5h-258q0 113 62 196t166.5 123.5t238.5 40.5q204 0 325 -96.5t121 -288.5v-510h129v-213h-248q-51 0 -82.5 32t-31.5 83v39h-8
q-60 -91 -152.5 -134t-198.5 -43zM242 1454h315l225 -254h-227zM336 322q0 -154 180 -154q115 0 191.5 59.5t76.5 157.5v104l-241 -28q-111 -13 -159 -42t-48 -97z" />
    <glyph glyph-name="amacron.ss01.ss02" horiz-adv-x="1224" 
d="M442 -23q-165 0 -267.5 90t-102.5 248q0 85 26 144t81.5 95t128 54.5t179.5 28.5l297 27v71q0 180 -202 180q-95 0 -144 -39.5t-59 -127.5h-258q0 113 62 196t166.5 123.5t238.5 40.5q204 0 325 -96.5t121 -288.5v-510h129v-213h-248q-51 0 -82.5 32t-31.5 83v39h-8
q-60 -91 -152.5 -134t-198.5 -43zM262 1239v176h649v-176h-649zM336 322q0 -154 180 -154q115 0 191.5 59.5t76.5 157.5v104l-241 -28q-111 -13 -159 -42t-48 -97z" />
    <glyph glyph-name="aogonek.ss01.ss02" horiz-adv-x="1224" 
d="M442 -23q-165 0 -267.5 90t-102.5 248q0 85 26 144t81.5 95t128 54.5t179.5 28.5l297 27v71q0 180 -202 180q-95 0 -144 -39.5t-59 -127.5h-258q0 113 62 196t166.5 123.5t238.5 40.5q204 0 325 -96.5t121 -288.5v-510h129v-213h-94q-70 -20 -108.5 -48.5t-38.5 -60.5
q0 -53 94 -53h53v-207h-119q-120 0 -185 49t-65 125q0 140 152 211q-51 33 -51 99v39h-8q-60 -91 -152.5 -134t-198.5 -43zM336 322q0 -154 180 -154q115 0 191.5 59.5t76.5 157.5v104l-241 -28q-111 -13 -159 -42t-48 -97z" />
    <glyph glyph-name="aring.ss01.ss02" horiz-adv-x="1224" 
d="M442 -23q-165 0 -267.5 90t-102.5 248q0 85 26 144t81.5 95t128 54.5t179.5 28.5l297 27v71q0 180 -202 180q-95 0 -144 -39.5t-59 -127.5h-258q0 113 62 196t166.5 123.5t238.5 40.5q204 0 325 -96.5t121 -288.5v-510h129v-213h-248q-51 0 -82.5 32t-31.5 83v39h-8
q-60 -91 -152.5 -134t-198.5 -43zM336 322q0 -154 180 -154q115 0 191.5 59.5t76.5 157.5v104l-241 -28q-111 -13 -159 -42t-48 -97zM373 1382q0 88 60.5 146.5t152.5 58.5q93 0 153 -58.5t60 -146.5q0 -91 -60 -147.5t-153 -56.5q-92 0 -152.5 56.5t-60.5 147.5zM496 1382
q0 -42 26 -67t64 -25t64 25t26 67q0 37 -26 61.5t-64 24.5q-39 0 -64.5 -24t-25.5 -62z" />
    <glyph glyph-name="aringacute.ss01.ss02" horiz-adv-x="1224" 
d="M442 -23q-165 0 -267.5 90t-102.5 248q0 85 26 144t81.5 95t128 54.5t179.5 28.5l297 27v71q0 180 -202 180q-95 0 -144 -39.5t-59 -127.5h-258q0 113 62 196t166.5 123.5t238.5 40.5q204 0 325 -96.5t121 -288.5v-510h129v-213h-248q-51 0 -82.5 32t-31.5 83v39h-8
q-60 -91 -152.5 -134t-198.5 -43zM336 322q0 -154 180 -154q115 0 191.5 59.5t76.5 157.5v104l-241 -28q-111 -13 -159 -42t-48 -97zM373 1356q0 88 60.5 146.5t152.5 58.5q93 0 153 -58.5t60 -146.5q0 -91 -60 -148t-153 -57q-92 0 -152.5 57t-60.5 148zM461 1604l225 254
h315l-313 -254h-227zM496 1356q0 -42 26 -67t64 -25t64 25t26 67q0 37 -26 61.5t-64 24.5q-39 0 -64.5 -24t-25.5 -62z" />
    <glyph glyph-name="atilde.ss01.ss02" horiz-adv-x="1224" 
d="M442 -23q-165 0 -267.5 90t-102.5 248q0 85 26 144t81.5 95t128 54.5t179.5 28.5l297 27v71q0 180 -202 180q-95 0 -144 -39.5t-59 -127.5h-258q0 113 62 196t166.5 123.5t238.5 40.5q204 0 325 -96.5t121 -288.5v-510h129v-213h-248q-51 0 -82.5 32t-31.5 83v39h-8
q-60 -91 -152.5 -134t-198.5 -43zM211 1196q3 112 66.5 189t160.5 77q57 0 111.5 -27.5t96.5 -55t69 -27.5q73 0 76 100h184q-3 -111 -67 -187.5t-160 -76.5q-57 0 -111.5 27.5t-96 55t-67.5 27.5q-40 0 -58 -25.5t-20 -76.5h-184zM336 322q0 -154 180 -154
q115 0 191.5 59.5t76.5 157.5v104l-241 -28q-111 -13 -159 -42t-48 -97z" />
    <glyph glyph-name="a.ss01.ss03" horiz-adv-x="1298" 
d="M571 -23q-98 0 -187.5 39.5t-157.5 111t-108 179.5t-40 236t40 235.5t107.5 179t157 111t188.5 39.5q104 0 197 -42t150 -120v139h256v-1085h-256v139q-57 -78 -150 -120t-197 -42zM346 543q0 -175 83.5 -268t207.5 -93q123 0 206 93t83 268t-83 267.5t-206 92.5
q-124 0 -207.5 -92.5t-83.5 -267.5z" />
    <glyph glyph-name="aacute.ss01.ss03" horiz-adv-x="1298" 
d="M571 -23q-98 0 -187.5 39.5t-157.5 111t-108 179.5t-40 236t40 235.5t107.5 179t157 111t188.5 39.5q104 0 197 -42t150 -120v139h256v-1085h-256v139q-57 -78 -150 -120t-197 -42zM346 543q0 -175 83.5 -268t207.5 -93q123 0 206 93t83 268t-83 267.5t-206 92.5
q-124 0 -207.5 -92.5t-83.5 -267.5zM471 1200l225 254h316l-314 -254h-227z" />
    <glyph glyph-name="abreve.ss01.ss03" horiz-adv-x="1298" 
d="M571 -23q-98 0 -187.5 39.5t-157.5 111t-108 179.5t-40 236t40 235.5t107.5 179t157 111t188.5 39.5q104 0 197 -42t150 -120v139h256v-1085h-256v139q-57 -78 -150 -120t-197 -42zM494 1454q21 -115 143 -115q120 0 143 115h197q-11 -127 -99.5 -197.5t-240.5 -70.5
q-153 0 -241 71t-99 197h197zM346 543q0 -175 83.5 -268t207.5 -93q123 0 206 93t83 268t-83 267.5t-206 92.5q-124 0 -207.5 -92.5t-83.5 -267.5z" />
    <glyph glyph-name="acircumflex.ss01.ss03" horiz-adv-x="1298" 
d="M571 -23q-98 0 -187.5 39.5t-157.5 111t-108 179.5t-40 236t40 235.5t107.5 179t157 111t188.5 39.5q104 0 197 -42t150 -120v139h256v-1085h-256v139q-57 -78 -150 -120t-197 -42zM287 1200l198 254h303l197 -254h-229l-107 125h-28l-107 -125h-227zM346 543
q0 -175 83.5 -268t207.5 -93q123 0 206 93t83 268t-83 267.5t-206 92.5q-124 0 -207.5 -92.5t-83.5 -267.5z" />
    <glyph glyph-name="adieresis.ss01.ss03" horiz-adv-x="1298" 
d="M571 -23q-98 0 -187.5 39.5t-157.5 111t-108 179.5t-40 236t40 235.5t107.5 179t157 111t188.5 39.5q104 0 197 -42t150 -120v139h256v-1085h-256v139q-57 -78 -150 -120t-197 -42zM315 1219v217h230v-217h-230zM346 543q0 -175 83.5 -268t207.5 -93q123 0 206 93t83 268
t-83 267.5t-206 92.5q-124 0 -207.5 -92.5t-83.5 -267.5zM725 1219v217h229v-217h-229z" />
    <glyph glyph-name="agrave.ss01.ss03" horiz-adv-x="1298" 
d="M571 -23q-98 0 -187.5 39.5t-157.5 111t-108 179.5t-40 236t40 235.5t107.5 179t157 111t188.5 39.5q104 0 197 -42t150 -120v139h256v-1085h-256v139q-57 -78 -150 -120t-197 -42zM291 1454h315l225 -254h-227zM346 543q0 -175 83.5 -268t207.5 -93q123 0 206 93t83 268
t-83 267.5t-206 92.5q-124 0 -207.5 -92.5t-83.5 -267.5z" />
    <glyph glyph-name="amacron.ss01.ss03" horiz-adv-x="1298" 
d="M571 -23q-98 0 -187.5 39.5t-157.5 111t-108 179.5t-40 236t40 235.5t107.5 179t157 111t188.5 39.5q104 0 197 -42t150 -120v139h256v-1085h-256v139q-57 -78 -150 -120t-197 -42zM311 1239v176h650v-176h-650zM346 543q0 -175 83.5 -268t207.5 -93q123 0 206 93t83 268
t-83 267.5t-206 92.5q-124 0 -207.5 -92.5t-83.5 -267.5z" />
    <glyph glyph-name="aogonek.ss01.ss03" horiz-adv-x="1298" 
d="M571 -23q-98 0 -187.5 39.5t-157.5 111t-108 179.5t-40 236t40 235.5t107.5 179t157 111t188.5 39.5q104 0 197 -42t150 -120v139h256v-1085q-70 -21 -109 -49t-39 -60q0 -53 94 -53h54v-207h-119q-120 0 -185 49t-65 125q0 123 121 195h-8v139q-57 -78 -150 -120
t-197 -42zM346 543q0 -175 83.5 -268t207.5 -93q123 0 206 93t83 268t-83 267.5t-206 92.5q-124 0 -207.5 -92.5t-83.5 -267.5z" />
    <glyph glyph-name="aring.ss01.ss03" horiz-adv-x="1298" 
d="M571 -23q-98 0 -187.5 39.5t-157.5 111t-108 179.5t-40 236t40 235.5t107.5 179t157 111t188.5 39.5q104 0 197 -42t150 -120v139h256v-1085h-256v139q-57 -78 -150 -120t-197 -42zM346 543q0 -175 83.5 -268t207.5 -93q123 0 206 93t83 268t-83 267.5t-206 92.5
q-124 0 -207.5 -92.5t-83.5 -267.5zM422 1382q0 88 60.5 146.5t152.5 58.5q93 0 153 -58.5t60 -146.5q0 -91 -60 -147.5t-153 -56.5q-92 0 -152.5 56.5t-60.5 147.5zM545 1382q0 -42 26 -67t64 -25t64 25t26 67q0 37 -26 61.5t-64 24.5q-39 0 -64.5 -24t-25.5 -62z" />
    <glyph glyph-name="aringacute.ss01.ss03" horiz-adv-x="1298" 
d="M571 -23q-98 0 -187.5 39.5t-157.5 111t-108 179.5t-40 236t40 235.5t107.5 179t157 111t188.5 39.5q104 0 197 -42t150 -120v139h256v-1085h-256v139q-57 -78 -150 -120t-197 -42zM346 543q0 -175 83.5 -268t207.5 -93q123 0 206 93t83 268t-83 267.5t-206 92.5
q-124 0 -207.5 -92.5t-83.5 -267.5zM422 1356q0 88 60.5 146.5t152.5 58.5q93 0 153 -58.5t60 -146.5q0 -91 -60 -148t-153 -57q-92 0 -152.5 57t-60.5 148zM510 1604l225 254h316l-314 -254h-227zM545 1356q0 -42 26 -67t64 -25t64 25t26 67q0 37 -26 61.5t-64 24.5
q-39 0 -64.5 -24t-25.5 -62z" />
    <glyph glyph-name="atilde.ss01.ss03" horiz-adv-x="1298" 
d="M571 -23q-98 0 -187.5 39.5t-157.5 111t-108 179.5t-40 236t40 235.5t107.5 179t157 111t188.5 39.5q104 0 197 -42t150 -120v139h256v-1085h-256v139q-57 -78 -150 -120t-197 -42zM260 1196q3 112 66.5 189t160.5 77q57 0 111.5 -27.5t96.5 -55t69 -27.5q73 0 76 100
h184q-3 -111 -67 -187.5t-160 -76.5q-57 0 -111.5 27.5t-96 55t-67.5 27.5q-40 0 -58 -25.5t-20 -76.5h-184zM346 543q0 -175 83.5 -268t207.5 -93q123 0 206 93t83 268t-83 267.5t-206 92.5q-124 0 -207.5 -92.5t-83.5 -267.5z" />
    <glyph glyph-name="f_iacute" horiz-adv-x="1257" 
d="M217 1307q0 68 41 107.5t107 39.5h366v-207h-252v-162h252v-213h-252v-872h-262v872h-156v213h156v222zM840 1200l223 254h317l-313 -254h-227zM872 0v1085h263v-1085h-263z" />
    <glyph glyph-name="f_t" horiz-adv-x="1437" 
d="M217 1307q0 68 41 107.5t107 39.5h366v-207h-252v-162h393v277h263v-277h223v-213h-223v-665h223v-207h-336q-65 0 -107.5 41.5t-42.5 105.5v725h-393v-872h-262v872h-156v213h156v222z" />
    <glyph glyph-name="r_f" horiz-adv-x="1355" 
d="M121 938q0 68 41.5 107.5t107.5 39.5h508v222q0 68 42 107.5t108 39.5h366v-207h-254v-162h254v-213h-254v-872h-262v872h-395v-872h-262v938z" />
    <glyph glyph-name="r_f_f" horiz-adv-x="2013" 
d="M778 1307q0 68 42 107.5t108 39.5h366v-207h-254v-162h396v222q0 68 41.5 107.5t107.5 39.5h365v-207h-252v-162h252v-213h-252v-872h-262v872h-396v-872h-262v872h-395v-872h-262v938q0 68 41.5 107.5t107.5 39.5h508v222z" />
    <glyph glyph-name="r_i" horiz-adv-x="1165" 
d="M121 934q0 68 43 109.5t115 41.5h761v-1085h-262v872h-395v-872h-262v934zM778 1217v237h262v-237h-262z" />
    <glyph glyph-name="r_dotlessi" horiz-adv-x="1165" 
d="M121 934q0 68 43 109.5t115 41.5h761v-1085h-262v872h-395v-872h-262v934z" />
    <glyph glyph-name="r_iacute" horiz-adv-x="1165" 
d="M121 934q0 68 43 109.5t115 41.5h761v-1085h-262v872h-395v-872h-262v934zM745 1200l226 254h315l-313 -254h-228z" />
    <glyph glyph-name="r_icircumflex" horiz-adv-x="1165" 
d="M121 934q0 68 43 109.5t115 41.5h761v-1085h-262v872h-395v-872h-262v934zM561 1200l199 254h303l197 -254h-230l-106 125h-29l-107 -125h-227z" />
    <glyph glyph-name="r_idieresis" horiz-adv-x="1165" 
d="M121 934q0 68 43 109.5t115 41.5h761v-1085h-262v872h-395v-872h-262v934zM590 1219v217h229v-217h-229zM999 1219v217h230v-217h-230z" />
    <glyph glyph-name="r_igrave" horiz-adv-x="1165" 
d="M121 934q0 68 43 109.5t115 41.5h761v-1085h-262v872h-395v-872h-262v934zM565 1454h316l225 -254h-227z" />
    <glyph glyph-name="r_ij" horiz-adv-x="1677" 
d="M121 934q0 68 43 109.5t115 41.5h761v-1085h-262v872h-395v-872h-262v934zM778 1217v237h262v-237h-262zM1055 -369v207h235v1247h262v-1302q0 -68 -43 -110t-114 -42h-340zM1288 1217v237h262v-237h-262z" />
    <glyph glyph-name="r_imacron" horiz-adv-x="1165" 
d="M121 934q0 68 43 109.5t115 41.5h761v-1085h-262v872h-395v-872h-262v934zM586 1239v176h649v-176h-649z" />
    <glyph glyph-name="r_iogonek" horiz-adv-x="1165" 
d="M121 934q0 68 43 109.5t115 41.5h761v-1085q-70 -20 -108.5 -48.5t-38.5 -60.5q0 -53 94 -53h53v-207h-118q-120 0 -185 49t-65 125q0 123 121 195h-15v872h-395v-872h-262v934zM778 1217v237h262v-237h-262z" />
    <glyph glyph-name="r_r_i" horiz-adv-x="1822" 
d="M121 938q0 68 41.5 107.5t107.5 39.5h371v-213h-258v-872h-262v938zM778 0v934q0 68 43 109.5t115 41.5h762v-1085h-262v872h-396v-872h-262zM1436 1217v237h262v-237h-262z" />
    <glyph glyph-name="r_r_y" horiz-adv-x="2408" 
d="M121 938q0 68 41.5 107.5t107.5 39.5h371v-213h-258v-872h-262v938zM778 0v938q0 68 42 107.5t108 39.5h612l184 -624l68 -246h37l67 246l185 624h272v-16l-430 -1300q-46 -138 -186 -138h-324v207h316l38 174h-151l-287 860h-289v-872h-262z" />
    <glyph glyph-name="r_t" horiz-adv-x="1343" 
d="M121 938q0 68 41.5 107.5t107.5 39.5h508v277h262v-277h224v-213h-224v-665h224v-207h-336q-65 0 -107.5 41.5t-42.5 105.5v725h-395v-872h-262v938z" />
    <glyph glyph-name="r_tcaron" horiz-adv-x="1343" 
d="M121 938q0 68 41.5 107.5t107.5 39.5h508v277h262v-277h224v-213h-224v-665h224v-207h-336q-65 0 -107.5 41.5t-42.5 105.5v725h-395v-872h-262v938zM1143 1139l28 315h256l-106 -315h-178z" />
    <glyph glyph-name="uni0072021B" horiz-adv-x="1343" 
d="M121 938q0 68 41.5 107.5t107.5 39.5h508v277h262v-277h224v-213h-224v-665h224v-207h-336q-65 0 -107.5 41.5t-42.5 105.5v725h-395v-872h-262v938zM815 -430l49 336h256l-121 -336h-184z" />
    <glyph glyph-name="r_u" horiz-adv-x="1843" 
d="M121 938q0 68 41.5 107.5t107.5 39.5h770v-643q0 -231 209 -231h211v874h262v-938q0 -64 -42 -105.5t-107 -41.5h-397q-174 0 -286 111t-112 309v452h-395v-872h-262v938z" />
    <glyph glyph-name="r_uacute" horiz-adv-x="1843" 
d="M121 938q0 68 41.5 107.5t107.5 39.5h770v-643q0 -231 209 -231h211v874h262v-938q0 -64 -42 -105.5t-107 -41.5h-397q-174 0 -286 111t-112 309v452h-395v-872h-262v938zM1085 1200l226 254h315l-313 -254h-228z" />
    <glyph glyph-name="r_ucircumflex" horiz-adv-x="1843" 
d="M121 938q0 68 41.5 107.5t107.5 39.5h770v-643q0 -231 209 -231h211v874h262v-938q0 -64 -42 -105.5t-107 -41.5h-397q-174 0 -286 111t-112 309v452h-395v-872h-262v938zM901 1200l199 254h303l196 -254h-229l-106 125h-29l-107 -125h-227z" />
    <glyph glyph-name="r_udieresis" horiz-adv-x="1843" 
d="M121 938q0 68 41.5 107.5t107.5 39.5h770v-643q0 -231 209 -231h211v874h262v-938q0 -64 -42 -105.5t-107 -41.5h-397q-174 0 -286 111t-112 309v452h-395v-872h-262v938zM930 1219v217h229v-217h-229zM1339 1219v217h230v-217h-230z" />
    <glyph glyph-name="r_ugrave" horiz-adv-x="1843" 
d="M121 938q0 68 41.5 107.5t107.5 39.5h770v-643q0 -231 209 -231h211v874h262v-938q0 -64 -42 -105.5t-107 -41.5h-397q-174 0 -286 111t-112 309v452h-395v-872h-262v938zM905 1454h316l225 -254h-227z" />
    <glyph glyph-name="r_uhungarumlaut" horiz-adv-x="1843" 
d="M121 938q0 68 41.5 107.5t107.5 39.5h770v-643q0 -231 209 -231h211v874h262v-938q0 -64 -42 -105.5t-107 -41.5h-397q-174 0 -286 111t-112 309v452h-395v-872h-262v938zM938 1200l192 254h291l-282 -254h-201zM1356 1200l192 254h291l-283 -254h-200z" />
    <glyph glyph-name="r_umacron" horiz-adv-x="1843" 
d="M121 938q0 68 41.5 107.5t107.5 39.5h770v-643q0 -231 209 -231h211v874h262v-938q0 -64 -42 -105.5t-107 -41.5h-397q-174 0 -286 111t-112 309v452h-395v-872h-262v938zM926 1239v176h649v-176h-649z" />
    <glyph glyph-name="r_uogonek" horiz-adv-x="1843" 
d="M121 938q0 68 41.5 107.5t107.5 39.5h770v-643q0 -231 209 -231h211v874h262v-938q0 -64 -42 -105.5t-107 -41.5h-139q-70 -21 -109 -49t-39 -60q0 -53 94 -53h54v-207h-119q-120 0 -185 49t-65 125q0 123 121 195h-10q-174 0 -286 111t-112 309v452h-395v-872h-262v938z
" />
    <glyph glyph-name="r_uring" horiz-adv-x="1843" 
d="M121 938q0 68 41.5 107.5t107.5 39.5h770v-643q0 -231 209 -231h211v874h262v-938q0 -64 -42 -105.5t-107 -41.5h-397q-174 0 -286 111t-112 309v452h-395v-872h-262v938zM1036 1382q0 88 60.5 146.5t152.5 58.5q93 0 153 -58.5t60 -146.5q0 -91 -60 -147.5t-153 -56.5
q-92 0 -152.5 56.5t-60.5 147.5zM1159 1382q0 -42 26 -67t64 -25t64 25t26 67q0 37 -26 61.5t-64 24.5q-39 0 -64.5 -24t-25.5 -62z" />
    <glyph glyph-name="r_v" horiz-adv-x="1748" 
d="M121 938q0 68 41.5 107.5t107.5 39.5h613l182 -624l70 -246h36l70 246l182 624h271v-20l-355 -1065h-374l-293 872h-289v-872h-262v938z" />
    <glyph glyph-name="r_w" horiz-adv-x="2347" 
d="M121 938q0 68 41.5 107.5t107.5 39.5h615l135 -624l47 -246h29l45 246l133 624h364l136 -624l43 -246h30l47 246l136 624h260v-16l-271 -1069h-368l-133 625l-45 245h-33l-43 -245l-133 -625h-369l-223 872h-289v-872h-262v938z" />
    <glyph glyph-name="r_wcircumflex" horiz-adv-x="2347" 
d="M121 938q0 68 41.5 107.5t107.5 39.5h615l135 -624l47 -246h29l45 246l133 624h364l136 -624l43 -246h30l47 246l136 624h260v-16l-271 -1069h-368l-133 625l-45 245h-33l-43 -245l-133 -625h-369l-223 872h-289v-872h-262v938zM1108 1200l199 254h303l196 -254h-229
l-107 125h-28l-107 -125h-227z" />
    <glyph glyph-name="r_y" horiz-adv-x="1751" 
d="M121 938q0 68 41.5 107.5t107.5 39.5h613l184 -624l68 -246h36l68 246l184 624h273v-16l-430 -1300q-46 -138 -187 -138h-323v207h315l39 174h-152l-286 860h-289v-872h-262v938z" />
    <glyph glyph-name="r_yacute" horiz-adv-x="1751" 
d="M121 938q0 68 41.5 107.5t107.5 39.5h613l184 -624l68 -246h36l68 246l184 624h273v-16l-430 -1300q-46 -138 -187 -138h-323v207h315l39 174h-152l-286 860h-289v-872h-262v938zM989 1200l225 254h316l-313 -254h-228z" />
    <glyph glyph-name="racute_t" horiz-adv-x="1343" 
d="M121 938q0 68 41.5 107.5t107.5 39.5h508v277h262v-277h224v-213h-224v-665h224v-207h-336q-65 0 -107.5 41.5t-42.5 105.5v725h-395v-872h-262v938zM233 1200l213 254h314l-301 -254h-226z" />
    <glyph glyph-name="racute_u" horiz-adv-x="1843" 
d="M121 938q0 68 41.5 107.5t107.5 39.5h770v-643q0 -231 209 -231h211v874h262v-938q0 -64 -42 -105.5t-107 -41.5h-397q-174 0 -286 111t-112 309v452h-395v-872h-262v938zM233 1200l226 254h315l-313 -254h-228z" />
    <glyph glyph-name="rcaron_t" horiz-adv-x="1343" 
d="M121 938q0 68 41.5 107.5t107.5 39.5h508v277h262v-277h224v-213h-224v-665h224v-207h-336q-65 0 -107.5 41.5t-42.5 105.5v725h-395v-872h-262v938zM53 1454h217l107 -125h26l109 125h215l-197 -254h-278z" />
    <glyph glyph-name="rcaron_u" horiz-adv-x="1843" 
d="M121 938q0 68 41.5 107.5t107.5 39.5h770v-643q0 -231 209 -231h211v874h262v-938q0 -64 -42 -105.5t-107 -41.5h-397q-174 0 -286 111t-112 309v452h-395v-872h-262v938zM49 1454h227l107 -125h29l106 125h230l-197 -254h-303z" />
    <glyph glyph-name="uni01570075" horiz-adv-x="1843" 
d="M121 938q0 68 41.5 107.5t107.5 39.5h770v-643q0 -231 209 -231h211v874h262v-938q0 -64 -42 -105.5t-107 -41.5h-397q-174 0 -286 111t-112 309v452h-395v-872h-262v938zM74 -430l49 336h256l-121 -336h-184z" />
    <glyph glyph-name="t_t" horiz-adv-x="1456" 
d="M1376 1085v-213h-239v-665h223v-207h-336q-66 0 -108 41t-42 106v725h-395v-665h223v-207h-335q-66 0 -108 41t-42 106v725h-156v213h156v277h262v-277h395v277h263v-277h239z" />
    <glyph glyph-name="a.subs" horiz-adv-x="686" 
d="M250 -203q-98 0 -157.5 45t-59.5 129q0 91 61 131t187 50l168 12v35q0 48 -26 69t-77 21t-76.5 -20t-29.5 -64h-177q1 102 80.5 153.5t206.5 51.5q130 0 202.5 -55t72.5 -169v-299q0 -38 -28 -64t-69 -26h-278zM217 -23q0 -67 86 -67h146v147l-127 -14q-57 -6 -81 -21.5
t-24 -44.5z" />
    <glyph glyph-name="b.subs" horiz-adv-x="743" 
d="M168 -203q-40 0 -68 26t-28 64v713h188v-203h152q130 0 212.5 -82.5t82.5 -218.5q0 -135 -83 -217t-212 -82h-244zM260 -66h109q71 0 108 41.5t37 120.5q0 80 -37.5 122t-107.5 42h-109v-326z" />
    <glyph glyph-name="c.subs" horiz-adv-x="720" 
d="M371 -215q-143 0 -238.5 84.5t-95.5 226.5q0 145 95.5 229.5t238.5 84.5q131 0 215 -66.5t104 -169.5h-188q-11 42 -43 71t-88 29q-66 0 -106 -44.5t-40 -133.5q0 -87 40 -132.5t106 -45.5q56 0 88 29t43 71h188q-20 -102 -104 -167.5t-215 -65.5z" />
    <glyph glyph-name="d.subs" horiz-adv-x="743" 
d="M330 -203q-129 0 -211 82t-82 217q0 137 81.5 219t211.5 82h151v203h191v-713q0 -38 -28.5 -64t-68.5 -26h-245zM227 96q0 -80 38 -121t108 -41h108v326h-108q-69 0 -107.5 -42.5t-38.5 -121.5z" />
    <glyph glyph-name="e.subs" horiz-adv-x="733" 
d="M367 -215q-147 0 -238.5 86t-91.5 225t92.5 226.5t237.5 87.5q154 0 248 -95t81 -258h-473q9 -71 46 -108t98 -37q90 0 122 82h193q-28 -96 -112 -152.5t-203 -56.5zM229 166h279q-11 60 -47 92.5t-94 32.5q-54 0 -90 -33.5t-48 -91.5z" />
    <glyph glyph-name="f.subs" horiz-adv-x="438" 
d="M104 510q0 41 27.5 65.5t69.5 24.5h219v-131h-129v-72h129v-139h-129v-461h-187v461h-86v139h86v113z" />
    <glyph glyph-name="g.subs" horiz-adv-x="743" 
d="M119 -406v132h362v86h-151q-130 0 -212.5 80t-82.5 210q0 132 83 213.5t212 81.5h243q40 0 68.5 -26.5t28.5 -65.5v-618q0 -40 -29 -66.5t-72 -26.5h-450zM227 102q0 -72 38 -113.5t108 -41.5h108v313h-108q-69 0 -107.5 -41.5t-38.5 -116.5z" />
    <glyph glyph-name="h.subs" horiz-adv-x="722" 
d="M473 154q0 54 -27.5 80t-85.5 26h-98v-463h-186v803h186v-203h166q101 0 166 -61t65 -168v-371h-186v357z" />
    <glyph glyph-name="i.subs" horiz-adv-x="337" 
d="M76 -203v600h186v-600h-186zM76 465v135h186v-135h-186z" />
    <glyph glyph-name="j.subs" horiz-adv-x="335" 
d="M-57 -406v132h133v671h186v-710q0 -40 -27.5 -66.5t-70.5 -26.5h-221zM76 465v135h186v-135h-186z" />
    <glyph glyph-name="k.subs" horiz-adv-x="698" 
d="M504 109l180 -304v-8h-205l-131 252h-86v-252h-186v803h186v-410h86l131 207h205v-8l-180 -264v-16z" />
    <glyph glyph-name="l.subs" horiz-adv-x="337" 
d="M262 -203h-186v803h186v-803z" />
    <glyph glyph-name="m.subs" horiz-adv-x="1069" 
d="M72 305q0 39 28 65.5t68 26.5h604q103 0 169.5 -62.5t66.5 -168.5v-369h-187v355q0 57 -28 82.5t-84 25.5h-74v-463h-189v463h-186v-463h-188v508z" />
    <glyph glyph-name="n.subs" horiz-adv-x="720" 
d="M72 305q0 39 28 65.5t68 26.5h254q104 0 169.5 -62t65.5 -169v-369h-186v355q0 57 -27.5 82.5t-83.5 25.5h-100v-463h-188v508z" />
    </font>
</defs>
</svg>
