<?xml version="1.0" standalone="no"?>
<!DOCTYPE svg PUBLIC "-//W3C//DTD SVG 1.1//EN" "http://www.w3.org/Graphics/SVG/1.1/DTD/svg11.dtd" >
<svg xmlns="http://www.w3.org/2000/svg" xmlns:xlink="http://www.w3.org/1999/xlink" version="1.1">
<metadata>
Created by FontForge 20201107 at Tue Sep 17 20:48:00 2024
 By 
(c) 2022, Copyright by Optimo SARL. All rights reserved.
</metadata>
<defs>
<font id="Artex-Regular" horiz-adv-x="0" >
  <font-face 
    font-family="Artex"
    font-weight="400"
    font-stretch="normal"
    units-per-em="2048"
    panose-1="0 0 0 0 0 0 0 0 0 0"
    ascent="1638"
    descent="-410"
    x-height="1085"
    cap-height="1454"
    bbox="-379 -471 2716 2195"
    underline-thickness="102"
    underline-position="-85"
    unicode-range="U+0020-FB02"
  />
<missing-glyph horiz-adv-x="1181" 
d="M82 1087l367 367h90l-82 -82q-99 -28 -172 -101.5t-101 -172.5l-102 -101v90zM82 82v90l385 385v-70h20zM82 264v92l649 648v-27q0 -29 -18.5 -58t-40.5 -48.5t-58.5 -49.5t-54.5 -47q-26 -24 -39.5 -45t-27.5 -55zM82 449v90l577 577q31 -19 50 -43zM82 631v90l276 278
l74 -4q0 55 37.5 97.5t101.5 42.5h15zM82 815v90l106 105l84 -6zM82 1180v92l184 182h90zM82 1364v90h92zM90 0l490 487h90l-172 -174h-43v-41l-271 -272h-94zM274 0l181 178v-90l-88 -88h-93zM457 0l63 61h90l-61 -61h-92zM563 1384l70 70h90l-70 -72q-32 4 -53 4t-37 -2z
M588 313l512 510v-90l-420 -420h-92zM641 0l59 61h5v5l395 391v-90l-367 -367h-92zM694 512v12q0 23 5 39.5t18.5 32t25 25t38.5 29.5t44 34q3 2 24 17t32 24t31.5 29t33 39t26 47.5t19.5 60.5l109 105v-91zM705 158v90l395 391v-90zM727 1366l88 88h90l-114 -117
q-47 25 -64 29zM823 0l277 274v-92l-185 -182h-92zM846 1303l151 151h93l-195 -194q-22 25 -49 43zM932 1208l168 164v-90l-133 -133q-14 36 -35 59zM989 1081l111 109v-92l-101 -99q0 37 -10 82zM1006 0l94 90v-90h-94z" />
    <glyph glyph-name="f_f" unicode="ff" horiz-adv-x="1449" 
d="M229 1317q0 61 39 99t99 38h360v-186h-276v-183h432v232q0 61 38.5 99t98.5 38h360v-186h-276v-183h276v-190h-276v-895h-221v895h-432v-895h-222v895h-159v190h159v232z" />
    <glyph glyph-name="f_f_i" unicode="ffi" horiz-adv-x="1894" 
d="M229 1317q0 61 39 99t99 38h360v-186h-276v-183h432v232q0 61 38.5 99t98.5 38h360v-186h-276v-183h276v-190h-276v-895h-221v895h-432v-895h-222v895h-159v190h159v232zM1536 0v1085h221v-1085h-221zM1536 1229v225h221v-225h-221z" />
    <glyph glyph-name="f_f_l" unicode="ffl" horiz-adv-x="1894" 
d="M229 1317q0 61 39 99t99 38h360v-186h-276v-183h432v232q0 61 38.5 99t98.5 38h360v-186h-276v-183h276v-190h-276v-895h-221v895h-432v-895h-222v895h-159v190h159v232zM1536 0v1454h221v-1454h-221z" />
    <glyph glyph-name="f_i" unicode="fi" horiz-adv-x="1239" 
d="M229 1317q0 61 39 99t99 38h360v-186h-276v-183h276v-190h-276v-895h-222v895h-159v190h159v232zM881 1229v225h221v-225h-221zM883 0v1085h221v-1085h-221z" />
    <glyph glyph-name="f_l" unicode="fl" horiz-adv-x="1239" 
d="M229 1317q0 61 39 99t99 38h360v-186h-276v-183h276v-190h-276v-895h-222v895h-159v190h159v232zM883 0v1454h221v-1454h-221z" />
    <glyph glyph-name=".notdef" horiz-adv-x="1181" 
d="M82 1087l367 367h90l-82 -82q-99 -28 -172 -101.5t-101 -172.5l-102 -101v90zM82 82v90l385 385v-70h20zM82 264v92l649 648v-27q0 -29 -18.5 -58t-40.5 -48.5t-58.5 -49.5t-54.5 -47q-26 -24 -39.5 -45t-27.5 -55zM82 449v90l577 577q31 -19 50 -43zM82 631v90l276 278
l74 -4q0 55 37.5 97.5t101.5 42.5h15zM82 815v90l106 105l84 -6zM82 1180v92l184 182h90zM82 1364v90h92zM90 0l490 487h90l-172 -174h-43v-41l-271 -272h-94zM274 0l181 178v-90l-88 -88h-93zM457 0l63 61h90l-61 -61h-92zM563 1384l70 70h90l-70 -72q-32 4 -53 4t-37 -2z
M588 313l512 510v-90l-420 -420h-92zM641 0l59 61h5v5l395 391v-90l-367 -367h-92zM694 512v12q0 23 5 39.5t18.5 32t25 25t38.5 29.5t44 34q3 2 24 17t32 24t31.5 29t33 39t26 47.5t19.5 60.5l109 105v-91zM705 158v90l395 391v-90zM727 1366l88 88h90l-114 -117
q-47 25 -64 29zM823 0l277 274v-92l-185 -182h-92zM846 1303l151 151h93l-195 -194q-22 25 -49 43zM932 1208l168 164v-90l-133 -133q-14 36 -35 59zM989 1081l111 109v-92l-101 -99q0 37 -10 82zM1006 0l94 90v-90h-94z" />
    <glyph glyph-name=".null" 
 />
    <glyph glyph-name="nonmarkingreturn" horiz-adv-x="682" 
 />
    <glyph glyph-name="space" unicode=" " horiz-adv-x="446" 
 />
    <glyph glyph-name="exclam" unicode="!" horiz-adv-x="561" 
d="M170 0v223h221v-223h-221zM170 377v1077h221v-1077h-221z" />
    <glyph glyph-name="quotedbl" unicode="&#x22;" horiz-adv-x="839" 
d="M156 971l-37 483h233l-37 -483h-159zM487 1454h234l-37 -483h-160z" />
    <glyph glyph-name="numbersign" unicode="#" horiz-adv-x="1251" 
d="M152 1085h227l65 369h177l-66 -369h276l66 369h176l-65 -369h178v-159h-209l-70 -387h195v-160h-223l-68 -379h-176l67 379h-276l-68 -379h-176l68 379h-184v160h213l69 387h-196v159zM455 539h276l70 387h-277z" />
    <glyph glyph-name="dollar" unicode="$" horiz-adv-x="1228" 
d="M498 -211v203q-185 35 -303 161.5t-121 317.5h229q4 -136 96.5 -216.5t227.5 -80.5q136 0 216.5 59.5t80.5 172.5q0 56 -28 98.5t-75 69t-108 47t-129 38.5t-135.5 38.5t-128.5 51.5t-108 72.5t-75 106.5t-28 149q0 163 108 265t281 126v166h225v-172q173 -33 282 -153
t113 -303h-223q-6 131 -90 204.5t-211 73.5q-110 0 -186 -51t-76 -148q0 -52 28 -91t75.5 -64t109 -45.5t129.5 -39.5t135.5 -40.5t129 -54.5t109 -76.5t75.5 -110.5t28 -153q0 -117 -60 -209.5t-155 -145t-213 -69.5v-197h-225z" />
    <glyph glyph-name="percent" unicode="%" horiz-adv-x="1941" 
d="M387 639q-172 0 -257 111.5t-85 304.5q0 191 85.5 301t256.5 110q172 0 258 -111.5t86 -299.5q0 -194 -86 -305t-258 -111zM223 1055q0 -277 164 -277q87 0 126.5 75.5t39.5 201.5q0 272 -166 272q-164 0 -164 -272zM578 0l628 1454h166l-629 -1454h-165zM1212 403
q0 191 85.5 301.5t256.5 110.5q172 0 258 -111.5t86 -300.5q0 -194 -86 -304.5t-258 -110.5t-257 111t-85 304zM1391 403q0 -276 163 -276q87 0 126.5 75t39.5 201q0 273 -166 273q-163 0 -163 -273z" />
    <glyph glyph-name="ampersand" unicode="&#x26;" horiz-adv-x="1433" 
d="M575 0q-119 0 -205 25.5t-135.5 72.5t-72.5 107t-23 135q0 77 24.5 144.5t72 123t102.5 99.5t129 88q-95 106 -138.5 188t-43.5 172q0 63 26 120t74.5 102t125.5 71.5t171 26.5q192 0 300 -88.5t108 -217.5q0 -65 -23 -122t-69.5 -107t-101 -91.5t-132.5 -88.5l319 -334
v315h191v-553q0 -91 -44 -139.5t-130 -48.5h-525zM360 354q0 -168 258 -168h424l-450 473q-110 -70 -171 -142.5t-61 -162.5zM500 1143q0 -62 36.5 -121.5t104.5 -132.5q118 66 175.5 125t57.5 139q0 70 -49.5 110t-140.5 40q-90 0 -137 -46.5t-47 -113.5z" />
    <glyph glyph-name="quotesingle" unicode="'" horiz-adv-x="471" 
d="M156 971l-37 483h233l-37 -483h-159z" />
    <glyph glyph-name="parenleft" unicode="(" horiz-adv-x="624" 
d="M352 -330q-132 209 -199 451t-67 493q0 250 67 491.5t199 450.5h213q-268 -450 -268 -942q0 -494 268 -944h-213z" />
    <glyph glyph-name="parenright" unicode=")" horiz-adv-x="624" 
d="M272 1556q132 -210 199.5 -451.5t67.5 -492.5q0 -249 -67.5 -490.5t-199.5 -451.5h-213q269 452 269 942q0 492 -269 944h213z" />
    <glyph glyph-name="asterisk" unicode="*" horiz-adv-x="993" 
d="M326 760l-125 106l157 189l-227 86l55 153l230 -84v244h162v-244l231 84l55 -153l-231 -86l158 -189l-125 -106l-168 203h-4z" />
    <glyph glyph-name="plus" unicode="+" horiz-adv-x="1153" 
d="M479 225v408h-403v192h403v404h195v-404h405v-192h-405v-408h-195z" />
    <glyph glyph-name="comma" unicode="," horiz-adv-x="497" 
d="M53 -225l111 483h229l-166 -483h-174z" />
    <glyph glyph-name="hyphen" unicode="-" horiz-adv-x="868" 
d="M113 473v184h643v-184h-643z" />
    <glyph glyph-name="period" unicode="." horiz-adv-x="491" 
d="M135 0v231h221v-231h-221z" />
    <glyph glyph-name="slash" unicode="/" horiz-adv-x="796" 
d="M59 0l457 1454h221l-456 -1454h-222z" />
    <glyph glyph-name="zero" unicode="0" horiz-adv-x="1327" 
d="M664 -20q-145 0 -254 55t-175 156.5t-98.5 236t-32.5 301.5q0 168 33 302t99.5 234.5t175 155t252.5 54.5q116 0 208.5 -36t157.5 -101t108 -158.5t63 -205.5t20 -245q0 -166 -32.5 -300.5t-98 -236t-174 -157t-252.5 -55.5zM334 729q0 -91 10.5 -171t35 -153t62 -125
t94 -83t128.5 -31t128.5 31t93 83t61 125.5t34.5 153t10 170.5t-9 168.5t-32 151t-59 125t-94 83t-133 31.5t-133 -31t-94.5 -83t-60 -125.5t-33 -151.5t-9.5 -168z" />
    <glyph glyph-name="one" unicode="1" horiz-adv-x="813" 
d="M440 0v1255h-360v199h446q61 0 100.5 -38.5t39.5 -98.5v-1317h-226z" />
    <glyph glyph-name="two" unicode="2" horiz-adv-x="1230" 
d="M113 193q234 173 376.5 289t238 216.5t132.5 177.5t37 158q0 123 -73 186.5t-206 63.5q-138 0 -216 -72t-80 -200h-232q5 152 78 258t190 155.5t267 49.5q138 0 251.5 -50t182.5 -147.5t69 -224.5q0 -204 -166 -403t-548 -445v-15l254 9h456v-199h-1011v193z" />
    <glyph glyph-name="three" unicode="3" horiz-adv-x="1261" 
d="M629 -20q-154 0 -271 44t-191 143t-81 245h231q9 -119 89.5 -184.5t216.5 -65.5q144 0 226.5 67.5t82.5 190.5q0 118 -93.5 180t-240.5 62h-109v180h111q139 0 226 62t87 177q0 102 -79.5 156.5t-208.5 54.5q-135 0 -204 -58.5t-87 -172.5h-230q13 200 157 307t366 107
q224 0 369 -102t145 -275q0 -116 -67.5 -209.5t-168.5 -126.5v-6q117 -39 186.5 -131.5t69.5 -218.5q0 -136 -71.5 -234t-190 -145t-270.5 -47z" />
    <glyph glyph-name="four" unicode="4" horiz-adv-x="1263" 
d="M893 0v336h-811v176l696 942h199q61 0 99 -38.5t38 -98.5v-1317h-221zM346 528h547v443l4 286h-25l-526 -708v-21z" />
    <glyph glyph-name="five" unicode="5" horiz-adv-x="1257" 
d="M625 -20q-124 0 -225.5 35.5t-168 97t-104 143t-41.5 176.5h217q20 -130 104.5 -201t215.5 -71q145 0 231 82t86 217q0 136 -81.5 215.5t-217.5 79.5q-236 0 -307 -150h-131q-31 0 -49.5 22t-16.5 54l45 637q5 61 41.5 99t95.5 38h777v-199h-721l-37 -432
q123 109 332 109q233 0 363 -130.5t130 -342.5q0 -216 -147.5 -347.5t-390.5 -131.5z" />
    <glyph glyph-name="six" unicode="6" horiz-adv-x="1290" 
d="M657 -20q-111 0 -201.5 31.5t-155.5 89t-109 138.5t-65.5 180.5t-21.5 215.5q0 146 20.5 270t65 230.5t111.5 181t165 116.5t220 42q203 0 337 -113.5t153 -298.5h-232q-41 227 -270 227q-109 0 -187.5 -73.5t-117 -189.5t-45.5 -265q67 75 161.5 111t198.5 36
q235 0 373.5 -128.5t138.5 -331.5q0 -138 -72 -246t-194.5 -165.5t-272.5 -57.5zM346 449q0 -130 89.5 -209.5t219.5 -79.5q140 0 226 78t86 211q0 128 -86.5 205t-225.5 77t-224 -77t-85 -205z" />
    <glyph glyph-name="seven" unicode="7" horiz-adv-x="1103" 
d="M225 0l555 1255h-700v199h940v-174l-551 -1280h-244z" />
    <glyph glyph-name="eight" unicode="8" horiz-adv-x="1282" 
d="M641 -20q-87 0 -168 18t-150 53.5t-120.5 85t-81 117t-29.5 145.5q0 94 39.5 169t95.5 117.5t127 68.5v8q-41 16 -77 41.5t-68.5 64t-51 96t-18.5 126.5q0 93 40.5 167.5t110.5 121.5t159.5 71.5t191.5 24.5t191.5 -24.5t159.5 -71.5t110.5 -121.5t40.5 -167.5
q0 -132 -63 -212.5t-152 -115.5v-8q51 -19 95.5 -48t82.5 -71.5t60 -103t22 -132.5q0 -97 -45 -177.5t-121 -132.5t-174.5 -80.5t-206.5 -28.5zM319 418q0 -125 89 -191.5t233 -66.5q142 0 231 66.5t89 191.5q0 118 -89 183t-231 65q-144 0 -233 -65t-89 -183zM358 1073
q0 -111 79 -171t204 -60t204 60t79 171q0 107 -78.5 164t-204.5 57t-204.5 -57t-78.5 -164z" />
    <glyph glyph-name="nine" unicode="9" horiz-adv-x="1290" 
d="M606 -20q-205 0 -338.5 113t-152.5 298h233q21 -114 86.5 -170.5t183.5 -56.5q83 0 148.5 42t107.5 116t66 168t29 204q-67 -76 -161.5 -112.5t-197.5 -36.5q-238 0 -376 128.5t-138 332.5q0 138 72 246t195 165.5t274 57.5q182 0 307 -85t183.5 -230.5t58.5 -340.5
q0 -146 -20 -270t-64.5 -230t-111.5 -180.5t-164.5 -116.5t-219.5 -42zM326 1006q0 -128 86 -205.5t225 -77.5q138 0 223.5 77.5t85.5 205.5q0 130 -90 209t-219 79q-140 0 -225.5 -77.5t-85.5 -210.5z" />
    <glyph glyph-name="colon" unicode=":" horiz-adv-x="493" 
d="M135 0v231h221v-231h-221zM135 752v231h221v-231h-221z" />
    <glyph glyph-name="semicolon" unicode=";" horiz-adv-x="493" 
d="M137 752v231h221v-231h-221zM23 -225l110 483h227l-165 -483h-172z" />
    <glyph glyph-name="less" unicode="&#x3c;" horiz-adv-x="1169" 
d="M1077 205l-997 395v250l997 397v-225l-753 -277v-38l753 -279v-223z" />
    <glyph glyph-name="equal" unicode="=" horiz-adv-x="1196" 
d="M98 838v190h1004v-190h-1004zM98 428v190h1004v-190h-1004z" />
    <glyph glyph-name="greater" unicode="&#x3e;" horiz-adv-x="1169" 
d="M94 1247l996 -397v-250l-996 -395v223l752 279v38l-752 277v225z" />
    <glyph glyph-name="question" unicode="?" horiz-adv-x="1099" 
d="M418 436q0 67 18 125t54 106.5t69 82t84 75.5q40 35 62 56.5t48 54t37 68t11 77.5q0 86 -62.5 142t-183.5 57q-123 1 -191 -74t-71 -207h-227q2 215 134.5 345.5t356.5 130.5q225 0 348 -112t123 -284q0 -107 -53 -188.5t-144 -161.5q-109 -95 -150.5 -154t-41.5 -143
v-55h-221v59zM418 0v223h221v-223h-221z" />
    <glyph glyph-name="at" unicode="@" horiz-adv-x="2117" 
d="M975 -369q-163 0 -289.5 30t-228.5 97t-168.5 173.5t-101.5 260t-35 355.5q0 190 43 343t122.5 261.5t193 181.5t252 107.5t302.5 34.5q429 0 668 -214.5t239 -621.5q0 -316 -98 -459t-301 -143h-627q-143 0 -230 82.5t-87 212.5q0 132 82 202t223 84l313 33v84
q0 66 -43.5 105t-134.5 39q-52 0 -88.5 -12t-55.5 -34.5t-28 -46.5t-12 -55h-215q0 141 107 226t292 85t285 -81t100 -236v-520h68q57 0 96 13t67 42t43 81t22 122.5t7 175.5q0 332 -176 494.5t-514 162.5q-698 0 -698 -749q0 -209 39 -352t119 -225t188 -117t260 -35h459
v-187h-459zM844 336q0 -60 41.5 -94.5t101.5 -34.5h260v299l-254 -31q-77 -9 -113 -40t-36 -99z" />
    <glyph glyph-name="A" unicode="A" horiz-adv-x="1470" 
d="M59 0l512 1454h340l514 -1454h-233l-156 461h-592l-157 -461h-228zM510 653h461l-113 332l-88 268h-59l-88 -268z" />
    <glyph glyph-name="B" unicode="B" horiz-adv-x="1267" 
d="M139 1317q0 60 38.5 98.5t98.5 38.5h429q194 0 316 -106t122 -281q0 -65 -20 -126t-65 -114t-110 -79q115 -35 179.5 -129.5t64.5 -204.5q0 -179 -126 -296.5t-323 -117.5h-604v1317zM365 195h354q117 0 179.5 63.5t62.5 159.5q0 93 -61 157t-181 64h-354v-444zM365 825
h313q112 0 174.5 70.5t62.5 165.5q0 93 -60.5 148t-176.5 55h-313v-439z" />
    <glyph glyph-name="C" unicode="C" horiz-adv-x="1556" 
d="M807 -20q-117 0 -224 31t-198.5 94t-159 151.5t-105.5 210t-38 262.5q0 174 58.5 317t159 235.5t231 143t276.5 50.5q139 0 258.5 -39t204.5 -107.5t140.5 -158.5t76.5 -195h-244q-15 58 -47.5 110t-84 96.5t-130 70.5t-174.5 26q-100 0 -188 -34.5t-157 -101t-109 -173
t-40 -240.5q0 -136 40 -243.5t109 -174t157 -101t188 -34.5q96 0 174.5 26t130 70.5t84 96.5t47.5 110h244q-21 -104 -76.5 -194.5t-140.5 -158.5t-204.5 -107t-258.5 -39z" />
    <glyph glyph-name="D" unicode="D" horiz-adv-x="1449" 
d="M139 1317q0 60 38.5 98.5t98.5 38.5h400q155 0 285 -53.5t219 -148.5t138.5 -228.5t49.5 -290.5q0 -331 -190.5 -532t-501.5 -201h-537v1317zM367 195h290q224 0 352 145.5t128 392.5q0 242 -129 384.5t-351 142.5h-290v-1065z" />
    <glyph glyph-name="E" unicode="E" horiz-adv-x="1118" 
d="M139 1317q0 60 38.5 98.5t98.5 38.5h756v-197h-665v-432h591v-194h-591v-434h675v-197h-903v1317z" />
    <glyph glyph-name="F" unicode="F" horiz-adv-x="1134" 
d="M139 1317q0 60 38.5 98.5t98.5 38.5h754v-199h-663v-434h591v-194h-591v-627h-228v1317z" />
    <glyph glyph-name="G" unicode="G" horiz-adv-x="1589" 
d="M809 -20q-148 0 -279 50t-230.5 142.5t-157.5 236.5t-58 320q0 174 58.5 317t158.5 235.5t230.5 143t275.5 50.5q140 0 260 -39t205 -107.5t140.5 -158.5t76.5 -195h-244q-15 58 -47.5 110t-84 96.5t-130 70.5t-174.5 26q-100 0 -188 -34.5t-157 -101t-109 -173
t-40 -240.5q0 -136 40 -243.5t109 -174t157 -101t188 -34.5q221 0 338 95.5t117 281.5v27h-508v188h735v-197q0 -262 -186.5 -426.5t-495.5 -164.5z" />
    <glyph glyph-name="H" unicode="H" horiz-adv-x="1415" 
d="M1051 0v629h-684v-629h-228v1454h228v-625h684v625h225v-1454h-225z" />
    <glyph glyph-name="I" unicode="I" horiz-adv-x="503" 
d="M139 1454h228v-1454h-228v1454z" />
    <glyph glyph-name="J" unicode="J" horiz-adv-x="702" 
d="M66 0v199h270v1255h227v-1317q0 -60 -38.5 -98.5t-98.5 -38.5h-360z" />
    <glyph glyph-name="K" unicode="K" horiz-adv-x="1284" 
d="M762 739l461 -725v-14h-252l-408 653h-196v-653h-228v1454h228v-602h196l404 602h256v-16l-461 -654v-45z" />
    <glyph glyph-name="L" unicode="L" horiz-adv-x="1097" 
d="M139 0v1454h228v-1255h669v-199h-897z" />
    <glyph glyph-name="M" unicode="M" horiz-adv-x="1837" 
d="M350 0h-211v1317q0 60 38.5 98.5t98.5 38.5h275l266 -950l78 -295h47l78 295l266 950h412v-1454h-213v1243h-47l-84 -319l-267 -924h-337l-269 924l-82 319h-49v-1243z" />
    <glyph glyph-name="N" unicode="N" horiz-adv-x="1460" 
d="M139 1317q0 60 38.5 98.5t98.5 38.5h252l396 -919l127 -314h55v1233h215v-1454h-389l-395 920l-127 313h-56v-1233h-215v1317z" />
    <glyph glyph-name="O" unicode="O" horiz-adv-x="1613" 
d="M807 -20q-146 0 -276.5 50t-231 143t-159 236t-58.5 318q0 140 38 260.5t105.5 209t159 152t199 95t223.5 31.5q146 0 276.5 -50.5t231 -143.5t159 -236t58.5 -316q0 -140 -38 -261t-105.5 -210t-159 -152t-199 -94.5t-223.5 -31.5zM313 727q0 -132 39.5 -238
t107.5 -173.5t156.5 -103.5t190.5 -36t190.5 35.5t156.5 103.5t107 174.5t39 239.5q0 131 -39 237t-107 173t-156.5 103t-190.5 36t-190.5 -36t-156.5 -104t-107.5 -174t-39.5 -237z" />
    <glyph glyph-name="P" unicode="P" horiz-adv-x="1232" 
d="M139 1317q0 60 38.5 98.5t98.5 38.5h433q203 0 326.5 -113.5t123.5 -306.5q0 -206 -120.5 -318t-321.5 -112h-350v-604h-228v1317zM367 797h352q108 0 158.5 63.5t50.5 173.5q0 108 -58.5 167t-171.5 59h-331v-463z" />
    <glyph glyph-name="Q" unicode="Q" horiz-adv-x="1613" 
d="M807 176q102 0 190.5 35.5t156.5 103.5t107 174.5t39 239.5q0 131 -39 237t-107 173t-156.5 103t-190.5 36t-190.5 -36t-156.5 -104t-107.5 -174t-39.5 -237q0 -132 39.5 -238t107.5 -173.5t156.5 -103.5t190.5 -36zM82 727q0 140 38 260.5t105.5 209t159 152t199 95
t223.5 31.5q146 0 276.5 -50.5t231 -143.5t159 -236t58.5 -316q0 -158 -48 -291t-131.5 -225t-194 -149.5t-238.5 -75.5v-64h448v-186h-532q-60 0 -99 38.5t-39 98.5v113q-129 17 -240 74t-195.5 149t-132.5 225t-48 291z" />
    <glyph glyph-name="R" unicode="R" horiz-adv-x="1333" 
d="M139 1317q0 60 38.5 98.5t98.5 38.5h469q203 0 328 -112.5t125 -307.5q0 -157 -80 -265.5t-223 -145.5l96 -156l283 -467h-264l-351 606h-292v-606h-228v1317zM367 797h391q106 0 157.5 63.5t51.5 175.5q0 108 -59.5 166t-172.5 58h-368v-463z" />
    <glyph glyph-name="S" unicode="S" horiz-adv-x="1267" 
d="M645 -20q-158 0 -286.5 58t-205.5 170.5t-79 262.5h229q4 -137 100 -217t242 -80q149 0 233.5 59.5t84.5 172.5q0 56 -29 98.5t-78.5 69t-113.5 47t-135 38.5t-142 38.5t-135 51.5t-113.5 72.5t-78.5 106.5t-29 149q0 188 142.5 293t366.5 105q234 0 384.5 -125.5
t156.5 -343.5h-227q-4 131 -94 204.5t-226 73.5q-122 0 -201 -50.5t-79 -148.5q0 -52 29.5 -91t79 -64t114 -45.5t136 -39.5t143 -40.5t136 -54.5t114 -76.5t79 -110.5t29.5 -153q0 -101 -45 -184t-121 -136t-174 -81.5t-207 -28.5z" />
    <glyph glyph-name="T" unicode="T" horiz-adv-x="1228" 
d="M502 0v1255h-436v199h1099v-199h-438v-1255h-225z" />
    <glyph glyph-name="U" unicode="U" horiz-adv-x="1398" 
d="M700 -20q-124 0 -224 37.5t-161.5 95.5t-103 133t-58 145t-16.5 137v926h228v-917q0 -161 97 -259t238 -98q140 0 238 98t98 259v917h226v-926q0 -67 -16.5 -137t-58 -145t-103 -133t-161.5 -95.5t-223 -37.5z" />
    <glyph glyph-name="V" unicode="V" horiz-adv-x="1439" 
d="M59 1454h238l317 -973l80 -276h56l81 276l318 973h231l-489 -1454h-342z" />
    <glyph glyph-name="W" unicode="W" horiz-adv-x="2052" 
d="M1044 1249h-34l-68 -319l-205 -930h-342l-332 1454h226l194 -944l64 -305h37l61 305l213 944h338l213 -944l61 -305h37l64 305l194 944h226l-332 -1454h-342l-205 930z" />
    <glyph glyph-name="X" unicode="X" horiz-adv-x="1384" 
d="M61 0l402 741l-383 713h248l313 -612h100l316 612h248l-385 -711l405 -743h-248l-336 633h-100l-334 -633h-246z" />
    <glyph glyph-name="Y" unicode="Y" horiz-adv-x="1275" 
d="M522 592l-465 854v8h244l215 -416l117 -237h8l117 237l217 416h244v-8l-469 -852v-594h-228v592z" />
    <glyph glyph-name="Z" unicode="Z" horiz-adv-x="1200" 
d="M76 0v193l760 1054v8h-742v199h1010v-192l-762 -1055v-8h782v-199h-1048z" />
    <glyph glyph-name="bracketleft" unicode="[" horiz-adv-x="600" 
d="M264 -330q-58 0 -94.5 36t-36.5 93v1628q0 57 36 93t93 36h266v-190h-180v-1505h180v-191h-264z" />
    <glyph glyph-name="backslash" unicode="\" horiz-adv-x="796" 
d="M516 0l-457 1454h222l456 -1454h-221z" />
    <glyph glyph-name="bracketright" unicode="]" horiz-adv-x="600" 
d="M336 1556q58 0 94.5 -36t36.5 -93v-1628q0 -57 -36 -93t-93 -36h-266v191h180v1505h-180v190h264z" />
    <glyph glyph-name="asciicircum" unicode="^" horiz-adv-x="980" 
d="M135 915l227 457h254l228 -457h-191l-164 330l-165 -330h-189z" />
    <glyph glyph-name="underscore" unicode="_" horiz-adv-x="1261" 
d="M104 -94h1053v-170h-1053v170z" />
    <glyph glyph-name="grave" unicode="`" horiz-adv-x="712" 
d="M412 1200l-310 254h285l223 -254h-198z" />
    <glyph glyph-name="a" unicode="a" horiz-adv-x="1148" 
d="M457 0q-171 0 -273 78t-102 233q0 87 26.5 146t83.5 94.5t128.5 54t179.5 29.5l315 31v73q0 193 -231 193q-112 0 -167 -42.5t-67 -135.5h-223q6 167 133 259.5t332 92.5q201 0 319.5 -93.5t118.5 -279.5v-596q0 -60 -39 -98.5t-100 -38.5h-434zM305 322q0 -80 43.5 -111
t136.5 -31h330v322l-272 -31q-133 -14 -185.5 -46.5t-52.5 -102.5z" />
    <glyph glyph-name="b" unicode="b" horiz-adv-x="1234" 
d="M270 0q-60 0 -98.5 38.5t-38.5 98.5v1317h221v-369h275q228 0 374 -148.5t146 -393.5q0 -247 -146.5 -395t-373.5 -148h-359zM354 188h248q156 0 239 92.5t83 262.5q0 168 -83 261t-239 93h-248v-709z" />
    <glyph glyph-name="c" unicode="c" horiz-adv-x="1206" 
d="M629 -20q-109 0 -206.5 37.5t-172.5 107.5t-118.5 178t-43.5 240t43.5 240t118.5 178t172.5 107.5t206.5 37.5q105 0 194 -31t150 -83.5t101.5 -116t58.5 -134.5h-234q-11 31 -31.5 60.5t-52 59t-80.5 47.5t-106 18q-61 0 -117 -24t-101.5 -69.5t-72.5 -120.5t-27 -169
t27 -169t72.5 -120.5t101.5 -69.5t117 -24q57 0 106 18t80.5 47t52 58.5t31.5 60.5h234q-18 -71 -58.5 -134t-101.5 -115.5t-150 -83.5t-194 -31z" />
    <glyph glyph-name="d" unicode="d" horiz-adv-x="1234" 
d="M606 0q-227 0 -373.5 148t-146.5 395q0 245 146 393.5t374 148.5h275v369h221v-1317q0 -60 -38.5 -98.5t-98.5 -38.5h-359zM311 543q0 -170 83 -262.5t239 -92.5h248v709h-248q-156 0 -239 -93t-83 -261z" />
    <glyph glyph-name="e" unicode="e" horiz-adv-x="1241" 
d="M623 -20q-237 0 -386 157t-149 406q0 247 150 405t385 158q248 0 400 -171t134 -456h-848q18 -143 102.5 -233t211.5 -90q95 0 165 49t103 133h235q-47 -165 -182.5 -261.5t-320.5 -96.5zM315 649h619q-24 128 -107.5 205.5t-203.5 77.5t-201 -78t-107 -205z" />
    <glyph glyph-name="f" unicode="f" horiz-adv-x="796" 
d="M229 1317q0 61 39 99t99 38h360v-186h-276v-183h276v-190h-276v-895h-222v895h-159v190h159v232z" />
    <glyph glyph-name="g" unicode="g" horiz-adv-x="1234" 
d="M229 -369v187h652v188h-275q-227 0 -373.5 148t-146.5 391q0 246 146.5 393t373.5 147h359q60 0 98.5 -38.5t38.5 -98.5v-1173q0 -66 -40.5 -105t-109.5 -39h-723zM311 545q0 -165 82.5 -257.5t237.5 -92.5h250v702h-250q-154 0 -237 -92t-83 -260z" />
    <glyph glyph-name="h" unicode="h" horiz-adv-x="1191" 
d="M852 639q0 258 -231 258h-265v-897h-221v1454h221v-369h318q176 0 287.5 -112t111.5 -316v-657h-221v639z" />
    <glyph glyph-name="i" unicode="i" horiz-adv-x="491" 
d="M135 0v1085h221v-1085h-221zM135 1229v225h221v-225h-221z" />
    <glyph glyph-name="j" unicode="j" horiz-adv-x="491" 
d="M-111 -369v187h246v1267h221v-1310q0 -66 -39 -105t-108 -39h-320zM133 1229v225h221v-225h-221z" />
    <glyph glyph-name="k" unicode="k" horiz-adv-x="1142" 
d="M743 578l336 -564v-14h-245l-277 494h-201v-494h-221v1454h221v-770h201l277 401h245v-14l-336 -469v-24z" />
    <glyph glyph-name="l" unicode="l" horiz-adv-x="491" 
d="M356 0h-221v1454h221v-1454z" />
    <glyph glyph-name="m" unicode="m" horiz-adv-x="1761" 
d="M133 948q0 60 38.5 98.5t98.5 38.5h973q176 0 287.5 -112t111.5 -316v-657h-221v639q0 258 -231 258h-193v-897h-221v897h-422v-897h-221v948z" />
    <glyph glyph-name="n" unicode="n" horiz-adv-x="1189" 
d="M133 948q0 60 38.5 98.5t98.5 38.5h402q176 0 287.5 -112t111.5 -316v-657h-221v639q0 258 -232 258h-264v-897h-221v948z" />
    <glyph glyph-name="o" unicode="o" horiz-adv-x="1259" 
d="M629 -20q-109 0 -206.5 37.5t-172.5 107.5t-118.5 178t-43.5 240t43.5 240t118.5 178t172.5 107.5t206.5 37.5q110 0 207.5 -37.5t172.5 -106.5t118.5 -177.5t43.5 -241.5q0 -132 -43.5 -240t-118.5 -178t-172.5 -107.5t-207.5 -37.5zM311 543q0 -94 27 -169t72.5 -120.5
t101.5 -69.5t117 -24q62 0 118.5 24t101.5 69.5t72 120.5t27 169t-27 169t-72 120.5t-101.5 69.5t-118.5 24q-61 0 -117 -24t-101.5 -69.5t-72.5 -120.5t-27 -169z" />
    <glyph glyph-name="p" unicode="p" horiz-adv-x="1234" 
d="M133 948q0 60 38.5 98.5t98.5 38.5h359q228 0 374 -148.5t146 -393.5q0 -247 -146.5 -395t-373.5 -148h-275v-369h-221v1317zM354 188h248q156 0 239 92.5t83 262.5q0 168 -83 261t-239 93h-248v-709z" />
    <glyph glyph-name="q" unicode="q" horiz-adv-x="1234" 
d="M881 -369v369h-275q-227 0 -373.5 148t-146.5 395q0 245 146 393.5t374 148.5h359q60 0 98.5 -38.5t38.5 -98.5v-1317h-221zM311 543q0 -170 83 -262.5t239 -92.5h248v709h-248q-156 0 -239 -93t-83 -261z" />
    <glyph glyph-name="r" unicode="r" horiz-adv-x="729" 
d="M133 948q0 61 38.5 99t98.5 38h389v-190h-305v-895h-221v948z" />
    <glyph glyph-name="s" unicode="s" horiz-adv-x="1081" 
d="M543 -20q-130 0 -229.5 37.5t-163 119t-72.5 201.5h227q34 -186 242 -186q42 0 80 7t73 23t55.5 46t20.5 71q0 51 -37 84.5t-95.5 51.5t-130 33t-142.5 36t-129.5 51.5t-95.5 88.5t-37 140q0 103 58 177t152 109.5t213 35.5q197 0 315 -94t130 -258h-225
q-6 87 -62.5 133.5t-161.5 46.5q-82 0 -141 -32.5t-59 -96.5q0 -44 37 -75t96 -50t130.5 -36t143.5 -41.5t131 -58t96 -93t37 -140.5q0 -84 -37 -149t-101 -104t-144.5 -58.5t-173.5 -19.5z" />
    <glyph glyph-name="t" unicode="t" horiz-adv-x="778" 
d="M692 1085v-190h-239v-709h239v-186h-323q-60 0 -99 38.5t-39 98.5v758h-161v190h161v277h222v-277h239z" />
    <glyph glyph-name="u" unicode="u" horiz-adv-x="1167" 
d="M518 0q-174 0 -286.5 112t-112.5 316v657h221v-639q0 -258 231 -258h242v897h221v-948q0 -60 -38.5 -98.5t-98.5 -38.5h-379z" />
    <glyph glyph-name="v" unicode="v" horiz-adv-x="1183" 
d="M430 0l-367 1067v18h230l203 -643l77 -252h39l78 252l203 643h227v-18l-366 -1067h-324z" />
    <glyph glyph-name="w" unicode="w" horiz-adv-x="1767" 
d="M1245 190h29l53 252l150 643h225v-16l-283 -1069h-319l-150 643l-49 252h-33l-51 -252l-149 -643h-320l-282 1069v16h225l149 -643l54 -252h30l49 252l150 643h321l150 -643z" />
    <glyph glyph-name="x" unicode="x" horiz-adv-x="1198" 
d="M819 535l314 -521v-14h-234l-262 455h-76l-262 -455h-233v14l313 521v40l-313 496v14h233l262 -440h76l262 440h234v-14l-314 -496v-40z" />
    <glyph glyph-name="y" unicode="y" horiz-adv-x="1185" 
d="M205 -369v187h299l49 186h-125l-365 1065v16h230l205 -643l75 -252h39l76 252l205 643h227v-16l-448 -1313q-42 -125 -172 -125h-295z" />
    <glyph glyph-name="z" unicode="z" horiz-adv-x="1054" 
d="M80 0v156l596 739h-574v190h861v-155l-601 -740h611v-190h-893z" />
    <glyph glyph-name="braceleft" unicode="{" horiz-adv-x="659" 
d="M324 -330q-58 0 -94.5 36t-36.5 93v633l-134 139v84l134 140v632q0 57 36.5 93t94.5 36h264v-190h-180v-567q0 -31 -9.5 -49.5t-40.5 -51.5l-79 -82v-6l79 -82q31 -33 40.5 -51.5t9.5 -48.5v-567h180v-191h-264z" />
    <glyph glyph-name="bar" unicode="|" horiz-adv-x="626" 
d="M424 -205h-221v1659h221v-1659z" />
    <glyph glyph-name="braceright" unicode="}" horiz-adv-x="659" 
d="M336 1556q58 0 94.5 -36t36.5 -93v-632l133 -140v-84l-133 -139v-633q0 -57 -36.5 -93t-94.5 -36h-264v191h180v567q0 31 9 49.5t40 50.5l80 82v6l-80 82q-31 32 -40 51t-9 50v567h-180v190h264z" />
    <glyph glyph-name="asciitilde" unicode="~" horiz-adv-x="1210" 
d="M854 563q-75 0 -161 29.5t-162.5 58.5t-127.5 29q-117 0 -120 -115h-213q2 84 33 153.5t97 115t156 45.5q76 0 162.5 -29.5t162 -58.5t124.5 -29q119 0 125 115h211q-3 -132 -77.5 -223t-209.5 -91z" />
    <glyph glyph-name="uni00A0" unicode="&#xa0;" horiz-adv-x="446" 
 />
    <glyph glyph-name="exclamdown" unicode="&#xa1;" horiz-adv-x="507" 
d="M143 -369v1078h222v-1078h-222zM143 862v223h222v-223h-222z" />
    <glyph glyph-name="cent" unicode="&#xa2;" horiz-adv-x="1191" 
d="M78 727q0 224 117 368t303 183v176h221v-172q162 -26 266 -126t137 -230h-233q-26 70 -94 127t-177 57q-61 0 -117 -24t-101 -69.5t-72 -120.5t-27 -169t27 -169t72 -120.5t101 -69.5t117 -24q109 0 177 57t94 127h233q-33 -130 -137 -230t-266 -126v-172h-221v176
q-186 39 -303 183t-117 368z" />
    <glyph glyph-name="sterling" unicode="&#xa3;" horiz-adv-x="1185" 
d="M80 0v195h170v458h-170v193h170v203q0 88 25.5 163.5t76.5 135t136 93.5t196 34q194 0 306.5 -106t121.5 -294h-223q-21 215 -207 215q-102 0 -153.5 -61t-51.5 -162v-221h344v-193h-344v-458h617v-195h-1014z" />
    <glyph glyph-name="currency" unicode="&#xa4;" horiz-adv-x="1150" 
d="M578 248q-136 0 -246 69l-109 -110l-151 151l108 109q-67 112 -67 246q0 132 67 241l-108 109l151 151l109 -110q109 70 246 70q129 0 243 -70l109 108l149 -149l-108 -109q67 -109 67 -241q0 -136 -69 -246l110 -109l-149 -149l-109 108q-107 -69 -243 -69zM301 713
q0 -114 81 -195.5t196 -81.5q114 0 193 81.5t79 195.5q0 111 -79 191.5t-193 80.5q-116 0 -196.5 -80.5t-80.5 -191.5z" />
    <glyph glyph-name="yen" unicode="&#xa5;" horiz-adv-x="1320" 
d="M207 801h221l-371 645v8h242l229 -416l127 -237h11l127 237l229 416h244v-8l-373 -645h223v-176h-325l-19 -31v-90h344v-174h-344v-330h-225v330h-340v174h340v88l-19 33h-321v176z" />
    <glyph glyph-name="brokenbar" unicode="&#xa6;" horiz-adv-x="591" 
d="M406 410v-615h-222v615h222zM184 840v614h222v-614h-222z" />
    <glyph glyph-name="section" unicode="&#xa7;" horiz-adv-x="1302" 
d="M651 -207q-144 0 -255 44t-176 134t-66 215h225q3 -100 83.5 -163.5t192.5 -63.5q121 0 187.5 44t66.5 120q0 43 -26 74.5t-70.5 51.5t-101.5 35.5t-120.5 30t-127 31.5t-120.5 43.5t-101.5 62t-70.5 91.5t-26 127q0 85 51.5 152t143.5 102q-145 83 -145 237
q0 140 121.5 227t324.5 87q218 0 346.5 -99.5t132.5 -273.5h-223q-3 102 -71.5 159.5t-186.5 57.5q-106 0 -163.5 -40.5t-57.5 -111.5q0 -50 31.5 -86t83.5 -54.5t118 -36t135 -30.5t135.5 -38t118.5 -58t84 -91.5t33 -137.5q0 -93 -48.5 -163.5t-139.5 -106.5
q166 -83 166 -234q0 -157 -129.5 -247.5t-354.5 -90.5zM369 674q0 -35 18.5 -64t44.5 -48.5t73 -39.5t85 -32t100 -29q117 1 179.5 46t62.5 120q0 23 -6 43t-21.5 37t-29 29.5t-42.5 25t-46.5 20t-56 18.5t-57.5 15.5t-63 15.5q-121 -3 -181 -46t-60 -111z" />
    <glyph glyph-name="dieresis" unicode="&#xa8;" horiz-adv-x="813" 
d="M504 1223v209h207v-209h-207zM102 1223v209h207v-209h-207z" />
    <glyph glyph-name="copyright" unicode="&#xa9;" horiz-adv-x="1792" 
d="M893 -20q-204 0 -375.5 99.5t-271 271.5t-99.5 378q0 153 58.5 291t158.5 237.5t239 158.5t294 59q153 0 292 -59t238.5 -158.5t158.5 -237.5t59 -291q0 -155 -59 -294t-159.5 -238.5t-240 -158t-293.5 -58.5zM250 729q0 -135 50.5 -256t136.5 -208.5t205.5 -139
t252.5 -51.5q175 0 324 86.5t237 237.5t88 331q0 178 -87.5 327t-236 234.5t-323.5 85.5q-135 0 -255 -50.5t-206 -137t-136 -206t-50 -253.5zM446 727q0 110 36.5 200.5t98.5 149t143.5 90t172.5 31.5q170 0 279 -89t141 -216h-195q-22 60 -78 108t-147 48
q-110 0 -188 -83.5t-78 -238.5t78 -238t188 -83q91 0 147 47.5t78 107.5h195q-32 -127 -141 -216t-279 -89q-123 0 -224 53t-164 162t-63 256z" />
    <glyph glyph-name="ordfeminine" unicode="&#xaa;" horiz-adv-x="686" 
d="M256 854q-99 0 -158 44.5t-59 129.5q0 86 56 126.5t190 51.5l172 15v36q0 95 -113 95q-106 0 -115 -88h-161q3 102 80 152t200 50q126 0 198 -54t72 -165v-307q0 -37 -26 -61.5t-64 -24.5h-272zM207 1032q0 -38 23 -53.5t69 -15.5h158v155l-135 -14q-56 -5 -85.5 -20.5
t-29.5 -51.5z" />
    <glyph glyph-name="guillemotleft" unicode="&#xab;" horiz-adv-x="1110" 
d="M344 143l-240 402l240 399h236l-242 -399l242 -402h-236zM526 545l240 399h235l-241 -399l241 -402h-235z" />
    <glyph glyph-name="logicalnot" unicode="&#xac;" horiz-adv-x="1357" 
d="M961 426v405h-809v193h1003v-598h-194z" />
    <glyph glyph-name="uni00AD" unicode="&#xad;" horiz-adv-x="868" 
d="M113 473v184h643v-184h-643z" />
    <glyph glyph-name="registered" unicode="&#xae;" horiz-adv-x="1792" 
d="M893 -20q-204 0 -375.5 99.5t-271 271.5t-99.5 378q0 153 58.5 291t158.5 237.5t239 158.5t294 59q153 0 292 -59t238.5 -158.5t158.5 -237.5t59 -291q0 -155 -59 -294t-159.5 -238.5t-240 -158t-293.5 -58.5zM250 729q0 -135 50.5 -256t136.5 -208.5t205.5 -139
t252.5 -51.5q175 0 324 86.5t237 237.5t88 331q0 178 -87.5 327t-236 234.5t-323.5 85.5q-135 0 -255 -50.5t-206 -137t-136 -206t-50 -253.5zM565 266v830q0 40 25 65t65 25h326q132 0 213.5 -75.5t81.5 -205.5q0 -105 -52 -176t-145 -94l219 -369h-194l-201 357h-168v-357
h-170zM735 764h244q119 0 119 141q0 64 -35 100.5t-100 36.5h-228v-278z" />
    <glyph glyph-name="macron" unicode="&#xaf;" horiz-adv-x="841" 
d="M102 1407h637v-160h-637v160z" />
    <glyph glyph-name="degree" unicode="&#xb0;" horiz-adv-x="966" 
d="M807 1151q0 -135 -95 -230.5t-231 -95.5q-135 0 -229 95.5t-94 230.5t94.5 229.5t230.5 94.5q135 0 229.5 -94.5t94.5 -229.5zM317 1151q0 -69 48.5 -118.5t117.5 -49.5q68 0 117 49t49 119q0 68 -49 116t-117 48q-69 0 -117.5 -47.5t-48.5 -116.5z" />
    <glyph glyph-name="plusminus" unicode="&#xb1;" horiz-adv-x="1171" 
d="M487 414v356h-403v188h403v359h195v-359h405v-188h-405v-356h-195zM88 139v187h997v-187h-997z" />
    <glyph glyph-name="uni00B2" unicode="&#xb2;" horiz-adv-x="696" 
d="M47 989q261 194 343.5 277t82.5 155q0 56 -34.5 85.5t-92.5 29.5q-62 0 -100 -35.5t-39 -95.5h-176q4 131 91.5 196.5t225.5 65.5q134 0 218.5 -66t84.5 -171q0 -107 -81 -200.5t-287 -225.5v-9l139 6h225v-147h-600v135z" />
    <glyph glyph-name="uni00B3" unicode="&#xb3;" horiz-adv-x="704" 
d="M348 842q-139 0 -227 64.5t-92 185.5h176q3 -53 40.5 -85t98.5 -32q62 0 101.5 31t39.5 86t-44 81.5t-115 26.5h-64v133h64q69 0 111 29t42 80q0 44 -38 69t-93 25q-119 0 -131 -106h-174q4 111 87 175t218 64q133 0 219 -59t86 -154q0 -61 -37.5 -109t-95.5 -67v-8
q65 -23 104.5 -71.5t39.5 -117.5q0 -113 -89.5 -177t-226.5 -64z" />
    <glyph glyph-name="acute" unicode="&#xb4;" horiz-adv-x="712" 
d="M102 1200l224 254h284l-309 -254h-199z" />
    <glyph glyph-name="uni00B5" unicode="&#xb5;" horiz-adv-x="1167" 
d="M604 -20q-154 0 -248 88v-437h-221v1454h221v-655q0 -127 63 -198.5t183 -71.5q121 0 182.5 65t61.5 205v655h221v-632q0 -224 -119 -348.5t-344 -124.5z" />
    <glyph glyph-name="paragraph" unicode="&#xb6;" horiz-adv-x="1425" 
d="M1053 1454h204v-1823h-204v1823zM76 922q0 146 67 267t190 193t277 72h305v-1823h-204v758h-101q-154 0 -277 71.5t-190 193t-67 268.5z" />
    <glyph glyph-name="periodcentered" unicode="&#xb7;" horiz-adv-x="491" 
d="M135 432v232h221v-232h-221z" />
    <glyph glyph-name="cedilla" unicode="&#xb8;" horiz-adv-x="624" 
d="M115 -217l61 221l162 -4l-62 -111v-16h52q78 0 136 -43.5t58 -124.5v-4q0 -85 -57.5 -128.5t-136.5 -43.5h-226v104h174q41 0 63.5 18t22.5 50v4q0 30 -22.5 47t-63.5 17h-147z" />
    <glyph glyph-name="uni00B9" unicode="&#xb9;" horiz-adv-x="473" 
d="M219 854v657h-201v146h285q37 0 62.5 -25.5t25.5 -62.5v-715h-172z" />
    <glyph glyph-name="ordmasculine" unicode="&#xba;" horiz-adv-x="741" 
d="M371 842q-140 0 -234 83.5t-94 227.5q0 146 93.5 229.5t234.5 83.5q142 0 234.5 -83.5t92.5 -229.5q0 -145 -92.5 -228t-234.5 -83zM213 1153q0 -90 44.5 -138t113.5 -48q70 0 114.5 47.5t44.5 138.5t-44.5 138.5t-114.5 47.5t-114 -47.5t-44 -138.5z" />
    <glyph glyph-name="guillemotright" unicode="&#xbb;" horiz-adv-x="1110" 
d="M346 944l240 -401l-240 -400h-235l241 400l-241 401h235zM532 143l242 400l-242 401h236l240 -401l-240 -400h-236z" />
    <glyph glyph-name="onequarter" unicode="&#xbc;" horiz-adv-x="1544" 
d="M219 651v658h-201v145h285q37 0 62.5 -25.5t25.5 -62.5v-715h-172zM301 0l629 1454h166l-629 -1454h-166zM858 174v127l359 502h157q37 0 63.5 -25.5t26.5 -62.5v-715h-168v174h-438zM1042 317h254v183l4 151h-22l-236 -325v-9z" />
    <glyph glyph-name="onehalf" unicode="&#xbd;" horiz-adv-x="1593" 
d="M219 651v658h-201v145h285q37 0 62.5 -25.5t25.5 -62.5v-715h-172zM301 0l629 1454h166l-629 -1454h-166zM928 551q4 131 91.5 196.5t225.5 65.5q134 0 218.5 -66t84.5 -172q0 -107 -80.5 -199.5t-287.5 -225.5v-9l139 6h225v-147h-600v135q261 194 343.5 277t82.5 155
q0 56 -34.5 85.5t-92.5 29.5q-62 0 -100 -35.5t-39 -95.5h-176z" />
    <glyph glyph-name="threequarters" unicode="&#xbe;" horiz-adv-x="1773" 
d="M348 639q-139 0 -227 64.5t-92 185.5h176q3 -53 40.5 -85t98.5 -32q62 0 101.5 31t39.5 86t-44 81.5t-115 26.5h-64v133h64q69 0 111 29t42 80q0 44 -38 69t-93 25q-119 0 -131 -106h-174q4 111 87 175t218 64q133 0 219 -59t86 -154q0 -61 -37.5 -109t-95.5 -67v-8
q65 -23 104.5 -71t39.5 -117q0 -113 -89.5 -177.5t-226.5 -64.5zM528 0l629 1454h166l-629 -1454h-166zM1085 174v127l359 502h158q37 0 63.5 -25.5t26.5 -62.5v-715h-168v174h-439zM1270 317h254v183l4 151h-23l-235 -325v-9z" />
    <glyph glyph-name="questiondown" unicode="&#xbf;" horiz-adv-x="1099" 
d="M682 649q0 -67 -18 -125t-54 -106.5t-69 -82t-84 -75.5q-40 -35 -62 -56.5t-48 -54t-37 -68t-11 -77.5q0 -86 62.5 -142t183.5 -57q123 -1 191 74t71 207h227q-2 -215 -134.5 -345t-356.5 -130q-225 0 -348 111.5t-123 283.5q0 57 16 108t46.5 95t61 77t72.5 70
q56 49 85.5 78t58 66t39 72.5t10.5 80.5v56h221v-60zM461 862v223h221v-223h-221z" />
    <glyph glyph-name="Agrave" unicode="&#xc0;" horiz-adv-x="1470" 
d="M59 0l512 1454h340l514 -1454h-233l-156 461h-592l-157 -461h-228zM401 1804h287l221 -243h-202zM510 653h461l-113 332l-88 268h-59l-88 -268z" />
    <glyph glyph-name="Aacute" unicode="&#xc1;" horiz-adv-x="1470" 
d="M59 0l512 1454h340l514 -1454h-233l-156 461h-592l-157 -461h-228zM510 653h461l-113 332l-88 268h-59l-88 -268zM573 1561l222 243h286l-305 -243h-203z" />
    <glyph glyph-name="Acircumflex" unicode="&#xc2;" horiz-adv-x="1470" 
d="M59 0l512 1454h340l514 -1454h-233l-156 461h-592l-157 -461h-228zM410 1561l200 243h267l198 -243h-203l-114 118h-31l-113 -118h-204zM510 653h461l-113 332l-88 268h-59l-88 -268z" />
    <glyph glyph-name="Atilde" unicode="&#xc3;" horiz-adv-x="1470" 
d="M59 0l512 1454h340l514 -1454h-233l-156 461h-592l-157 -461h-228zM371 1561q5 110 69 185t158 75q46 0 89.5 -18t71 -39.5t58 -39.5t53.5 -18q43 0 61.5 27t20.5 82h170q-3 -109 -67.5 -186t-157.5 -77q-46 0 -89.5 18.5t-71.5 40t-59 40t-54 18.5q-79 0 -82 -108h-170z
M510 653h461l-113 332l-88 268h-59l-88 -268z" />
    <glyph glyph-name="Adieresis" unicode="&#xc4;" horiz-adv-x="1470" 
d="M59 0l512 1454h340l514 -1454h-233l-156 461h-592l-157 -461h-228zM438 1577v211h207v-211h-207zM510 653h461l-113 332l-88 268h-59l-88 -268zM840 1577v211h207v-211h-207z" />
    <glyph glyph-name="Aring" unicode="&#xc5;" horiz-adv-x="1470" 
d="M59 0l512 1454h340l514 -1454h-233l-156 461h-592l-157 -461h-228zM510 653h461l-113 332l-88 268h-59l-88 -268zM537 1735q0 85 58 141.5t148 56.5q89 0 147 -56.5t58 -141.5q0 -90 -58 -145.5t-147 -55.5q-90 0 -148 55.5t-58 145.5zM649 1735q0 -45 26.5 -71t67.5 -26
q40 0 66.5 26.5t26.5 70.5q0 37 -26.5 62.5t-66.5 25.5q-42 0 -68 -24.5t-26 -63.5z" />
    <glyph glyph-name="AE" unicode="&#xc6;" horiz-adv-x="1976" 
d="M63 0l512 1454h1317v-197h-665v-432h592v-194h-592v-434h676v-197h-904v461h-550l-156 -461h-230zM514 653h485v604h-280z" />
    <glyph glyph-name="Ccedilla" unicode="&#xc7;" horiz-adv-x="1556" 
d="M655 -471v104h174q41 0 63.5 18t22.5 50v4q0 30 -22.5 47t-63.5 17h-147l-14 14l55 201q-133 13 -248 68.5t-203.5 148t-139 228.5t-50.5 300q0 174 58.5 317t159 235.5t231 143t276.5 50.5q139 0 258.5 -39t204.5 -107.5t140.5 -158.5t76.5 -195h-244q-15 58 -47.5 110
t-84 96.5t-130 70.5t-174.5 26q-100 0 -188 -34.5t-157 -101t-109 -173t-40 -240.5q0 -136 40 -243.5t109 -174t157 -101t188 -34.5q96 0 174.5 26t130 70.5t84 96.5t47.5 110h244q-40 -201 -200 -338.5t-406 -158.5l-52 -93v-16h52q78 0 136 -43.5t58 -124.5v-4
q0 -85 -57.5 -128.5t-136.5 -43.5h-226z" />
    <glyph glyph-name="Egrave" unicode="&#xc8;" horiz-adv-x="1118" 
d="M139 1317q0 60 38.5 98.5t98.5 38.5h756v-197h-665v-432h591v-194h-591v-434h675v-197h-903v1317zM250 1804h287l221 -243h-203z" />
    <glyph glyph-name="Eacute" unicode="&#xc9;" horiz-adv-x="1118" 
d="M139 1317q0 60 38.5 98.5t98.5 38.5h756v-197h-665v-432h591v-194h-591v-434h675v-197h-903v1317zM422 1561l221 243h287l-305 -243h-203z" />
    <glyph glyph-name="Ecircumflex" unicode="&#xca;" horiz-adv-x="1118" 
d="M139 1317q0 60 38.5 98.5t98.5 38.5h756v-197h-665v-432h591v-194h-591v-434h675v-197h-903v1317zM258 1561l201 243h266l199 -243h-203l-115 118h-31l-112 -118h-205z" />
    <glyph glyph-name="Edieresis" unicode="&#xcb;" horiz-adv-x="1118" 
d="M139 1317q0 60 38.5 98.5t98.5 38.5h756v-197h-665v-432h591v-194h-591v-434h675v-197h-903v1317zM287 1577v211h207v-211h-207zM688 1577v211h207v-211h-207z" />
    <glyph glyph-name="Igrave" unicode="&#xcc;" horiz-adv-x="503" 
d="M139 1454h228v-1454h-228v1454zM-88 1804h287l221 -243h-203z" />
    <glyph glyph-name="Iacute" unicode="&#xcd;" horiz-adv-x="503" 
d="M139 1454h228v-1454h-228v1454zM84 1561l221 243h287l-305 -243h-203z" />
    <glyph glyph-name="Icircumflex" unicode="&#xce;" horiz-adv-x="503" 
d="M139 1454h228v-1454h-228v1454zM-80 1561l201 243h266l199 -243h-203l-115 118h-30l-113 -118h-205z" />
    <glyph glyph-name="Idieresis" unicode="&#xcf;" horiz-adv-x="503" 
d="M139 1454h228v-1454h-228v1454zM-51 1577v211h207v-211h-207zM350 1577v211h207v-211h-207z" />
    <glyph glyph-name="Eth" unicode="&#xd0;" horiz-adv-x="1544" 
d="M233 1317q0 60 39 98.5t99 38.5h399q155 0 285 -53.5t219 -148.5t138.5 -228.5t49.5 -290.5q0 -331 -190.5 -532t-501.5 -201h-537v631h-161v192h161v494zM461 195h291q224 0 351.5 145.5t127.5 392.5q0 242 -128.5 384.5t-350.5 142.5h-291v-437h336v-192h-336v-436z
" />
    <glyph glyph-name="Ntilde" unicode="&#xd1;" horiz-adv-x="1460" 
d="M139 1317q0 60 38.5 98.5t98.5 38.5h252l396 -919l127 -314h55v1233h215v-1454h-389l-395 920l-127 313h-56v-1233h-215v1317zM358 1561q5 110 69.5 185t158.5 75q46 0 89.5 -18t71 -39.5t58 -39.5t53.5 -18q43 0 61.5 27t20.5 82h170q-3 -109 -67.5 -186t-157.5 -77
q-46 0 -89.5 18.5t-71.5 40t-59.5 40t-54.5 18.5q-79 0 -82 -108h-170z" />
    <glyph glyph-name="Ograve" unicode="&#xd2;" horiz-adv-x="1613" 
d="M807 -20q-146 0 -276.5 50t-231 143t-159 236t-58.5 318q0 140 38 260.5t105.5 209t159 152t199 95t223.5 31.5q146 0 276.5 -50.5t231 -143.5t159 -236t58.5 -316q0 -140 -38 -261t-105.5 -210t-159 -152t-199 -94.5t-223.5 -31.5zM313 727q0 -132 39.5 -238
t107.5 -173.5t156.5 -103.5t190.5 -36t190.5 35.5t156.5 103.5t107 174.5t39 239.5q0 131 -39 237t-107 173t-156.5 103t-190.5 36t-190.5 -36t-156.5 -104t-107.5 -174t-39.5 -237zM467 1804h287l221 -243h-203z" />
    <glyph glyph-name="Oacute" unicode="&#xd3;" horiz-adv-x="1613" 
d="M807 -20q-146 0 -276.5 50t-231 143t-159 236t-58.5 318q0 140 38 260.5t105.5 209t159 152t199 95t223.5 31.5q146 0 276.5 -50.5t231 -143.5t159 -236t58.5 -316q0 -140 -38 -261t-105.5 -210t-159 -152t-199 -94.5t-223.5 -31.5zM313 727q0 -132 39.5 -238
t107.5 -173.5t156.5 -103.5t190.5 -36t190.5 35.5t156.5 103.5t107 174.5t39 239.5q0 131 -39 237t-107 173t-156.5 103t-190.5 36t-190.5 -36t-156.5 -104t-107.5 -174t-39.5 -237zM639 1561l221 243h287l-305 -243h-203z" />
    <glyph glyph-name="Ocircumflex" unicode="&#xd4;" horiz-adv-x="1613" 
d="M807 -20q-146 0 -276.5 50t-231 143t-159 236t-58.5 318q0 140 38 260.5t105.5 209t159 152t199 95t223.5 31.5q146 0 276.5 -50.5t231 -143.5t159 -236t58.5 -316q0 -140 -38 -261t-105.5 -210t-159 -152t-199 -94.5t-223.5 -31.5zM313 727q0 -132 39.5 -238
t107.5 -173.5t156.5 -103.5t190.5 -36t190.5 35.5t156.5 103.5t107 174.5t39 239.5q0 131 -39 237t-107 173t-156.5 103t-190.5 36t-190.5 -36t-156.5 -104t-107.5 -174t-39.5 -237zM475 1561l201 243h266l199 -243h-203l-115 118h-30l-113 -118h-205z" />
    <glyph glyph-name="Otilde" unicode="&#xd5;" horiz-adv-x="1613" 
d="M807 -20q-146 0 -276.5 50t-231 143t-159 236t-58.5 318q0 140 38 260.5t105.5 209t159 152t199 95t223.5 31.5q146 0 276.5 -50.5t231 -143.5t159 -236t58.5 -316q0 -140 -38 -261t-105.5 -210t-159 -152t-199 -94.5t-223.5 -31.5zM313 727q0 -132 39.5 -238
t107.5 -173.5t156.5 -103.5t190.5 -36t190.5 35.5t156.5 103.5t107 174.5t39 239.5q0 131 -39 237t-107 173t-156.5 103t-190.5 36t-190.5 -36t-156.5 -104t-107.5 -174t-39.5 -237zM436 1561q5 110 69.5 185t158.5 75q46 0 89.5 -18t71 -39.5t58 -39.5t53.5 -18
q43 0 61.5 27t20.5 82h170q-3 -109 -67.5 -186t-157.5 -77q-46 0 -89.5 18.5t-71.5 40t-59.5 40t-54.5 18.5q-79 0 -82 -108h-170z" />
    <glyph glyph-name="Odieresis" unicode="&#xd6;" horiz-adv-x="1613" 
d="M807 -20q-146 0 -276.5 50t-231 143t-159 236t-58.5 318q0 140 38 260.5t105.5 209t159 152t199 95t223.5 31.5q146 0 276.5 -50.5t231 -143.5t159 -236t58.5 -316q0 -140 -38 -261t-105.5 -210t-159 -152t-199 -94.5t-223.5 -31.5zM313 727q0 -132 39.5 -238
t107.5 -173.5t156.5 -103.5t190.5 -36t190.5 35.5t156.5 103.5t107 174.5t39 239.5q0 131 -39 237t-107 173t-156.5 103t-190.5 36t-190.5 -36t-156.5 -104t-107.5 -174t-39.5 -237zM504 1577v211h207v-211h-207zM905 1577v211h207v-211h-207z" />
    <glyph glyph-name="multiply" unicode="&#xd7;" horiz-adv-x="1089" 
d="M205 252l-137 135l342 344l-342 342l137 135l340 -342l342 342l135 -137l-340 -340l340 -342l-135 -137l-342 342z" />
    <glyph glyph-name="Oslash" unicode="&#xd8;" horiz-adv-x="1613" 
d="M807 -20q-193 0 -361 88l-104 -150h-217l178 252q-221 208 -221 557q0 140 38 260.5t105.5 209t159 152t199 95t223.5 31.5q198 0 358 -86l105 147h217l-178 -250q105 -99 164 -240t59 -317q0 -140 -38 -261t-105.5 -210t-159 -152t-199 -94.5t-223.5 -31.5zM313 727
q0 -229 117 -379l614 873q-102 57 -237 57q-102 0 -190.5 -36t-156.5 -104t-107.5 -174t-39.5 -237zM567 233q111 -57 240 -57q102 0 190.5 35.5t156.5 103.5t107 174.5t39 239.5q0 232 -118 379z" />
    <glyph glyph-name="Ugrave" unicode="&#xd9;" horiz-adv-x="1398" 
d="M700 -20q-124 0 -224 37.5t-161.5 95.5t-103 133t-58 145t-16.5 137v926h228v-917q0 -161 97 -259t238 -98q140 0 238 98t98 259v917h226v-926q0 -67 -16.5 -137t-58 -145t-103 -133t-161.5 -95.5t-223 -37.5zM358 1804h287l221 -243h-202z" />
    <glyph glyph-name="Uacute" unicode="&#xda;" horiz-adv-x="1398" 
d="M700 -20q-124 0 -224 37.5t-161.5 95.5t-103 133t-58 145t-16.5 137v926h228v-917q0 -161 97 -259t238 -98q140 0 238 98t98 259v917h226v-926q0 -67 -16.5 -137t-58 -145t-103 -133t-161.5 -95.5t-223 -37.5zM530 1561l222 243h286l-305 -243h-203z" />
    <glyph glyph-name="Ucircumflex" unicode="&#xdb;" horiz-adv-x="1398" 
d="M700 -20q-124 0 -224 37.5t-161.5 95.5t-103 133t-58 145t-16.5 137v926h228v-917q0 -161 97 -259t238 -98q140 0 238 98t98 259v917h226v-926q0 -67 -16.5 -137t-58 -145t-103 -133t-161.5 -95.5t-223 -37.5zM367 1561l200 243h267l198 -243h-203l-114 118h-31
l-113 -118h-204z" />
    <glyph glyph-name="Udieresis" unicode="&#xdc;" horiz-adv-x="1398" 
d="M700 -20q-124 0 -224 37.5t-161.5 95.5t-103 133t-58 145t-16.5 137v926h228v-917q0 -161 97 -259t238 -98q140 0 238 98t98 259v917h226v-926q0 -67 -16.5 -137t-58 -145t-103 -133t-161.5 -95.5t-223 -37.5zM395 1577v211h207v-211h-207zM797 1577v211h207v-211h-207z
" />
    <glyph glyph-name="Yacute" unicode="&#xdd;" horiz-adv-x="1275" 
d="M522 592l-465 854v8h244l215 -416l117 -237h8l117 237l217 416h244v-8l-469 -852v-594h-228v592zM469 1561l221 243h287l-305 -243h-203z" />
    <glyph glyph-name="Thorn" unicode="&#xde;" horiz-adv-x="1232" 
d="M139 0v1454h228v-301h342q203 0 326.5 -113.5t123.5 -308.5q0 -205 -120.5 -317.5t-321.5 -112.5h-350v-301h-228zM367 496h352q108 0 158.5 62.5t50.5 172.5t-58.5 168.5t-171.5 58.5h-331v-462z" />
    <glyph glyph-name="germandbls" unicode="&#xdf;" horiz-adv-x="1224" 
d="M135 983q0 235 121.5 363.5t357.5 128.5q196 0 324.5 -105.5t128.5 -271.5q0 -102 -52.5 -184.5t-129.5 -114.5q111 -36 185.5 -130.5t74.5 -240.5q0 -186 -126.5 -307t-324.5 -121h-202v190h174q120 0 188 69t68 171q0 114 -66 181t-190 67h-174v186h108q116 0 184 64.5
t68 163.5q0 97 -67.5 148.5t-170.5 51.5q-139 0 -198.5 -73t-59.5 -209v-1010h-221v983z" />
    <glyph glyph-name="agrave" unicode="&#xe0;" horiz-adv-x="1148" 
d="M457 0q-171 0 -273 78t-102 233q0 87 26.5 146t83.5 94.5t128.5 54t179.5 29.5l315 31v73q0 193 -231 193q-112 0 -167 -42.5t-67 -135.5h-223q6 167 133 259.5t332 92.5q201 0 319.5 -93.5t118.5 -279.5v-596q0 -60 -39 -98.5t-100 -38.5h-434zM264 1454h285l223 -254
h-199zM305 322q0 -80 43.5 -111t136.5 -31h330v322l-272 -31q-133 -14 -185.5 -46.5t-52.5 -102.5z" />
    <glyph glyph-name="aacute" unicode="&#xe1;" horiz-adv-x="1148" 
d="M457 0q-171 0 -273 78t-102 233q0 87 26.5 146t83.5 94.5t128.5 54t179.5 29.5l315 31v73q0 193 -231 193q-112 0 -167 -42.5t-67 -135.5h-223q6 167 133 259.5t332 92.5q201 0 319.5 -93.5t118.5 -279.5v-596q0 -60 -39 -98.5t-100 -38.5h-434zM305 322q0 -80 43.5 -111
t136.5 -31h330v322l-272 -31q-133 -14 -185.5 -46.5t-52.5 -102.5zM444 1200l224 254h284l-309 -254h-199z" />
    <glyph glyph-name="acircumflex" unicode="&#xe2;" horiz-adv-x="1148" 
d="M457 0q-171 0 -273 78t-102 233q0 87 26.5 146t83.5 94.5t128.5 54t179.5 29.5l315 31v73q0 193 -231 193q-112 0 -167 -42.5t-67 -135.5h-223q6 167 133 259.5t332 92.5q201 0 319.5 -93.5t118.5 -279.5v-596q0 -60 -39 -98.5t-100 -38.5h-434zM258 1200l201 254h266
l199 -254h-203l-115 129h-31l-112 -129h-205zM305 322q0 -80 43.5 -111t136.5 -31h330v322l-272 -31q-133 -14 -185.5 -46.5t-52.5 -102.5z" />
    <glyph glyph-name="atilde" unicode="&#xe3;" horiz-adv-x="1148" 
d="M457 0q-171 0 -273 78t-102 233q0 87 26.5 146t83.5 94.5t128.5 54t179.5 29.5l315 31v73q0 193 -231 193q-112 0 -167 -42.5t-67 -135.5h-223q6 167 133 259.5t332 92.5q201 0 319.5 -93.5t118.5 -279.5v-596q0 -60 -39 -98.5t-100 -38.5h-434zM219 1198q5 109 69 184.5
t158 75.5q46 0 89.5 -18.5t71.5 -40t58.5 -40t53.5 -18.5q79 0 82 109h170q-3 -107 -68 -183.5t-158 -76.5q-46 0 -89.5 18.5t-71.5 40t-59 40t-54 18.5q-79 0 -82 -109h-170zM305 322q0 -80 43.5 -111t136.5 -31h330v322l-272 -31q-133 -14 -185.5 -46.5t-52.5 -102.5z" />
    <glyph glyph-name="adieresis" unicode="&#xe4;" horiz-adv-x="1148" 
d="M457 0q-171 0 -273 78t-102 233q0 87 26.5 146t83.5 94.5t128.5 54t179.5 29.5l315 31v73q0 193 -231 193q-112 0 -167 -42.5t-67 -135.5h-223q6 167 133 259.5t332 92.5q201 0 319.5 -93.5t118.5 -279.5v-596q0 -60 -39 -98.5t-100 -38.5h-434zM287 1223v209h207v-209
h-207zM305 322q0 -80 43.5 -111t136.5 -31h330v322l-272 -31q-133 -14 -185.5 -46.5t-52.5 -102.5zM688 1223v209h207v-209h-207z" />
    <glyph glyph-name="aring" unicode="&#xe5;" horiz-adv-x="1148" 
d="M457 0q-171 0 -273 78t-102 233q0 87 26.5 146t83.5 94.5t128.5 54t179.5 29.5l315 31v73q0 193 -231 193q-112 0 -167 -42.5t-67 -135.5h-223q6 167 133 259.5t332 92.5q201 0 319.5 -93.5t118.5 -279.5v-596q0 -60 -39 -98.5t-100 -38.5h-434zM305 322q0 -80 43.5 -111
t136.5 -31h330v322l-272 -31q-133 -14 -185.5 -46.5t-52.5 -102.5zM385 1374q0 85 58.5 142t148.5 57q89 0 147 -57t58 -142q0 -88 -58 -144t-147 -56q-90 0 -148.5 55.5t-58.5 144.5zM498 1374q0 -43 26.5 -69.5t67.5 -26.5q39 0 65.5 26.5t26.5 69.5q0 37 -26.5 63.5
t-65.5 26.5q-41 0 -67.5 -25t-26.5 -65z" />
    <glyph glyph-name="ae" unicode="&#xe6;" horiz-adv-x="1968" 
d="M457 0q-171 0 -273 78t-102 233q0 87 26.5 146t83.5 94.5t128.5 54t179.5 29.5l315 31v73q0 193 -231 193q-112 0 -167 -42.5t-67 -135.5h-223q6 167 133 259.5t332 92.5q267 0 377 -154q151 154 381 154q248 0 400 -171t134 -456h-848q18 -143 102.5 -233t211.5 -90
q95 0 165 49t103 133h235q-47 -165 -182.5 -261.5t-320.5 -96.5q-192 0 -328 104q-15 -39 -49.5 -61.5t-81.5 -22.5h-434zM305 322q0 -80 43.5 -111t136.5 -31h330v322l-272 -31q-133 -14 -185.5 -46.5t-52.5 -102.5zM1042 649h619q-24 128 -107.5 205.5t-203.5 77.5
t-201 -78t-107 -205z" />
    <glyph glyph-name="ccedilla" unicode="&#xe7;" horiz-adv-x="1206" 
d="M477 -471v104h174q41 0 63.5 18t22.5 50v4q0 30 -22.5 47t-63.5 17h-147l-15 14l56 203q-199 28 -328 174.5t-129 382.5q0 132 43.5 240t118.5 178t172.5 107.5t206.5 37.5q105 0 194 -31t150 -83.5t101.5 -116t58.5 -134.5h-234q-11 31 -31.5 60.5t-52 59t-80.5 47.5
t-106 18q-61 0 -117 -24t-101.5 -69.5t-72.5 -120.5t-27 -169t27 -169t72.5 -120.5t101.5 -69.5t117 -24q57 0 106 18t80.5 47t52 58.5t31.5 60.5h234q-17 -64 -51.5 -122.5t-86.5 -108.5t-127 -84t-163 -45l-54 -95v-16h51q78 0 136.5 -43.5t58.5 -124.5v-4q0 -84 -58 -128
t-137 -44h-225z" />
    <glyph glyph-name="egrave" unicode="&#xe8;" horiz-adv-x="1241" 
d="M623 -20q-237 0 -386 157t-149 406q0 247 150 405t385 158q248 0 400 -171t134 -456h-848q18 -143 102.5 -233t211.5 -90q95 0 165 49t103 133h235q-47 -165 -182.5 -261.5t-320.5 -96.5zM297 1454h285l223 -254h-199zM315 649h619q-24 128 -107.5 205.5t-203.5 77.5
t-201 -78t-107 -205z" />
    <glyph glyph-name="eacute" unicode="&#xe9;" horiz-adv-x="1241" 
d="M623 -20q-237 0 -386 157t-149 406q0 247 150 405t385 158q248 0 400 -171t134 -456h-848q18 -143 102.5 -233t211.5 -90q95 0 165 49t103 133h235q-47 -165 -182.5 -261.5t-320.5 -96.5zM315 649h619q-24 128 -107.5 205.5t-203.5 77.5t-201 -78t-107 -205zM477 1200
l223 254h285l-309 -254h-199z" />
    <glyph glyph-name="ecircumflex" unicode="&#xea;" horiz-adv-x="1241" 
d="M623 -20q-237 0 -386 157t-149 406q0 247 150 405t385 158q248 0 400 -171t134 -456h-848q18 -143 102.5 -233t211.5 -90q95 0 165 49t103 133h235q-47 -165 -182.5 -261.5t-320.5 -96.5zM291 1200l201 254h266l198 -254h-202l-115 129h-31l-112 -129h-205zM315 649h619
q-24 128 -107.5 205.5t-203.5 77.5t-201 -78t-107 -205z" />
    <glyph glyph-name="edieresis" unicode="&#xeb;" horiz-adv-x="1241" 
d="M623 -20q-237 0 -386 157t-149 406q0 247 150 405t385 158q248 0 400 -171t134 -456h-848q18 -143 102.5 -233t211.5 -90q95 0 165 49t103 133h235q-47 -165 -182.5 -261.5t-320.5 -96.5zM315 649h619q-24 128 -107.5 205.5t-203.5 77.5t-201 -78t-107 -205zM319 1223
v209h207v-209h-207zM721 1223v209h207v-209h-207z" />
    <glyph glyph-name="igrave" unicode="&#xec;" horiz-adv-x="491" 
d="M135 0v1085h221v-1085h-221zM-80 1454h285l223 -254h-199z" />
    <glyph glyph-name="iacute" unicode="&#xed;" horiz-adv-x="491" 
d="M135 0v1085h221v-1085h-221zM102 1200l224 254h284l-309 -254h-199z" />
    <glyph glyph-name="icircumflex" unicode="&#xee;" horiz-adv-x="491" 
d="M135 0v1085h221v-1085h-221zM-86 1200l201 254h266l199 -254h-203l-115 129h-31l-112 -129h-205z" />
    <glyph glyph-name="idieresis" unicode="&#xef;" horiz-adv-x="491" 
d="M135 0v1085h221v-1085h-221zM-57 1223v209h207v-209h-207zM344 1223v209h207v-209h-207z" />
    <glyph glyph-name="eth" unicode="&#xf0;" horiz-adv-x="1263" 
d="M629 -20q-237 0 -388 156.5t-151 406.5q0 163 67.5 291.5t186.5 200t268 71.5q128 0 238 -76q-63 98 -129 170l-457 -61v135l332 45q-92 77 -197 131v4h283q77 -56 127 -104l213 28v-137l-98 -12q245 -297 245 -664q0 -255 -148.5 -420t-391.5 -165zM315 543
q0 -167 89 -275t231 -108q141 0 230 108t89 275q0 168 -88 275.5t-231 107.5q-142 0 -231 -108t-89 -275z" />
    <glyph glyph-name="ntilde" unicode="&#xf1;" horiz-adv-x="1189" 
d="M133 948q0 60 38.5 98.5t98.5 38.5h402q176 0 287.5 -112t111.5 -316v-657h-221v639q0 258 -232 258h-264v-897h-221v948zM209 1198q5 109 69 184.5t158 75.5q46 0 89.5 -18.5t71.5 -40t58.5 -40t53.5 -18.5q79 0 82 109h170q-3 -107 -68 -183.5t-158 -76.5
q-46 0 -89.5 18.5t-71.5 40t-59 40t-54 18.5q-79 0 -82 -109h-170z" />
    <glyph glyph-name="ograve" unicode="&#xf2;" horiz-adv-x="1259" 
d="M629 -20q-109 0 -206.5 37.5t-172.5 107.5t-118.5 178t-43.5 240t43.5 240t118.5 178t172.5 107.5t206.5 37.5q110 0 207.5 -37.5t172.5 -106.5t118.5 -177.5t43.5 -241.5q0 -132 -43.5 -240t-118.5 -178t-172.5 -107.5t-207.5 -37.5zM303 1454h285l223 -254h-199z
M311 543q0 -94 27 -169t72.5 -120.5t101.5 -69.5t117 -24q62 0 118.5 24t101.5 69.5t72 120.5t27 169t-27 169t-72 120.5t-101.5 69.5t-118.5 24q-61 0 -117 -24t-101.5 -69.5t-72.5 -120.5t-27 -169z" />
    <glyph glyph-name="oacute" unicode="&#xf3;" horiz-adv-x="1259" 
d="M629 -20q-109 0 -206.5 37.5t-172.5 107.5t-118.5 178t-43.5 240t43.5 240t118.5 178t172.5 107.5t206.5 37.5q110 0 207.5 -37.5t172.5 -106.5t118.5 -177.5t43.5 -241.5q0 -132 -43.5 -240t-118.5 -178t-172.5 -107.5t-207.5 -37.5zM311 543q0 -94 27 -169t72.5 -120.5
t101.5 -69.5t117 -24q62 0 118.5 24t101.5 69.5t72 120.5t27 169t-27 169t-72 120.5t-101.5 69.5t-118.5 24q-61 0 -117 -24t-101.5 -69.5t-72.5 -120.5t-27 -169zM483 1200l224 254h284l-309 -254h-199z" />
    <glyph glyph-name="ocircumflex" unicode="&#xf4;" horiz-adv-x="1259" 
d="M629 -20q-109 0 -206.5 37.5t-172.5 107.5t-118.5 178t-43.5 240t43.5 240t118.5 178t172.5 107.5t206.5 37.5q110 0 207.5 -37.5t172.5 -106.5t118.5 -177.5t43.5 -241.5q0 -132 -43.5 -240t-118.5 -178t-172.5 -107.5t-207.5 -37.5zM297 1200l201 254h266l199 -254
h-203l-115 129h-31l-112 -129h-205zM311 543q0 -94 27 -169t72.5 -120.5t101.5 -69.5t117 -24q62 0 118.5 24t101.5 69.5t72 120.5t27 169t-27 169t-72 120.5t-101.5 69.5t-118.5 24q-61 0 -117 -24t-101.5 -69.5t-72.5 -120.5t-27 -169z" />
    <glyph glyph-name="otilde" unicode="&#xf5;" horiz-adv-x="1259" 
d="M629 -20q-109 0 -206.5 37.5t-172.5 107.5t-118.5 178t-43.5 240t43.5 240t118.5 178t172.5 107.5t206.5 37.5q110 0 207.5 -37.5t172.5 -106.5t118.5 -177.5t43.5 -241.5q0 -132 -43.5 -240t-118.5 -178t-172.5 -107.5t-207.5 -37.5zM258 1198q5 109 69 184.5t158 75.5
q46 0 89.5 -18.5t71.5 -40t58.5 -40t53.5 -18.5q79 0 82 109h170q-3 -107 -68 -183.5t-158 -76.5q-46 0 -89.5 18.5t-71 40t-59 40t-54.5 18.5q-79 0 -82 -109h-170zM311 543q0 -94 27 -169t72.5 -120.5t101.5 -69.5t117 -24q62 0 118.5 24t101.5 69.5t72 120.5t27 169
t-27 169t-72 120.5t-101.5 69.5t-118.5 24q-61 0 -117 -24t-101.5 -69.5t-72.5 -120.5t-27 -169z" />
    <glyph glyph-name="odieresis" unicode="&#xf6;" horiz-adv-x="1259" 
d="M629 -20q-109 0 -206.5 37.5t-172.5 107.5t-118.5 178t-43.5 240t43.5 240t118.5 178t172.5 107.5t206.5 37.5q110 0 207.5 -37.5t172.5 -106.5t118.5 -177.5t43.5 -241.5q0 -132 -43.5 -240t-118.5 -178t-172.5 -107.5t-207.5 -37.5zM311 543q0 -94 27 -169t72.5 -120.5
t101.5 -69.5t117 -24q62 0 118.5 24t101.5 69.5t72 120.5t27 169t-27 169t-72 120.5t-101.5 69.5t-118.5 24q-61 0 -117 -24t-101.5 -69.5t-72.5 -120.5t-27 -169zM326 1223v209h206v-209h-206zM727 1223v209h207v-209h-207z" />
    <glyph glyph-name="divide" unicode="&#xf7;" horiz-adv-x="1150" 
d="M74 633v190h1003v-190h-1003zM469 301v186h215v-186h-215zM469 969v186h215v-186h-215z" />
    <glyph glyph-name="oslash" unicode="&#xf8;" horiz-adv-x="1259" 
d="M629 -20q-141 0 -252 57l-84 -119h-209l156 219q-152 152 -152 406q0 132 43.5 240t118.5 178t172.5 107.5t206.5 37.5q143 0 254 -57l84 118h209l-154 -219q149 -152 149 -405q0 -132 -43.5 -240t-118.5 -178t-172.5 -107.5t-207.5 -37.5zM311 543q0 -133 54 -230
l409 578q-68 35 -145 35q-61 0 -117 -24t-101.5 -69.5t-72.5 -120.5t-27 -169zM487 195q68 -35 142 -35q62 0 118.5 24t101.5 69.5t72 120.5t27 169q0 136 -55 229z" />
    <glyph glyph-name="ugrave" unicode="&#xf9;" horiz-adv-x="1167" 
d="M518 0q-174 0 -286.5 112t-112.5 316v657h221v-639q0 -258 231 -258h242v897h221v-948q0 -60 -38.5 -98.5t-98.5 -38.5h-379zM250 1454h285l223 -254h-199z" />
    <glyph glyph-name="uacute" unicode="&#xfa;" horiz-adv-x="1167" 
d="M518 0q-174 0 -286.5 112t-112.5 316v657h221v-639q0 -258 231 -258h242v897h221v-948q0 -60 -38.5 -98.5t-98.5 -38.5h-379zM432 1200l223 254h285l-309 -254h-199z" />
    <glyph glyph-name="ucircumflex" unicode="&#xfb;" horiz-adv-x="1167" 
d="M518 0q-174 0 -286.5 112t-112.5 316v657h221v-639q0 -258 231 -258h242v897h221v-948q0 -60 -38.5 -98.5t-98.5 -38.5h-379zM244 1200l200 254h267l198 -254h-202l-115 129h-31l-112 -129h-205z" />
    <glyph glyph-name="udieresis" unicode="&#xfc;" horiz-adv-x="1167" 
d="M518 0q-174 0 -286.5 112t-112.5 316v657h221v-639q0 -258 231 -258h242v897h221v-948q0 -60 -38.5 -98.5t-98.5 -38.5h-379zM272 1223v209h207v-209h-207zM674 1223v209h207v-209h-207z" />
    <glyph glyph-name="yacute" unicode="&#xfd;" horiz-adv-x="1185" 
d="M205 -369v187h299l49 186h-125l-365 1065v16h230l205 -643l75 -252h39l76 252l205 643h227v-16l-448 -1313q-42 -125 -172 -125h-295zM446 1200l224 254h284l-309 -254h-199z" />
    <glyph glyph-name="thorn" unicode="&#xfe;" horiz-adv-x="1234" 
d="M133 -369v1823h221v-369h291q217 0 360.5 -149t143.5 -393q0 -246 -144 -394.5t-360 -148.5h-291v-369h-221zM354 188h248q156 0 239 92.5t83 262.5q0 168 -83 261t-239 93h-248v-709z" />
    <glyph glyph-name="ydieresis" unicode="&#xff;" horiz-adv-x="1185" 
d="M205 -369v187h299l49 186h-125l-365 1065v16h230l205 -643l75 -252h39l76 252l205 643h227v-16l-448 -1313q-42 -125 -172 -125h-295zM289 1223v209h207v-209h-207zM690 1223v209h207v-209h-207z" />
    <glyph glyph-name="Amacron" unicode="&#x100;" horiz-adv-x="1470" 
d="M59 0l512 1454h340l514 -1454h-233l-156 461h-592l-157 -461h-228zM424 1595v160h637v-160h-637zM510 653h461l-113 332l-88 268h-59l-88 -268z" />
    <glyph glyph-name="amacron" unicode="&#x101;" horiz-adv-x="1148" 
d="M457 0q-171 0 -273 78t-102 233q0 87 26.5 146t83.5 94.5t128.5 54t179.5 29.5l315 31v73q0 193 -231 193q-112 0 -167 -42.5t-67 -135.5h-223q6 167 133 259.5t332 92.5q201 0 319.5 -93.5t118.5 -279.5v-596q0 -60 -39 -98.5t-100 -38.5h-434zM272 1247v160h637v-160
h-637zM305 322q0 -80 43.5 -111t136.5 -31h330v322l-272 -31q-133 -14 -185.5 -46.5t-52.5 -102.5z" />
    <glyph glyph-name="Abreve" unicode="&#x102;" horiz-adv-x="1470" 
d="M59 0l512 1454h340l514 -1454h-233l-156 461h-592l-157 -461h-228zM590 1804q22 -112 151 -112q130 0 154 112h176q-10 -126 -97.5 -191t-232.5 -65q-147 0 -232 65t-95 191h176zM510 653h461l-113 332l-88 268h-59l-88 -268z" />
    <glyph glyph-name="abreve" unicode="&#x103;" horiz-adv-x="1148" 
d="M457 0q-171 0 -273 78t-102 233q0 87 26.5 146t83.5 94.5t128.5 54t179.5 29.5l315 31v73q0 193 -231 193q-112 0 -167 -42.5t-67 -135.5h-223q6 167 133 259.5t332 92.5q201 0 319.5 -93.5t118.5 -279.5v-596q0 -60 -39 -98.5t-100 -38.5h-434zM438 1454
q12 -60 52 -90.5t100 -30.5q127 0 153 121h177q-10 -127 -98.5 -195.5t-231.5 -68.5q-146 0 -232 68.5t-96 195.5h176zM305 322q0 -80 43.5 -111t136.5 -31h330v322l-272 -31q-133 -14 -185.5 -46.5t-52.5 -102.5z" />
    <glyph glyph-name="Aogonek" unicode="&#x104;" horiz-adv-x="1470" 
d="M59 0l512 1454h340l514 -1454q-159 -55 -159 -123q0 -28 26 -43.5t70 -15.5h63v-187h-100q-122 0 -186 50t-64 126q0 123 115 197l-154 457h-592l-157 -461h-228zM510 653h461l-113 332l-88 268h-59l-88 -268z" />
    <glyph glyph-name="aogonek" unicode="&#x105;" horiz-adv-x="1148" 
d="M926 -369q-122 0 -186 50t-64 126q0 120 110 193h-329q-171 0 -273 78t-102 233q0 87 26.5 146t83.5 94.5t128.5 54t179.5 29.5l315 31v73q0 193 -231 193q-112 0 -167 -42.5t-67 -135.5h-223q6 167 133 259.5t332 92.5q201 0 319.5 -93.5t118.5 -279.5v-596
q0 -39 -17 -67.5t-41 -46l-48 -35t-41 -45t-17 -64.5q0 -29 26 -45t71 -16h63v-187h-100zM305 322q0 -80 43.5 -111t136.5 -31h330v322l-272 -31q-133 -14 -185.5 -46.5t-52.5 -102.5z" />
    <glyph glyph-name="Cacute" unicode="&#x106;" horiz-adv-x="1556" 
d="M807 -20q-117 0 -224 31t-198.5 94t-159 151.5t-105.5 210t-38 262.5q0 174 58.5 317t159 235.5t231 143t276.5 50.5q139 0 258.5 -39t204.5 -107.5t140.5 -158.5t76.5 -195h-244q-15 58 -47.5 110t-84 96.5t-130 70.5t-174.5 26q-100 0 -188 -34.5t-157 -101t-109 -173
t-40 -240.5q0 -136 40 -243.5t109 -174t157 -101t188 -34.5q96 0 174.5 26t130 70.5t84 96.5t47.5 110h244q-21 -104 -76.5 -194.5t-140.5 -158.5t-204.5 -107t-258.5 -39zM639 1561l221 243h287l-305 -243h-203z" />
    <glyph glyph-name="cacute" unicode="&#x107;" horiz-adv-x="1206" 
d="M629 -20q-109 0 -206.5 37.5t-172.5 107.5t-118.5 178t-43.5 240t43.5 240t118.5 178t172.5 107.5t206.5 37.5q105 0 194 -31t150 -83.5t101.5 -116t58.5 -134.5h-234q-11 31 -31.5 60.5t-52 59t-80.5 47.5t-106 18q-61 0 -117 -24t-101.5 -69.5t-72.5 -120.5t-27 -169
t27 -169t72.5 -120.5t101.5 -69.5t117 -24q57 0 106 18t80.5 47t52 58.5t31.5 60.5h234q-18 -71 -58.5 -134t-101.5 -115.5t-150 -83.5t-194 -31zM483 1200l224 254h284l-309 -254h-199z" />
    <glyph glyph-name="Ccircumflex" unicode="&#x108;" horiz-adv-x="1556" 
d="M807 -20q-117 0 -224 31t-198.5 94t-159 151.5t-105.5 210t-38 262.5q0 174 58.5 317t159 235.5t231 143t276.5 50.5q139 0 258.5 -39t204.5 -107.5t140.5 -158.5t76.5 -195h-244q-15 58 -47.5 110t-84 96.5t-130 70.5t-174.5 26q-100 0 -188 -34.5t-157 -101t-109 -173
t-40 -240.5q0 -136 40 -243.5t109 -174t157 -101t188 -34.5q96 0 174.5 26t130 70.5t84 96.5t47.5 110h244q-21 -104 -76.5 -194.5t-140.5 -158.5t-204.5 -107t-258.5 -39zM475 1561l201 243h266l199 -243h-203l-115 118h-30l-113 -118h-205z" />
    <glyph glyph-name="ccircumflex" unicode="&#x109;" horiz-adv-x="1206" 
d="M629 -20q-109 0 -206.5 37.5t-172.5 107.5t-118.5 178t-43.5 240t43.5 240t118.5 178t172.5 107.5t206.5 37.5q105 0 194 -31t150 -83.5t101.5 -116t58.5 -134.5h-234q-11 31 -31.5 60.5t-52 59t-80.5 47.5t-106 18q-61 0 -117 -24t-101.5 -69.5t-72.5 -120.5t-27 -169
t27 -169t72.5 -120.5t101.5 -69.5t117 -24q57 0 106 18t80.5 47t52 58.5t31.5 60.5h234q-18 -71 -58.5 -134t-101.5 -115.5t-150 -83.5t-194 -31zM297 1200l201 254h266l199 -254h-203l-115 129h-31l-112 -129h-205z" />
    <glyph glyph-name="Cdotaccent" unicode="&#x10a;" horiz-adv-x="1556" 
d="M807 -20q-117 0 -224 31t-198.5 94t-159 151.5t-105.5 210t-38 262.5q0 174 58.5 317t159 235.5t231 143t276.5 50.5q139 0 258.5 -39t204.5 -107.5t140.5 -158.5t76.5 -195h-244q-15 58 -47.5 110t-84 96.5t-130 70.5t-174.5 26q-100 0 -188 -34.5t-157 -101t-109 -173
t-40 -240.5q0 -136 40 -243.5t109 -174t157 -101t188 -34.5q96 0 174.5 26t130 70.5t84 96.5t47.5 110h244q-21 -104 -76.5 -194.5t-140.5 -158.5t-204.5 -107t-258.5 -39zM692 1569v229h236v-229h-236z" />
    <glyph glyph-name="cdotaccent" unicode="&#x10b;" horiz-adv-x="1206" 
d="M629 -20q-109 0 -206.5 37.5t-172.5 107.5t-118.5 178t-43.5 240t43.5 240t118.5 178t172.5 107.5t206.5 37.5q105 0 194 -31t150 -83.5t101.5 -116t58.5 -134.5h-234q-11 31 -31.5 60.5t-52 59t-80.5 47.5t-106 18q-61 0 -117 -24t-101.5 -69.5t-72.5 -120.5t-27 -169
t27 -169t72.5 -120.5t101.5 -69.5t117 -24q57 0 106 18t80.5 47t52 58.5t31.5 60.5h234q-18 -71 -58.5 -134t-101.5 -115.5t-150 -83.5t-194 -31zM518 1229v225h221v-225h-221z" />
    <glyph glyph-name="Ccaron" unicode="&#x10c;" horiz-adv-x="1556" 
d="M807 -20q-117 0 -224 31t-198.5 94t-159 151.5t-105.5 210t-38 262.5q0 174 58.5 317t159 235.5t231 143t276.5 50.5q139 0 258.5 -39t204.5 -107.5t140.5 -158.5t76.5 -195h-244q-15 58 -47.5 110t-84 96.5t-130 70.5t-174.5 26q-100 0 -188 -34.5t-157 -101t-109 -173
t-40 -240.5q0 -136 40 -243.5t109 -174t157 -101t188 -34.5q96 0 174.5 26t130 70.5t84 96.5t47.5 110h244q-21 -104 -76.5 -194.5t-140.5 -158.5t-204.5 -107t-258.5 -39zM475 1804h205l113 -118h30l115 118h203l-199 -243h-266z" />
    <glyph glyph-name="ccaron" unicode="&#x10d;" horiz-adv-x="1206" 
d="M629 -20q-109 0 -206.5 37.5t-172.5 107.5t-118.5 178t-43.5 240t43.5 240t118.5 178t172.5 107.5t206.5 37.5q105 0 194 -31t150 -83.5t101.5 -116t58.5 -134.5h-234q-11 31 -31.5 60.5t-52 59t-80.5 47.5t-106 18q-61 0 -117 -24t-101.5 -69.5t-72.5 -120.5t-27 -169
t27 -169t72.5 -120.5t101.5 -69.5t117 -24q57 0 106 18t80.5 47t52 58.5t31.5 60.5h234q-18 -71 -58.5 -134t-101.5 -115.5t-150 -83.5t-194 -31zM297 1454h205l112 -129h31l115 129h203l-199 -254h-266z" />
    <glyph glyph-name="Dcaron" unicode="&#x10e;" horiz-adv-x="1449" 
d="M139 1317q0 60 38.5 98.5t98.5 38.5h400q155 0 285 -53.5t219 -148.5t138.5 -228.5t49.5 -290.5q0 -331 -190.5 -532t-501.5 -201h-537v1317zM297 1804h205l112 -118h31l115 118h203l-199 -243h-266zM367 195h290q224 0 352 145.5t128 392.5q0 242 -129 384.5t-351 142.5
h-290v-1065z" />
    <glyph glyph-name="dcaron" unicode="&#x10f;" horiz-adv-x="1234" 
d="M606 0q-227 0 -373.5 148t-146.5 395q0 245 146 393.5t374 148.5h275v369h221v-1317q0 -60 -38.5 -98.5t-98.5 -38.5h-359zM311 543q0 -170 83 -262.5t239 -92.5h248v709h-248q-156 0 -239 -93t-83 -261zM1221 1139l28 315h232l-103 -315h-157z" />
    <glyph glyph-name="Dcroat" unicode="&#x110;" horiz-adv-x="1544" 
d="M233 1317q0 60 39 98.5t99 38.5h399q155 0 285 -53.5t219 -148.5t138.5 -228.5t49.5 -290.5q0 -331 -190.5 -532t-501.5 -201h-537v631h-161v192h161v494zM461 195h291q224 0 351.5 145.5t127.5 392.5q0 242 -128.5 384.5t-350.5 142.5h-291v-437h336v-192h-336v-436z
" />
    <glyph glyph-name="dcroat" unicode="&#x111;" horiz-adv-x="1234" 
d="M606 0q-227 0 -373.5 148t-146.5 395q0 245 146 393.5t374 148.5h275v86h-240v156h240v127h221v-127h164v-156h-164v-1034q0 -60 -38.5 -98.5t-98.5 -38.5h-359zM311 543q0 -170 83 -262.5t239 -92.5h248v709h-248q-156 0 -239 -93t-83 -261z" />
    <glyph glyph-name="Emacron" unicode="&#x112;" horiz-adv-x="1118" 
d="M139 1317q0 60 38.5 98.5t98.5 38.5h756v-197h-665v-432h591v-194h-591v-434h675v-197h-903v1317zM252 1602v163h678v-163h-678z" />
    <glyph glyph-name="emacron" unicode="&#x113;" horiz-adv-x="1241" 
d="M623 -20q-237 0 -386 157t-149 406q0 247 150 405t385 158q248 0 400 -171t134 -456h-848q18 -143 102.5 -233t211.5 -90q95 0 165 49t103 133h235q-47 -165 -182.5 -261.5t-320.5 -96.5zM305 1247v160h637v-160h-637zM315 649h619q-24 128 -107.5 205.5t-203.5 77.5
t-201 -78t-107 -205z" />
    <glyph glyph-name="Ebreve" unicode="&#x114;" horiz-adv-x="1118" 
d="M139 1317q0 60 38.5 98.5t98.5 38.5h756v-197h-665v-432h591v-194h-591v-434h675v-197h-903v1317zM440 1804q22 -112 152 -112q129 0 153 112h177q-10 -126 -97.5 -191t-232.5 -65q-147 0 -232.5 65t-95.5 191h176z" />
    <glyph glyph-name="ebreve" unicode="&#x115;" horiz-adv-x="1241" 
d="M623 -20q-237 0 -386 157t-149 406q0 247 150 405t385 158q248 0 400 -171t134 -456h-848q18 -143 102.5 -233t211.5 -90q95 0 165 49t103 133h235q-47 -165 -182.5 -261.5t-320.5 -96.5zM471 1454q12 -60 52 -90.5t100 -30.5q127 0 153 121h176q-10 -127 -98 -195.5
t-231 -68.5q-146 0 -232 68.5t-96 195.5h176zM315 649h619q-24 128 -107.5 205.5t-203.5 77.5t-201 -78t-107 -205z" />
    <glyph glyph-name="Edotaccent" unicode="&#x116;" horiz-adv-x="1118" 
d="M139 1317q0 60 38.5 98.5t98.5 38.5h756v-197h-665v-432h591v-194h-591v-434h675v-197h-903v1317zM475 1569v229h236v-229h-236z" />
    <glyph glyph-name="edotaccent" unicode="&#x117;" horiz-adv-x="1241" 
d="M623 -20q-237 0 -386 157t-149 406q0 247 150 405t385 158q248 0 400 -171t134 -456h-848q18 -143 102.5 -233t211.5 -90q95 0 165 49t103 133h235q-47 -165 -182.5 -261.5t-320.5 -96.5zM315 649h619q-24 128 -107.5 205.5t-203.5 77.5t-201 -78t-107 -205zM512 1229
v225h221v-225h-221z" />
    <glyph glyph-name="Eogonek" unicode="&#x118;" horiz-adv-x="1118" 
d="M139 1317q0 60 38.5 98.5t98.5 38.5h756v-197h-665v-432h591v-194h-591v-434h675v-197h2q-159 -55 -159 -123q0 -28 26 -43.5t70 -15.5h63v-187h-100q-122 0 -186 50t-64 126q0 119 111 193h-666v1317z" />
    <glyph glyph-name="eogonek" unicode="&#x119;" horiz-adv-x="1239" 
d="M897 -369q-125 0 -189.5 50t-64.5 126q0 120 109 191q-56 -18 -129 -18q-237 0 -386 157t-149 406q0 247 150 405t385 158q248 0 400 -171t134 -456h-848q18 -143 102.5 -233t211.5 -90q95 0 165 49t103 133h235q-45 -156 -190 -291q-57 -54 -82 -91t-25 -77
q0 -29 27.5 -45t73.5 -16h63v-187h-96zM315 649h619q-24 128 -107.5 205.5t-203.5 77.5t-201 -78t-107 -205z" />
    <glyph glyph-name="Ecaron" unicode="&#x11a;" horiz-adv-x="1118" 
d="M139 1317q0 60 38.5 98.5t98.5 38.5h756v-197h-665v-432h591v-194h-591v-434h675v-197h-903v1317zM258 1804h205l112 -118h31l115 118h203l-199 -243h-266z" />
    <glyph glyph-name="ecaron" unicode="&#x11b;" horiz-adv-x="1241" 
d="M623 -20q-237 0 -386 157t-149 406q0 247 150 405t385 158q248 0 400 -171t134 -456h-848q18 -143 102.5 -233t211.5 -90q95 0 165 49t103 133h235q-47 -165 -182.5 -261.5t-320.5 -96.5zM291 1454h205l112 -129h31l115 129h202l-198 -254h-266zM315 649h619
q-24 128 -107.5 205.5t-203.5 77.5t-201 -78t-107 -205z" />
    <glyph glyph-name="Gcircumflex" unicode="&#x11c;" horiz-adv-x="1589" 
d="M809 -20q-148 0 -279 50t-230.5 142.5t-157.5 236.5t-58 320q0 174 58.5 317t158.5 235.5t230.5 143t275.5 50.5q140 0 260 -39t205 -107.5t140.5 -158.5t76.5 -195h-244q-15 58 -47.5 110t-84 96.5t-130 70.5t-174.5 26q-100 0 -188 -34.5t-157 -101t-109 -173
t-40 -240.5q0 -136 40 -243.5t109 -174t157 -101t188 -34.5q221 0 338 95.5t117 281.5v27h-508v188h735v-197q0 -262 -186.5 -426.5t-495.5 -164.5zM475 1561l201 243h266l199 -243h-203l-115 118h-30l-113 -118h-205z" />
    <glyph glyph-name="gcircumflex" unicode="&#x11d;" horiz-adv-x="1234" 
d="M229 -369v187h652v188h-275q-227 0 -373.5 148t-146.5 391q0 246 146.5 393t373.5 147h359q60 0 98.5 -38.5t38.5 -98.5v-1173q0 -66 -40.5 -105t-109.5 -39h-723zM303 1200l201 254h266l199 -254h-203l-115 129h-30l-113 -129h-205zM311 545q0 -165 82.5 -257.5
t237.5 -92.5h250v702h-250q-154 0 -237 -92t-83 -260z" />
    <glyph glyph-name="Gbreve" unicode="&#x11e;" horiz-adv-x="1589" 
d="M809 -20q-148 0 -279 50t-230.5 142.5t-157.5 236.5t-58 320q0 174 58.5 317t158.5 235.5t230.5 143t275.5 50.5q140 0 260 -39t205 -107.5t140.5 -158.5t76.5 -195h-244q-15 58 -47.5 110t-84 96.5t-130 70.5t-174.5 26q-100 0 -188 -34.5t-157 -101t-109 -173
t-40 -240.5q0 -136 40 -243.5t109 -174t157 -101t188 -34.5q221 0 338 95.5t117 281.5v27h-508v188h735v-197q0 -262 -186.5 -426.5t-495.5 -164.5zM655 1804q22 -112 152 -112t154 112h176q-10 -126 -97.5 -191t-232.5 -65q-147 0 -232.5 65t-95.5 191h176z" />
    <glyph glyph-name="gbreve" unicode="&#x11f;" horiz-adv-x="1234" 
d="M229 -369v187h652v188h-275q-227 0 -373.5 148t-146.5 391q0 246 146.5 393t373.5 147h359q60 0 98.5 -38.5t38.5 -98.5v-1173q0 -66 -40.5 -105t-109.5 -39h-723zM485 1454q12 -60 52 -90.5t100 -30.5q128 0 154 121h176q-10 -127 -98.5 -195.5t-231.5 -68.5
q-146 0 -232 68.5t-96 195.5h176zM311 545q0 -165 82.5 -257.5t237.5 -92.5h250v702h-250q-154 0 -237 -92t-83 -260z" />
    <glyph glyph-name="Gdotaccent" unicode="&#x120;" horiz-adv-x="1589" 
d="M809 -20q-148 0 -279 50t-230.5 142.5t-157.5 236.5t-58 320q0 174 58.5 317t158.5 235.5t230.5 143t275.5 50.5q140 0 260 -39t205 -107.5t140.5 -158.5t76.5 -195h-244q-15 58 -47.5 110t-84 96.5t-130 70.5t-174.5 26q-100 0 -188 -34.5t-157 -101t-109 -173
t-40 -240.5q0 -136 40 -243.5t109 -174t157 -101t188 -34.5q221 0 338 95.5t117 281.5v27h-508v188h735v-197q0 -262 -186.5 -426.5t-495.5 -164.5zM692 1569v229h236v-229h-236z" />
    <glyph glyph-name="gdotaccent" unicode="&#x121;" horiz-adv-x="1234" 
d="M229 -369v187h652v188h-275q-227 0 -373.5 148t-146.5 391q0 246 146.5 393t373.5 147h359q60 0 98.5 -38.5t38.5 -98.5v-1173q0 -66 -40.5 -105t-109.5 -39h-723zM311 545q0 -165 82.5 -257.5t237.5 -92.5h250v702h-250q-154 0 -237 -92t-83 -260zM526 1229v225h222
v-225h-222z" />
    <glyph glyph-name="uni0122" unicode="&#x122;" horiz-adv-x="1589" 
d="M809 -20q-148 0 -279 50t-230.5 142.5t-157.5 236.5t-58 320q0 174 58.5 317t158.5 235.5t230.5 143t275.5 50.5q140 0 260 -39t205 -107.5t140.5 -158.5t76.5 -195h-244q-15 58 -47.5 110t-84 96.5t-130 70.5t-174.5 26q-100 0 -188 -34.5t-157 -101t-109 -173
t-40 -240.5q0 -136 40 -243.5t109 -174t157 -101t188 -34.5q221 0 338 95.5t117 281.5v27h-508v188h735v-197q0 -262 -186.5 -426.5t-495.5 -164.5zM637 -430l55 336h223l-116 -336h-162z" />
    <glyph glyph-name="uni0123" unicode="&#x123;" horiz-adv-x="1234" 
d="M229 -369v187h652v188h-275q-227 0 -373.5 148t-146.5 391q0 246 146.5 393t373.5 147h359q60 0 98.5 -38.5t38.5 -98.5v-1173q0 -66 -40.5 -105t-109.5 -39h-723zM311 545q0 -165 82.5 -257.5t237.5 -92.5h250v702h-250q-154 0 -237 -92t-83 -260zM489 1200l248 254h199
l-162 -254h-285z" />
    <glyph glyph-name="Hcircumflex" unicode="&#x124;" horiz-adv-x="1415" 
d="M1051 0v629h-684v-629h-228v1454h228v-625h684v625h225v-1454h-225zM377 1561l201 243h266l198 -243h-202l-115 118h-31l-112 -118h-205z" />
    <glyph glyph-name="hcircumflex" unicode="&#x125;" horiz-adv-x="1191" 
d="M852 639q0 258 -231 258h-265v-897h-221v1454h221v-369h318q176 0 287.5 -112t111.5 -316v-657h-221v639zM-86 1548l201 254h266l199 -254h-203l-115 129h-31l-112 -129h-205z" />
    <glyph glyph-name="Hbar" unicode="&#x126;" horiz-adv-x="1415" 
d="M1051 0v629h-684v-629h-228v1069h-121v160h121v225h228v-225h684v225h225v-225h123v-160h-123v-1069h-225zM367 829h684v240h-684v-240z" />
    <glyph glyph-name="hbar" unicode="&#x127;" horiz-adv-x="1191" 
d="M852 639q0 258 -231 258h-265v-897h-221v1171h-162v156h162v127h221v-127h242v-156h-242v-86h318q176 0 287.5 -112t111.5 -316v-657h-221v639z" />
    <glyph glyph-name="Itilde" unicode="&#x128;" horiz-adv-x="503" 
d="M139 1454h228v-1454h-228v1454zM-117 1561q5 110 69.5 185t158.5 75q46 0 89.5 -18t71 -39.5t58 -39.5t53.5 -18q43 0 61.5 27t20.5 82h170q-3 -109 -67.5 -186t-157.5 -77q-46 0 -90 18.5t-71.5 40t-59 40t-54.5 18.5q-79 0 -82 -108h-170z" />
    <glyph glyph-name="itilde" unicode="&#x129;" horiz-adv-x="491" 
d="M135 0v1085h221v-1085h-221zM-125 1198q5 109 69 184.5t158 75.5q46 0 89.5 -18.5t71.5 -40t58.5 -40t53.5 -18.5q79 0 82 109h170q-3 -107 -68 -183.5t-158 -76.5q-46 0 -89.5 18.5t-71.5 40t-59 40t-54 18.5q-79 0 -82 -109h-170z" />
    <glyph glyph-name="Imacron" unicode="&#x12a;" horiz-adv-x="503" 
d="M139 1454h228v-1454h-228v1454zM-66 1595v160h637v-160h-637z" />
    <glyph glyph-name="imacron" unicode="&#x12b;" horiz-adv-x="491" 
d="M135 0v1085h221v-1085h-221zM-72 1247v160h637v-160h-637z" />
    <glyph glyph-name="Ibreve" unicode="&#x12c;" horiz-adv-x="503" 
d="M139 1454h228v-1454h-228v1454zM102 1804q22 -112 152 -112t154 112h176q-10 -126 -97.5 -191t-232.5 -65q-147 0 -232.5 65t-95.5 191h176z" />
    <glyph glyph-name="ibreve" unicode="&#x12d;" horiz-adv-x="491" 
d="M135 0v1085h221v-1085h-221zM94 1454q12 -60 52 -90.5t100 -30.5q127 0 153 121h176q-10 -127 -98 -195.5t-231 -68.5q-146 0 -232 68.5t-96 195.5h176z" />
    <glyph glyph-name="Iogonek" unicode="&#x12e;" horiz-adv-x="503" 
d="M139 1454h228v-1454q-160 -55 -160 -123q0 -28 26 -43.5t70 -15.5h64v-187h-101q-122 0 -186 50t-64 126q0 127 123 201v1446z" />
    <glyph glyph-name="iogonek" unicode="&#x12f;" horiz-adv-x="491" 
d="M135 1229v225h221v-225h-221zM6 -193q0 128 129 205v1073h221v-1085q-159 -51 -159 -123q0 -28 26 -43.5t70 -15.5h63v-187h-100q-122 0 -186 50t-64 126z" />
    <glyph glyph-name="Idotaccent" unicode="&#x130;" horiz-adv-x="503" 
d="M139 1454h228v-1454h-228v1454zM137 1569v229h236v-229h-236z" />
    <glyph glyph-name="dotlessi" unicode="&#x131;" horiz-adv-x="491" 
d="M135 0v1085h221v-1085h-221z" />
    <glyph glyph-name="IJ" unicode="&#x132;" horiz-adv-x="1236" 
d="M139 1454h228v-1454h-228v1454zM600 0v199h270v1255h228v-1317q0 -60 -38.5 -98.5t-98.5 -38.5h-361z" />
    <glyph glyph-name="ij" unicode="&#x133;" horiz-adv-x="983" 
d="M135 0v1085h221v-1085h-221zM135 1229v225h221v-225h-221zM381 -369v187h246v1267h221v-1310q0 -66 -39.5 -105t-108.5 -39h-319zM625 1229v225h221v-225h-221z" />
    <glyph glyph-name="Jcircumflex" unicode="&#x134;" horiz-adv-x="702" 
d="M66 0v199h270v1255h227v-1317q0 -60 -38.5 -98.5t-98.5 -38.5h-360zM119 1561l200 243h267l198 -243h-202l-115 118h-31l-112 -118h-205z" />
    <glyph glyph-name="jcircumflex" unicode="&#x135;" horiz-adv-x="491" 
d="M-111 -369v187h246v1267h221v-1310q0 -66 -39 -105t-108 -39h-320zM-88 1200l201 254h266l199 -254h-203l-115 129h-31l-112 -129h-205z" />
    <glyph glyph-name="uni0136" unicode="&#x136;" horiz-adv-x="1284" 
d="M762 739l461 -725v-14h-252l-408 653h-196v-653h-228v1454h228v-602h196l404 602h256v-16l-461 -654v-45zM492 -430l55 336h223l-117 -336h-161z" />
    <glyph glyph-name="uni0137" unicode="&#x137;" horiz-adv-x="1142" 
d="M743 578l336 -564v-14h-245l-277 494h-201v-494h-221v1454h221v-770h201l277 401h245v-14l-336 -469v-24zM377 -430l55 336h223l-116 -336h-162z" />
    <glyph glyph-name="Lacute" unicode="&#x139;" horiz-adv-x="1097" 
d="M139 0v1454h228v-1255h669v-199h-897zM139 1561l221 243h287l-305 -243h-203z" />
    <glyph glyph-name="lacute" unicode="&#x13a;" horiz-adv-x="491" 
d="M356 0h-221v1454h221v-1454zM78 1561l221 243h287l-305 -243h-203z" />
    <glyph glyph-name="uni013B" unicode="&#x13b;" horiz-adv-x="1097" 
d="M139 0v1454h228v-1255h669v-199h-897zM397 -430l56 336h223l-117 -336h-162z" />
    <glyph glyph-name="uni013C" unicode="&#x13c;" horiz-adv-x="491" 
d="M356 0h-221v1454h221v-1454zM76 -430l55 336h223l-116 -336h-162z" />
    <glyph glyph-name="Lcaron" unicode="&#x13d;" horiz-adv-x="1097" 
d="M139 0v1454h228v-1255h669v-199h-897zM645 1139l29 315h231l-102 -315h-158z" />
    <glyph glyph-name="lcaron" unicode="&#x13e;" horiz-adv-x="491" 
d="M356 0h-221v1454h221v-1454zM475 1139l29 315h231l-102 -315h-158z" />
    <glyph glyph-name="Ldot" unicode="&#x13f;" horiz-adv-x="1097" 
d="M139 0v1454h228v-1255h669v-199h-897zM719 676v231h221v-231h-221z" />
    <glyph glyph-name="ldot" unicode="&#x140;" horiz-adv-x="733" 
d="M356 0h-221v1454h221v-1454zM502 600v231h221v-231h-221z" />
    <glyph glyph-name="Lslash" unicode="&#x141;" horiz-adv-x="1165" 
d="M209 0v684l-139 -43v186l139 43v584h227v-512l373 117v-187l-373 -116v-557h670v-199h-897z" />
    <glyph glyph-name="lslash" unicode="&#x142;" horiz-adv-x="733" 
d="M477 0h-221v602l-180 -100v215l180 100v637h221v-512l182 102v-215l-182 -102v-727z" />
    <glyph glyph-name="Nacute" unicode="&#x143;" horiz-adv-x="1460" 
d="M139 1317q0 60 38.5 98.5t98.5 38.5h252l396 -919l127 -314h55v1233h215v-1454h-389l-395 920l-127 313h-56v-1233h-215v1317zM561 1561l221 243h287l-305 -243h-203z" />
    <glyph glyph-name="nacute" unicode="&#x144;" horiz-adv-x="1189" 
d="M133 948q0 60 38.5 98.5t98.5 38.5h402q176 0 287.5 -112t111.5 -316v-657h-221v639q0 258 -232 258h-264v-897h-221v948zM434 1200l223 254h285l-309 -254h-199z" />
    <glyph glyph-name="uni0145" unicode="&#x145;" horiz-adv-x="1460" 
d="M139 1317q0 60 38.5 98.5t98.5 38.5h252l396 -919l127 -314h55v1233h215v-1454h-389l-395 920l-127 313h-56v-1233h-215v1317zM559 -430l55 336h224l-117 -336h-162z" />
    <glyph glyph-name="uni0146" unicode="&#x146;" horiz-adv-x="1189" 
d="M133 948q0 60 38.5 98.5t98.5 38.5h402q176 0 287.5 -112t111.5 -316v-657h-221v639q0 258 -232 258h-264v-897h-221v948zM432 -430l55 336h224l-117 -336h-162z" />
    <glyph glyph-name="Ncaron" unicode="&#x147;" horiz-adv-x="1460" 
d="M139 1317q0 60 38.5 98.5t98.5 38.5h252l396 -919l127 -314h55v1233h215v-1454h-389l-395 920l-127 313h-56v-1233h-215v1317zM397 1804h205l113 -118h30l115 118h203l-199 -243h-266z" />
    <glyph glyph-name="ncaron" unicode="&#x148;" horiz-adv-x="1189" 
d="M133 948q0 60 38.5 98.5t98.5 38.5h402q176 0 287.5 -112t111.5 -316v-657h-221v639q0 258 -232 258h-264v-897h-221v948zM246 1454h205l112 -129h31l115 129h202l-198 -254h-267z" />
    <glyph glyph-name="Eng" unicode="&#x14a;" horiz-adv-x="1460" 
d="M823 -369v187h283v182h-174l-395 920l-127 313h-56v-1233h-215v1317q0 60 38.5 98.5t98.5 38.5h252l396 -919l127 -314h55v1233h215v-1679q0 -63 -40 -103.5t-103 -40.5h-355z" />
    <glyph glyph-name="eng" unicode="&#x14b;" horiz-adv-x="1189" 
d="M672 1085q176 0 287.5 -112t111.5 -316v-882q0 -66 -39 -105t-108 -39h-320v187h246v821q0 258 -232 258h-264v-897h-221v948q0 60 38.5 98.5t98.5 38.5h402z" />
    <glyph glyph-name="Omacron" unicode="&#x14c;" horiz-adv-x="1613" 
d="M807 -20q-146 0 -276.5 50t-231 143t-159 236t-58.5 318q0 140 38 260.5t105.5 209t159 152t199 95t223.5 31.5q146 0 276.5 -50.5t231 -143.5t159 -236t58.5 -316q0 -140 -38 -261t-105.5 -210t-159 -152t-199 -94.5t-223.5 -31.5zM313 727q0 -132 39.5 -238
t107.5 -173.5t156.5 -103.5t190.5 -36t190.5 35.5t156.5 103.5t107 174.5t39 239.5q0 131 -39 237t-107 173t-156.5 103t-190.5 36t-190.5 -36t-156.5 -104t-107.5 -174t-39.5 -237zM469 1602v163h678v-163h-678z" />
    <glyph glyph-name="omacron" unicode="&#x14d;" horiz-adv-x="1259" 
d="M629 -20q-109 0 -206.5 37.5t-172.5 107.5t-118.5 178t-43.5 240t43.5 240t118.5 178t172.5 107.5t206.5 37.5q110 0 207.5 -37.5t172.5 -106.5t118.5 -177.5t43.5 -241.5q0 -132 -43.5 -240t-118.5 -178t-172.5 -107.5t-207.5 -37.5zM311 543q0 -94 27 -169t72.5 -120.5
t101.5 -69.5t117 -24q62 0 118.5 24t101.5 69.5t72 120.5t27 169t-27 169t-72 120.5t-101.5 69.5t-118.5 24q-61 0 -117 -24t-101.5 -69.5t-72.5 -120.5t-27 -169zM311 1247v160h637v-160h-637z" />
    <glyph glyph-name="Obreve" unicode="&#x14e;" horiz-adv-x="1613" 
d="M807 -20q-146 0 -276.5 50t-231 143t-159 236t-58.5 318q0 140 38 260.5t105.5 209t159 152t199 95t223.5 31.5q146 0 276.5 -50.5t231 -143.5t159 -236t58.5 -316q0 -140 -38 -261t-105.5 -210t-159 -152t-199 -94.5t-223.5 -31.5zM313 727q0 -132 39.5 -238
t107.5 -173.5t156.5 -103.5t190.5 -36t190.5 35.5t156.5 103.5t107 174.5t39 239.5q0 131 -39 237t-107 173t-156.5 103t-190.5 36t-190.5 -36t-156.5 -104t-107.5 -174t-39.5 -237zM655 1804q22 -112 152 -112t154 112h176q-10 -126 -97.5 -191t-232.5 -65
q-147 0 -232.5 65t-95.5 191h176z" />
    <glyph glyph-name="obreve" unicode="&#x14f;" horiz-adv-x="1259" 
d="M629 -20q-109 0 -206.5 37.5t-172.5 107.5t-118.5 178t-43.5 240t43.5 240t118.5 178t172.5 107.5t206.5 37.5q110 0 207.5 -37.5t172.5 -106.5t118.5 -177.5t43.5 -241.5q0 -132 -43.5 -240t-118.5 -178t-172.5 -107.5t-207.5 -37.5zM477 1454q12 -60 52 -90.5
t100 -30.5q127 0 153 121h176q-10 -127 -98 -195.5t-231 -68.5q-146 0 -232 68.5t-96 195.5h176zM311 543q0 -94 27 -169t72.5 -120.5t101.5 -69.5t117 -24q62 0 118.5 24t101.5 69.5t72 120.5t27 169t-27 169t-72 120.5t-101.5 69.5t-118.5 24q-61 0 -117 -24t-101.5 -69.5
t-72.5 -120.5t-27 -169z" />
    <glyph glyph-name="Ohungarumlaut" unicode="&#x150;" horiz-adv-x="1613" 
d="M807 -20q-146 0 -276.5 50t-231 143t-159 236t-58.5 318q0 140 38 260.5t105.5 209t159 152t199 95t223.5 31.5q146 0 276.5 -50.5t231 -143.5t159 -236t58.5 -316q0 -140 -38 -261t-105.5 -210t-159 -152t-199 -94.5t-223.5 -31.5zM313 727q0 -132 39.5 -238
t107.5 -173.5t156.5 -103.5t190.5 -36t190.5 35.5t156.5 103.5t107 174.5t39 239.5q0 131 -39 237t-107 173t-156.5 103t-190.5 36t-190.5 -36t-156.5 -104t-107.5 -174t-39.5 -237zM510 1561l162 243h280l-229 -243h-213zM930 1561l162 243h278l-227 -243h-213z" />
    <glyph glyph-name="ohungarumlaut" unicode="&#x151;" horiz-adv-x="1259" 
d="M629 -20q-109 0 -206.5 37.5t-172.5 107.5t-118.5 178t-43.5 240t43.5 240t118.5 178t172.5 107.5t206.5 37.5q110 0 207.5 -37.5t172.5 -106.5t118.5 -177.5t43.5 -241.5q0 -132 -43.5 -240t-118.5 -178t-172.5 -107.5t-207.5 -37.5zM311 543q0 -94 27 -169t72.5 -120.5
t101.5 -69.5t117 -24q62 0 118.5 24t101.5 69.5t72 120.5t27 169t-27 169t-72 120.5t-101.5 69.5t-118.5 24q-61 0 -117 -24t-101.5 -69.5t-72.5 -120.5t-27 -169zM332 1200l198 254h261l-283 -254h-176zM733 1200l199 254h260l-283 -254h-176z" />
    <glyph glyph-name="OE" unicode="&#x152;" horiz-adv-x="1968" 
d="M758 0q-140 0 -253 35.5t-191 99t-130 155t-76 201t-24 238.5q0 163 39 293.5t118.5 228t210.5 150.5t306 53h1124v-197h-665v-432h591v-194h-591v-434h675v-197h-1134zM315 729q0 -131 21.5 -224.5t72.5 -165t142 -107t223 -35.5h215v1060h-215q-108 0 -188.5 -25
t-132 -68.5t-82.5 -111.5t-43.5 -145t-12.5 -178z" />
    <glyph glyph-name="oe" unicode="&#x153;" horiz-adv-x="2101" 
d="M629 -20q-109 0 -206.5 37.5t-172.5 107.5t-118.5 178t-43.5 240t43.5 240t118.5 178t172.5 107.5t206.5 37.5q131 0 244.5 -52.5t187.5 -150.5q71 96 180.5 149.5t241.5 53.5q248 0 400 -171t134 -456h-848q18 -143 102.5 -233t211.5 -90q95 0 165 49t103 133h236
q-47 -165 -182.5 -261.5t-321.5 -96.5q-133 0 -243 52.5t-181 147.5q-74 -97 -186.5 -148.5t-243.5 -51.5zM311 543q0 -94 27 -169t72.5 -120.5t101.5 -69.5t117 -24q62 0 118.5 24t101.5 69.5t72 120.5t27 169t-27 169t-72 120.5t-101.5 69.5t-118.5 24q-61 0 -117 -24
t-101.5 -69.5t-72.5 -120.5t-27 -169zM1176 649h618q-24 128 -107.5 205.5t-203.5 77.5t-200.5 -78t-106.5 -205z" />
    <glyph glyph-name="Racute" unicode="&#x154;" horiz-adv-x="1333" 
d="M139 1317q0 60 38.5 98.5t98.5 38.5h469q203 0 328 -112.5t125 -307.5q0 -157 -80 -265.5t-223 -145.5l96 -156l283 -467h-264l-351 606h-292v-606h-228v1317zM367 797h391q106 0 157.5 63.5t51.5 175.5q0 108 -59.5 166t-172.5 58h-368v-463zM473 1561l221 243h287
l-305 -243h-203z" />
    <glyph glyph-name="racute" unicode="&#x155;" horiz-adv-x="729" 
d="M133 948q0 61 38.5 99t98.5 38h389v-190h-305v-895h-221v948zM252 1200l223 254h285l-309 -254h-199z" />
    <glyph glyph-name="uni0156" unicode="&#x156;" horiz-adv-x="1333" 
d="M139 1317q0 60 38.5 98.5t98.5 38.5h469q203 0 328 -112.5t125 -307.5q0 -157 -80 -265.5t-223 -145.5l96 -156l283 -467h-264l-351 606h-292v-606h-228v1317zM367 797h391q106 0 157.5 63.5t51.5 175.5q0 108 -59.5 166t-172.5 58h-368v-463zM469 -430l55 336h224
l-117 -336h-162z" />
    <glyph glyph-name="uni0157" unicode="&#x157;" horiz-adv-x="729" 
d="M133 948q0 61 38.5 99t98.5 38h389v-190h-305v-895h-221v948zM74 -430l55 336h223l-116 -336h-162z" />
    <glyph glyph-name="Rcaron" unicode="&#x158;" horiz-adv-x="1333" 
d="M139 1317q0 60 38.5 98.5t98.5 38.5h469q203 0 328 -112.5t125 -307.5q0 -157 -80 -265.5t-223 -145.5l96 -156l283 -467h-264l-351 606h-292v-606h-228v1317zM307 1804h205l113 -118h30l115 118h203l-199 -243h-266zM367 797h391q106 0 157.5 63.5t51.5 175.5
q0 108 -59.5 166t-172.5 58h-368v-463z" />
    <glyph glyph-name="rcaron" unicode="&#x159;" horiz-adv-x="729" 
d="M133 948q0 61 38.5 99t98.5 38h389v-190h-305v-895h-221v948zM63 1454h205l113 -129h31l114 129h203l-199 -254h-266z" />
    <glyph glyph-name="Sacute" unicode="&#x15a;" horiz-adv-x="1267" 
d="M645 -20q-158 0 -286.5 58t-205.5 170.5t-79 262.5h229q4 -137 100 -217t242 -80q149 0 233.5 59.5t84.5 172.5q0 56 -29 98.5t-78.5 69t-113.5 47t-135 38.5t-142 38.5t-135 51.5t-113.5 72.5t-78.5 106.5t-29 149q0 188 142.5 293t366.5 105q234 0 384.5 -125.5
t156.5 -343.5h-227q-4 131 -94 204.5t-226 73.5q-122 0 -201 -50.5t-79 -148.5q0 -52 29.5 -91t79 -64t114 -45.5t136 -39.5t143 -40.5t136 -54.5t114 -76.5t79 -110.5t29.5 -153q0 -101 -45 -184t-121 -136t-174 -81.5t-207 -28.5zM449 1561l221 243h286l-305 -243h-202z
" />
    <glyph glyph-name="sacute" unicode="&#x15b;" horiz-adv-x="1081" 
d="M543 -20q-130 0 -229.5 37.5t-163 119t-72.5 201.5h227q34 -186 242 -186q42 0 80 7t73 23t55.5 46t20.5 71q0 51 -37 84.5t-95.5 51.5t-130 33t-142.5 36t-129.5 51.5t-95.5 88.5t-37 140q0 103 58 177t152 109.5t213 35.5q197 0 315 -94t130 -258h-225
q-6 87 -62.5 133.5t-161.5 46.5q-82 0 -141 -32.5t-59 -96.5q0 -44 37 -75t96 -50t130.5 -36t143.5 -41.5t131 -58t96 -93t37 -140.5q0 -84 -37 -149t-101 -104t-144.5 -58.5t-173.5 -19.5zM387 1200l223 254h285l-309 -254h-199z" />
    <glyph glyph-name="Scircumflex" unicode="&#x15c;" horiz-adv-x="1267" 
d="M645 -20q-158 0 -286.5 58t-205.5 170.5t-79 262.5h229q4 -137 100 -217t242 -80q149 0 233.5 59.5t84.5 172.5q0 56 -29 98.5t-78.5 69t-113.5 47t-135 38.5t-142 38.5t-135 51.5t-113.5 72.5t-78.5 106.5t-29 149q0 188 142.5 293t366.5 105q234 0 384.5 -125.5
t156.5 -343.5h-227q-4 131 -94 204.5t-226 73.5q-122 0 -201 -50.5t-79 -148.5q0 -52 29.5 -91t79 -64t114 -45.5t136 -39.5t143 -40.5t136 -54.5t114 -76.5t79 -110.5t29.5 -153q0 -101 -45 -184t-121 -136t-174 -81.5t-207 -28.5zM285 1561l200 243h267l198 -243h-202
l-115 118h-31l-113 -118h-204z" />
    <glyph glyph-name="scircumflex" unicode="&#x15d;" horiz-adv-x="1081" 
d="M543 -20q-130 0 -229.5 37.5t-163 119t-72.5 201.5h227q34 -186 242 -186q42 0 80 7t73 23t55.5 46t20.5 71q0 51 -37 84.5t-95.5 51.5t-130 33t-142.5 36t-129.5 51.5t-95.5 88.5t-37 140q0 103 58 177t152 109.5t213 35.5q197 0 315 -94t130 -258h-225
q-6 87 -62.5 133.5t-161.5 46.5q-82 0 -141 -32.5t-59 -96.5q0 -44 37 -75t96 -50t130.5 -36t143.5 -41.5t131 -58t96 -93t37 -140.5q0 -84 -37 -149t-101 -104t-144.5 -58.5t-173.5 -19.5zM199 1200l200 254h267l198 -254h-202l-115 129h-31l-113 -129h-204z" />
    <glyph glyph-name="Scedilla" unicode="&#x15e;" horiz-adv-x="1267" 
d="M492 -471v104h174q41 0 63.5 18t22.5 50v4q0 30 -22.5 47t-63.5 17h-148l-14 14l55 201q-212 24 -347 153.5t-138 333.5h229q4 -137 100 -217t242 -80q149 0 233.5 59.5t84.5 172.5q0 56 -29 98.5t-78.5 69t-113.5 47t-135 38.5t-142 38.5t-135 51.5t-113.5 72.5
t-78.5 106.5t-29 149q0 188 142.5 293t366.5 105q234 0 384.5 -125.5t156.5 -343.5h-227q-4 131 -94 204.5t-226 73.5q-122 0 -201 -50.5t-79 -148.5q0 -52 29.5 -91t79 -64t114 -45.5t136 -39.5t143 -40.5t136 -54.5t114 -76.5t79 -110.5t29.5 -153q0 -123 -66 -217.5
t-171.5 -145.5t-237.5 -63l-51 -95v-16h51q78 0 136 -43.5t58 -124.5v-4q0 -85 -57.5 -128.5t-136.5 -43.5h-225z" />
    <glyph glyph-name="scedilla" unicode="&#x15f;" horiz-adv-x="1081" 
d="M389 -471v104h174q41 0 63.5 18t22.5 50v4q0 30 -22.5 47t-63.5 17h-147l-15 14l56 201q-165 20 -266 108.5t-113 245.5h227q34 -186 242 -186q42 0 80 7t73 23t55.5 46t20.5 71q0 51 -37 84.5t-95.5 51.5t-130 33t-142.5 36t-129.5 51.5t-95.5 88.5t-37 140
q0 103 58 177t152 109.5t213 35.5q197 0 315 -94t130 -258h-225q-6 87 -62.5 133.5t-161.5 46.5q-82 0 -141 -32.5t-59 -96.5q0 -44 37 -75t96 -50t130.5 -36t143.5 -41.5t131 -58t96 -93t37 -140.5q0 -76 -30 -136.5t-83.5 -99.5t-122 -61.5t-149.5 -29.5l-51 -95v-16h51
q78 0 136.5 -43.5t58.5 -124.5v-4q0 -84 -58 -128t-137 -44h-225z" />
    <glyph glyph-name="Scaron" unicode="&#x160;" horiz-adv-x="1267" 
d="M645 -20q-158 0 -286.5 58t-205.5 170.5t-79 262.5h229q4 -137 100 -217t242 -80q149 0 233.5 59.5t84.5 172.5q0 56 -29 98.5t-78.5 69t-113.5 47t-135 38.5t-142 38.5t-135 51.5t-113.5 72.5t-78.5 106.5t-29 149q0 188 142.5 293t366.5 105q234 0 384.5 -125.5
t156.5 -343.5h-227q-4 131 -94 204.5t-226 73.5q-122 0 -201 -50.5t-79 -148.5q0 -52 29.5 -91t79 -64t114 -45.5t136 -39.5t143 -40.5t136 -54.5t114 -76.5t79 -110.5t29.5 -153q0 -101 -45 -184t-121 -136t-174 -81.5t-207 -28.5zM285 1804h204l113 -118h31l115 118h202
l-198 -243h-267z" />
    <glyph glyph-name="scaron" unicode="&#x161;" horiz-adv-x="1081" 
d="M543 -20q-130 0 -229.5 37.5t-163 119t-72.5 201.5h227q34 -186 242 -186q42 0 80 7t73 23t55.5 46t20.5 71q0 51 -37 84.5t-95.5 51.5t-130 33t-142.5 36t-129.5 51.5t-95.5 88.5t-37 140q0 103 58 177t152 109.5t213 35.5q197 0 315 -94t130 -258h-225
q-6 87 -62.5 133.5t-161.5 46.5q-82 0 -141 -32.5t-59 -96.5q0 -44 37 -75t96 -50t130.5 -36t143.5 -41.5t131 -58t96 -93t37 -140.5q0 -84 -37 -149t-101 -104t-144.5 -58.5t-173.5 -19.5zM199 1454h204l113 -129h31l115 129h202l-198 -254h-267z" />
    <glyph glyph-name="uni0162" unicode="&#x162;" horiz-adv-x="1228" 
d="M502 0v1255h-436v199h1099v-199h-438v-1255h-29l-61 -111v-16h51q78 0 136.5 -43.5t58.5 -124.5v-4q0 -84 -58 -128t-137 -44h-225v104h174q41 0 63.5 18t22.5 50v4q0 30 -22.5 47t-63.5 17h-148l-14 14l60 217h-33z" />
    <glyph glyph-name="uni0163" unicode="&#x163;" horiz-adv-x="778" 
d="M692 1085v-190h-239v-709h239v-186h-160l-61 -111v-16h51q78 0 136.5 -43.5t58.5 -124.5v-4q0 -84 -58 -128t-137 -44h-225v104h174q41 0 63.5 18t22.5 50v4q0 30 -22.5 47t-63.5 17h-147l-15 14l60 217q-60 0 -99 38.5t-39 98.5v758h-161v190h161v277h222v-277h239z" />
    <glyph glyph-name="Tcaron" unicode="&#x164;" horiz-adv-x="1228" 
d="M502 0v1255h-436v199h1099v-199h-438v-1255h-225zM283 1804h204l113 -118h31l114 118h203l-198 -243h-267z" />
    <glyph glyph-name="tcaron" unicode="&#x165;" horiz-adv-x="778" 
d="M692 1085v-190h-239v-709h239v-186h-323q-60 0 -99 38.5t-39 98.5v758h-161v190h161v277h222v-277h239zM557 1241l29 315h231l-102 -315h-158z" />
    <glyph glyph-name="Tbar" unicode="&#x166;" horiz-adv-x="1228" 
d="M502 0v627h-254v200h254v428h-436v199h1099v-199h-438v-428h254v-200h-254v-627h-225z" />
    <glyph glyph-name="tbar" unicode="&#x167;" horiz-adv-x="778" 
d="M692 1085v-190h-239v-277h241v-155h-241v-277h239v-186h-323q-60 0 -99 38.5t-39 98.5v326h-161v155h161v277h-161v190h161v277h222v-277h239z" />
    <glyph glyph-name="Utilde" unicode="&#x168;" horiz-adv-x="1398" 
d="M700 -20q-124 0 -224 37.5t-161.5 95.5t-103 133t-58 145t-16.5 137v926h228v-917q0 -161 97 -259t238 -98q140 0 238 98t98 259v917h226v-926q0 -67 -16.5 -137t-58 -145t-103 -133t-161.5 -95.5t-223 -37.5zM330 1561q5 110 69 185t158 75q46 0 89.5 -18t71 -39.5
t58 -39.5t53.5 -18q43 0 61.5 27t20.5 82h170q-3 -109 -67.5 -186t-157.5 -77q-46 0 -89.5 18.5t-71 40t-59 40t-54.5 18.5q-79 0 -82 -108h-170z" />
    <glyph glyph-name="utilde" unicode="&#x169;" horiz-adv-x="1167" 
d="M518 0q-174 0 -286.5 112t-112.5 316v657h221v-639q0 -258 231 -258h242v897h221v-948q0 -60 -38.5 -98.5t-98.5 -38.5h-379zM205 1198q5 109 69 184.5t158 75.5q46 0 89.5 -18.5t71.5 -40t58.5 -40t53.5 -18.5q42 0 60.5 27.5t20.5 81.5h170q-3 -107 -67.5 -183.5
t-157.5 -76.5q-46 0 -89.5 18.5t-71.5 40t-59 40t-54 18.5q-79 0 -82 -109h-170z" />
    <glyph glyph-name="Umacron" unicode="&#x16a;" horiz-adv-x="1398" 
d="M700 -20q-124 0 -224 37.5t-161.5 95.5t-103 133t-58 145t-16.5 137v926h228v-917q0 -161 97 -259t238 -98q140 0 238 98t98 259v917h226v-926q0 -67 -16.5 -137t-58 -145t-103 -133t-161.5 -95.5t-223 -37.5zM381 1595v160h637v-160h-637z" />
    <glyph glyph-name="umacron" unicode="&#x16b;" horiz-adv-x="1167" 
d="M518 0q-174 0 -286.5 112t-112.5 316v657h221v-639q0 -258 231 -258h242v897h221v-948q0 -60 -38.5 -98.5t-98.5 -38.5h-379zM258 1247v160h637v-160h-637z" />
    <glyph glyph-name="Ubreve" unicode="&#x16c;" horiz-adv-x="1398" 
d="M700 -20q-124 0 -224 37.5t-161.5 95.5t-103 133t-58 145t-16.5 137v926h228v-917q0 -161 97 -259t238 -98q140 0 238 98t98 259v917h226v-926q0 -67 -16.5 -137t-58 -145t-103 -133t-161.5 -95.5t-223 -37.5zM549 1804q22 -112 151 -112q130 0 154 112h176
q-10 -126 -97.5 -191t-232.5 -65q-147 0 -232 65t-95 191h176z" />
    <glyph glyph-name="ubreve" unicode="&#x16d;" horiz-adv-x="1167" 
d="M518 0q-174 0 -286.5 112t-112.5 316v657h221v-639q0 -258 231 -258h242v897h221v-948q0 -60 -38.5 -98.5t-98.5 -38.5h-379zM424 1454q12 -60 51.5 -90.5t99.5 -30.5q128 0 154 121h176q-10 -127 -98.5 -195.5t-231.5 -68.5q-145 0 -231 68.5t-96 195.5h176z" />
    <glyph glyph-name="Uring" unicode="&#x16e;" horiz-adv-x="1398" 
d="M700 -20q-124 0 -224 37.5t-161.5 95.5t-103 133t-58 145t-16.5 137v926h228v-917q0 -161 97 -259t238 -98q140 0 238 98t98 259v917h226v-926q0 -67 -16.5 -137t-58 -145t-103 -133t-161.5 -95.5t-223 -37.5zM494 1735q0 85 58 141.5t148 56.5q89 0 147 -56.5t58 -141.5
q0 -90 -58 -145.5t-147 -55.5q-90 0 -148 55.5t-58 145.5zM606 1735q0 -45 26.5 -71t67.5 -26q40 0 66.5 26.5t26.5 70.5q0 37 -26.5 62.5t-66.5 25.5q-42 0 -68 -24.5t-26 -63.5z" />
    <glyph glyph-name="uring" unicode="&#x16f;" horiz-adv-x="1167" 
d="M518 0q-174 0 -286.5 112t-112.5 316v657h221v-639q0 -258 231 -258h242v897h221v-948q0 -60 -38.5 -98.5t-98.5 -38.5h-379zM371 1374q0 85 58.5 142t148.5 57q89 0 146.5 -57t57.5 -142q0 -88 -57.5 -144t-146.5 -56q-90 0 -148.5 55.5t-58.5 144.5zM483 1374
q0 -43 27 -69.5t68 -26.5q39 0 65.5 26.5t26.5 69.5q0 37 -26.5 63.5t-65.5 26.5q-41 0 -68 -25t-27 -65z" />
    <glyph glyph-name="Uhungarumlaut" unicode="&#x170;" horiz-adv-x="1398" 
d="M700 -20q-124 0 -224 37.5t-161.5 95.5t-103 133t-58 145t-16.5 137v926h228v-917q0 -161 97 -259t238 -98q140 0 238 98t98 259v917h226v-926q0 -67 -16.5 -137t-58 -145t-103 -133t-161.5 -95.5t-223 -37.5zM403 1561l162 243h281l-230 -243h-213zM823 1561l162 243
h279l-228 -243h-213z" />
    <glyph glyph-name="uhungarumlaut" unicode="&#x171;" horiz-adv-x="1167" 
d="M518 0q-174 0 -286.5 112t-112.5 316v657h221v-639q0 -258 231 -258h242v897h221v-948q0 -60 -38.5 -98.5t-98.5 -38.5h-379zM279 1200l198 254h260l-282 -254h-176zM680 1200l199 254h260l-283 -254h-176z" />
    <glyph glyph-name="Uogonek" unicode="&#x172;" horiz-adv-x="1398" 
d="M729 -369q-122 0 -186 50t-64 126q0 113 96 183q-96 17 -173.5 61t-125.5 100t-80.5 124.5t-45.5 131t-13 121.5v926h228v-917q0 -161 97 -259t238 -98q140 0 238 98t98 259v917h226v-926q0 -62 -14 -127t-49.5 -135.5t-87.5 -127.5t-136 -99.5t-187 -54.5
q-118 -47 -118 -107q0 -28 26 -43.5t70 -15.5h63v-187h-100z" />
    <glyph glyph-name="uogonek" unicode="&#x173;" horiz-adv-x="1167" 
d="M518 0q-174 0 -286.5 112t-112.5 316v657h221v-639q0 -258 231 -258h242v897h221v-948q0 -60 -38.5 -98.5t-98.5 -38.5h-139q-160 -52 -160 -123q0 -28 26 -43.5t70 -15.5h64v-187h-101q-122 0 -185.5 50t-63.5 126q0 120 110 193z" />
    <glyph glyph-name="Wcircumflex" unicode="&#x174;" horiz-adv-x="2052" 
d="M1044 1249h-34l-68 -319l-205 -930h-342l-332 1454h226l194 -944l64 -305h37l61 305l213 944h338l213 -944l61 -305h37l64 305l194 944h226l-332 -1454h-342l-205 930zM694 1561l201 243h266l199 -243h-203l-115 118h-30l-113 -118h-205z" />
    <glyph glyph-name="wcircumflex" unicode="&#x175;" horiz-adv-x="1767" 
d="M1245 190h29l53 252l150 643h225v-16l-283 -1069h-319l-150 643l-49 252h-33l-51 -252l-149 -643h-320l-282 1069v16h225l149 -643l54 -252h30l49 252l150 643h321l150 -643zM551 1200l201 254h266l199 -254h-203l-115 129h-31l-112 -129h-205z" />
    <glyph glyph-name="Ycircumflex" unicode="&#x176;" horiz-adv-x="1275" 
d="M522 592l-465 854v8h244l215 -416l117 -237h8l117 237l217 416h244v-8l-469 -852v-594h-228v592zM305 1561l201 243h266l199 -243h-203l-115 118h-30l-113 -118h-205z" />
    <glyph glyph-name="ycircumflex" unicode="&#x177;" horiz-adv-x="1185" 
d="M205 -369v187h299l49 186h-125l-365 1065v16h230l205 -643l75 -252h39l76 252l205 643h227v-16l-448 -1313q-42 -125 -172 -125h-295zM260 1200l201 254h266l199 -254h-203l-115 129h-30l-113 -129h-205z" />
    <glyph glyph-name="Ydieresis" unicode="&#x178;" horiz-adv-x="1275" 
d="M522 592l-465 854v8h244l215 -416l117 -237h8l117 237l217 416h244v-8l-469 -852v-594h-228v592zM334 1577v211h207v-211h-207zM735 1577v211h207v-211h-207z" />
    <glyph glyph-name="Zacute" unicode="&#x179;" horiz-adv-x="1200" 
d="M76 0v193l760 1054v8h-742v199h1010v-192l-762 -1055v-8h782v-199h-1048zM432 1561l221 243h287l-305 -243h-203z" />
    <glyph glyph-name="zacute" unicode="&#x17a;" horiz-adv-x="1054" 
d="M80 0v156l596 739h-574v190h861v-155l-601 -740h611v-190h-893zM381 1200l223 254h285l-309 -254h-199z" />
    <glyph glyph-name="Zdotaccent" unicode="&#x17b;" horiz-adv-x="1200" 
d="M76 0v193l760 1054v8h-742v199h1010v-192l-762 -1055v-8h782v-199h-1048zM483 1569v229h236v-229h-236z" />
    <glyph glyph-name="zdotaccent" unicode="&#x17c;" horiz-adv-x="1054" 
d="M80 0v156l596 739h-574v190h861v-155l-601 -740h611v-190h-893zM416 1229v225h221v-225h-221z" />
    <glyph glyph-name="Zcaron" unicode="&#x17d;" horiz-adv-x="1200" 
d="M76 0v193l760 1054v8h-742v199h1010v-192l-762 -1055v-8h782v-199h-1048zM266 1804h205l113 -118h30l115 118h203l-199 -243h-266z" />
    <glyph glyph-name="zcaron" unicode="&#x17e;" horiz-adv-x="1054" 
d="M80 0v156l596 739h-574v190h861v-155l-601 -740h611v-190h-893zM195 1454h204l113 -129h31l114 129h203l-198 -254h-267z" />
    <glyph glyph-name="uni018F" unicode="&#x18f;" horiz-adv-x="1607" 
d="M801 -20q-118 0 -226.5 31.5t-202 96.5t-161.5 157.5t-105 221.5t-32 281h1220q-6 124 -48 223t-110 161t-153.5 94t-181.5 32q-91 0 -169.5 -26t-133 -70.5t-91.5 -96.5t-57 -110h-241q33 138 127 250.5t242 181t323 68.5q146 0 276.5 -50.5t231 -143t159 -235.5
t58.5 -317q0 -141 -38 -262.5t-105.5 -210t-159 -151.5t-198.5 -94t-224 -31zM317 584q39 -195 171.5 -301.5t312.5 -106.5q115 0 212.5 44t170 137.5t98.5 226.5h-965z" />
    <glyph glyph-name="uni0191" unicode="&#x191;" horiz-adv-x="886" 
d="M-240 -369v187h291l172 975h-143v190h176l59 336q23 135 166 135h342v-186h-295l-49 -285h260v-190h-295l-180 -1026q-24 -136 -166 -136h-338z" />
    <glyph glyph-name="florin" unicode="&#x192;" horiz-adv-x="886" 
d="M-240 -369v187h291l172 975h-143v190h176l59 336q23 135 166 135h342v-186h-295l-49 -285h260v-190h-295l-180 -1026q-24 -136 -166 -136h-338z" />
    <glyph glyph-name="Aringacute" unicode="&#x1fa;" horiz-adv-x="1470" 
d="M59 0l512 1454h340l514 -1454h-233l-156 461h-592l-157 -461h-228zM510 653h461l-113 332l-88 268h-59l-88 -268zM537 1700q0 85 58 141.5t148 56.5q89 0 147 -56.5t58 -141.5q0 -89 -58 -145t-147 -56q-90 0 -148 56t-58 145zM631 1942l223 253h285l-310 -253h-198z
M649 1700q0 -43 26.5 -69.5t67.5 -26.5q39 0 66 26.5t27 69.5q0 37 -27 63.5t-66 26.5q-41 0 -67.5 -25t-26.5 -65z" />
    <glyph glyph-name="aringacute" unicode="&#x1fb;" horiz-adv-x="1148" 
d="M457 0q-171 0 -273 78t-102 233q0 87 26.5 146t83.5 94.5t128.5 54t179.5 29.5l315 31v73q0 193 -231 193q-112 0 -167 -42.5t-67 -135.5h-223q6 167 133 259.5t332 92.5q201 0 319.5 -93.5t118.5 -279.5v-596q0 -60 -39 -98.5t-100 -38.5h-434zM305 322q0 -80 43.5 -111
t136.5 -31h330v322l-272 -31q-133 -14 -185.5 -46.5t-52.5 -102.5zM385 1352q0 85 58.5 141.5t148.5 56.5q89 0 147 -56.5t58 -141.5q0 -89 -58 -145t-147 -56q-90 0 -148.5 56t-58.5 145zM481 1593l224 254h284l-309 -254h-199zM498 1352q0 -44 27 -70.5t67 -26.5
q39 0 65.5 27t26.5 70q0 37 -26.5 63.5t-65.5 26.5q-41 0 -67.5 -25t-26.5 -65z" />
    <glyph glyph-name="AEacute" unicode="&#x1fc;" horiz-adv-x="1976" 
d="M63 0l512 1454h1317v-197h-665v-432h592v-194h-592v-434h676v-197h-904v461h-550l-156 -461h-230zM514 653h485v604h-280zM1073 1561l221 243h287l-305 -243h-203z" />
    <glyph glyph-name="aeacute" unicode="&#x1fd;" horiz-adv-x="1968" 
d="M457 0q-171 0 -273 78t-102 233q0 87 26.5 146t83.5 94.5t128.5 54t179.5 29.5l315 31v73q0 193 -231 193q-112 0 -167 -42.5t-67 -135.5h-223q6 167 133 259.5t332 92.5q267 0 377 -154q151 154 381 154q248 0 400 -171t134 -456h-848q18 -143 102.5 -233t211.5 -90
q95 0 165 49t103 133h235q-47 -165 -182.5 -261.5t-320.5 -96.5q-192 0 -328 104q-15 -39 -49.5 -61.5t-81.5 -22.5h-434zM305 322q0 -80 43.5 -111t136.5 -31h330v322l-272 -31q-133 -14 -185.5 -46.5t-52.5 -102.5zM838 1200l223 254h285l-310 -254h-198zM1042 649h619
q-24 128 -107.5 205.5t-203.5 77.5t-201 -78t-107 -205z" />
    <glyph glyph-name="Oslashacute" unicode="&#x1fe;" horiz-adv-x="1613" 
d="M807 -20q-193 0 -361 88l-104 -150h-217l178 252q-221 208 -221 557q0 140 38 260.5t105.5 209t159 152t199 95t223.5 31.5q198 0 358 -86l105 147h217l-178 -250q105 -99 164 -240t59 -317q0 -140 -38 -261t-105.5 -210t-159 -152t-199 -94.5t-223.5 -31.5zM313 727
q0 -229 117 -379l614 873q-102 57 -237 57q-102 0 -190.5 -36t-156.5 -104t-107.5 -174t-39.5 -237zM567 233q111 -57 240 -57q102 0 190.5 35.5t156.5 103.5t107 174.5t39 239.5q0 232 -118 379zM639 1561l221 243h287l-305 -243h-203z" />
    <glyph glyph-name="oslashacute" unicode="&#x1ff;" horiz-adv-x="1259" 
d="M629 -20q-141 0 -252 57l-84 -119h-209l156 219q-152 152 -152 406q0 132 43.5 240t118.5 178t172.5 107.5t206.5 37.5q143 0 254 -57l84 118h209l-154 -219q149 -152 149 -405q0 -132 -43.5 -240t-118.5 -178t-172.5 -107.5t-207.5 -37.5zM311 543q0 -133 54 -230
l409 578q-68 35 -145 35q-61 0 -117 -24t-101.5 -69.5t-72.5 -120.5t-27 -169zM483 1200l224 254h284l-309 -254h-199zM487 195q68 -35 142 -35q62 0 118.5 24t101.5 69.5t72 120.5t27 169q0 136 -55 229z" />
    <glyph glyph-name="uni0218" unicode="&#x218;" horiz-adv-x="1267" 
d="M645 -20q-158 0 -286.5 58t-205.5 170.5t-79 262.5h229q4 -137 100 -217t242 -80q149 0 233.5 59.5t84.5 172.5q0 56 -29 98.5t-78.5 69t-113.5 47t-135 38.5t-142 38.5t-135 51.5t-113.5 72.5t-78.5 106.5t-29 149q0 188 142.5 293t366.5 105q234 0 384.5 -125.5
t156.5 -343.5h-227q-4 131 -94 204.5t-226 73.5q-122 0 -201 -50.5t-79 -148.5q0 -52 29.5 -91t79 -64t114 -45.5t136 -39.5t143 -40.5t136 -54.5t114 -76.5t79 -110.5t29.5 -153q0 -101 -45 -184t-121 -136t-174 -81.5t-207 -28.5zM473 -430l55 336h224l-117 -336h-162z
" />
    <glyph glyph-name="uni0219" unicode="&#x219;" horiz-adv-x="1081" 
d="M543 -20q-130 0 -229.5 37.5t-163 119t-72.5 201.5h227q34 -186 242 -186q42 0 80 7t73 23t55.5 46t20.5 71q0 51 -37 84.5t-95.5 51.5t-130 33t-142.5 36t-129.5 51.5t-95.5 88.5t-37 140q0 103 58 177t152 109.5t213 35.5q197 0 315 -94t130 -258h-225
q-6 87 -62.5 133.5t-161.5 46.5q-82 0 -141 -32.5t-59 -96.5q0 -44 37 -75t96 -50t130.5 -36t143.5 -41.5t131 -58t96 -93t37 -140.5q0 -84 -37 -149t-101 -104t-144.5 -58.5t-173.5 -19.5zM371 -430l55 336h223l-117 -336h-161z" />
    <glyph glyph-name="uni021A" unicode="&#x21a;" horiz-adv-x="1228" 
d="M502 0v1255h-436v199h1099v-199h-438v-1255h-225zM444 -430l56 336h223l-117 -336h-162z" />
    <glyph glyph-name="uni021B" unicode="&#x21b;" horiz-adv-x="778" 
d="M692 1085v-190h-239v-709h239v-186h-323q-60 0 -99 38.5t-39 98.5v758h-161v190h161v277h222v-277h239zM279 -430l55 336h223l-117 -336h-161z" />
    <glyph glyph-name="uni0237" unicode="&#x237;" horiz-adv-x="491" 
d="M-111 -369v187h246v1267h221v-1310q0 -66 -39 -105t-108 -39h-320z" />
    <glyph glyph-name="uni0259" unicode="&#x259;" horiz-adv-x="1241" 
d="M618 1106q237 0 386 -157t149 -406q0 -247 -150 -405t-385 -158q-121 0 -223 43.5t-174 123t-109 198t-28 261.5h848q-18 143 -103 233.5t-211 90.5q-95 0 -165 -49t-103 -133h-235q47 165 182.5 261.5t320.5 96.5zM307 436q24 -128 107.5 -205t203.5 -77t201.5 77.5
t106.5 204.5h-619z" />
    <glyph glyph-name="uni02BC" unicode="&#x2bc;" horiz-adv-x="557" 
d="M127 971l68 483h235l-123 -483h-180z" />
    <glyph glyph-name="circumflex" unicode="&#x2c6;" horiz-adv-x="870" 
d="M565 1200l-114 129h-31l-113 -129h-205l201 254h266l199 -254h-203z" />
    <glyph glyph-name="caron" unicode="&#x2c7;" horiz-adv-x="870" 
d="M565 1454h203l-199 -254h-266l-201 254h205l113 -129h31z" />
    <glyph glyph-name="breve" unicode="&#x2d8;" horiz-adv-x="862" 
d="M430 1190q-146 0 -232 68.5t-96 195.5h177q12 -60 51.5 -90.5t99.5 -30.5q128 0 154 121h176q-10 -127 -98.5 -195.5t-231.5 -68.5z" />
    <glyph glyph-name="dotaccent" unicode="&#x2d9;" horiz-adv-x="440" 
d="M102 1212v228h236v-228h-236z" />
    <glyph glyph-name="ring" unicode="&#x2da;" horiz-adv-x="616" 
d="M309 1174q-90 0 -148.5 55.5t-58.5 144.5q0 85 58.5 142t148.5 57q89 0 147 -57t58 -142q0 -88 -58 -144t-147 -56zM215 1374q0 -43 26.5 -69.5t67.5 -26.5q39 0 65.5 26.5t26.5 69.5q0 37 -26.5 63.5t-65.5 26.5q-41 0 -67.5 -25t-26.5 -65z" />
    <glyph glyph-name="ogonek" unicode="&#x2db;" horiz-adv-x="606" 
d="M315 -414q-98 0 -155.5 48.5t-57.5 127.5q0 62 33 121.5t113 134.5l129 -18q-94 -77 -94 -147q0 -86 118 -86h103v-181h-189z" />
    <glyph glyph-name="tilde" unicode="&#x2dc;" horiz-adv-x="956" 
d="M102 1200q5 109 69.5 184.5t158.5 75.5q46 0 89.5 -18.5t71 -40t58 -40t53.5 -18.5q79 0 82 109h170q-3 -107 -67.5 -183.5t-157.5 -76.5q-46 0 -89.5 18.5t-71.5 40t-59.5 40t-54.5 18.5q-79 0 -82 -109h-170z" />
    <glyph glyph-name="hungarumlaut" unicode="&#x2dd;" horiz-adv-x="1101" 
d="M541 1200l196 254h262l-282 -254h-176zM102 1200l199 254h260l-282 -254h-177z" />
    <glyph glyph-name="gravecomb" unicode="&#x300;" 
d="M412 1200l-310 254h285l223 -254h-198z" />
    <glyph glyph-name="acutecomb" unicode="&#x301;" 
d="M102 1200l224 254h284l-309 -254h-199z" />
    <glyph glyph-name="uni0302" unicode="&#x302;" 
d="M565 1200l-114 129h-31l-113 -129h-205l201 254h266l199 -254h-203z" />
    <glyph glyph-name="tildecomb" unicode="&#x303;" 
d="M102 1200q5 109 69.5 184.5t158.5 75.5q46 0 89.5 -18.5t71 -40t58 -40t53.5 -18.5q79 0 82 109h170q-3 -107 -67.5 -183.5t-157.5 -76.5q-46 0 -89.5 18.5t-71.5 40t-59.5 40t-54.5 18.5q-79 0 -82 -109h-170z" />
    <glyph glyph-name="uni0304" unicode="&#x304;" 
d="M102 1407h637v-160h-637v160z" />
    <glyph glyph-name="uni0306" unicode="&#x306;" 
d="M430 1190q-146 0 -232 68.5t-96 195.5h177q12 -60 51.5 -90.5t99.5 -30.5q128 0 154 121h176q-10 -127 -98.5 -195.5t-231.5 -68.5z" />
    <glyph glyph-name="uni0307" unicode="&#x307;" 
d="M102 1229v225h222v-225h-222z" />
    <glyph glyph-name="uni0308" unicode="&#x308;" 
d="M504 1223v209h207v-209h-207zM102 1223v209h207v-209h-207z" />
    <glyph glyph-name="uni030A" unicode="&#x30a;" 
d="M309 1174q-90 0 -148.5 55.5t-58.5 144.5q0 85 58.5 142t148.5 57q89 0 147 -57t58 -142q0 -88 -58 -144t-147 -56zM215 1374q0 -43 26.5 -69.5t67.5 -26.5q39 0 65.5 26.5t26.5 69.5q0 37 -26.5 63.5t-65.5 26.5q-41 0 -67.5 -25t-26.5 -65z" />
    <glyph glyph-name="uni030B" unicode="&#x30b;" 
d="M504 1200l198 254h261l-283 -254h-176zM102 1200l199 254h260l-282 -254h-177z" />
    <glyph glyph-name="uni030C" unicode="&#x30c;" 
d="M565 1454h203l-199 -254h-266l-201 254h205l113 -129h31z" />
    <glyph glyph-name="uni0312" unicode="&#x312;" 
d="M102 1200l248 254h199l-162 -254h-285z" />
    <glyph glyph-name="uni0326" unicode="&#x326;" 
d="M102 -430l56 336h223l-117 -336h-162z" />
    <glyph glyph-name="uni0327" unicode="&#x327;" 
d="M102 -471v104h174q41 0 63.5 18t22.5 50v4q0 30 -22.5 47t-63.5 17h-147l-14 14l61 221l162 -4l-62 -111v-16h52q78 0 136 -43.5t58 -124.5v-4q0 -85 -57.5 -128.5t-136.5 -43.5h-226z" />
    <glyph glyph-name="uni0328" unicode="&#x328;" 
d="M352 -369q-122 0 -186 50t-64 126q0 154 181 230l170 -37q-160 -52 -160 -123q0 -28 26 -43.5t70 -15.5h64v-187h-101z" />
    <glyph glyph-name="uni0337" unicode="&#x337;" 
d="M102 502v215l584 327v-215z" />
    <glyph glyph-name="uni0338" unicode="&#x338;" 
d="M102 -82l719 1014l60 88l104 147h209l-178 -252l-66 -90l-639 -907h-209z" />
    <glyph glyph-name="uni03A9" unicode="&#x3a9;" horiz-adv-x="1634" 
d="M94 0v195h330q-69 37 -126 88.5t-104.5 122t-74.5 165.5t-27 205q0 107 29 208.5t89 190.5t144.5 156t203.5 105.5t259 38.5t259 -38.5t203.5 -105.5t144.5 -156t89 -190.5t29 -208.5q0 -109 -27 -204t-75 -165.5t-105.5 -122.5t-126.5 -89h332v-195h-614v197
q51 11 100.5 33t102 65t92 100t65 143t25.5 189q0 128 -40.5 232.5t-109.5 171.5t-157.5 103t-186.5 36t-186 -36t-157 -103t-109.5 -171.5t-40.5 -232.5q0 -103 25.5 -189t65 -143t92 -100t102 -65t100.5 -33v-197h-615z" />
    <glyph glyph-name="pi" unicode="&#x3c0;" horiz-adv-x="1366" 
d="M956 0q-61 0 -99 38.5t-38 98.5v758h-366v-895h-222v895h-161v190h1210v-190h-240v-709h240v-186h-324z" />
    <glyph glyph-name="Wgrave" unicode="&#x1e80;" horiz-adv-x="2052" 
d="M1044 1249h-34l-68 -319l-205 -930h-342l-332 1454h226l194 -944l64 -305h37l61 305l213 944h338l213 -944l61 -305h37l64 305l194 944h226l-332 -1454h-342l-205 930zM686 1804h287l221 -243h-203z" />
    <glyph glyph-name="wgrave" unicode="&#x1e81;" horiz-adv-x="1767" 
d="M1245 190h29l53 252l150 643h225v-16l-283 -1069h-319l-150 643l-49 252h-33l-51 -252l-149 -643h-320l-282 1069v16h225l149 -643l54 -252h30l49 252l150 643h321l150 -643zM557 1454h285l223 -254h-199z" />
    <glyph glyph-name="Wacute" unicode="&#x1e82;" horiz-adv-x="2052" 
d="M1044 1249h-34l-68 -319l-205 -930h-342l-332 1454h226l194 -944l64 -305h37l61 305l213 944h338l213 -944l61 -305h37l64 305l194 944h226l-332 -1454h-342l-205 930zM858 1561l221 243h287l-305 -243h-203z" />
    <glyph glyph-name="wacute" unicode="&#x1e83;" horiz-adv-x="1767" 
d="M1245 190h29l53 252l150 643h225v-16l-283 -1069h-319l-150 643l-49 252h-33l-51 -252l-149 -643h-320l-282 1069v16h225l149 -643l54 -252h30l49 252l150 643h321l150 -643zM739 1200l224 254h284l-309 -254h-199z" />
    <glyph glyph-name="Wdieresis" unicode="&#x1e84;" horiz-adv-x="2052" 
d="M1044 1249h-34l-68 -319l-205 -930h-342l-332 1454h226l194 -944l64 -305h37l61 305l213 944h338l213 -944l61 -305h37l64 305l194 944h226l-332 -1454h-342l-205 930zM723 1577v211h207v-211h-207zM1124 1577v211h207v-211h-207z" />
    <glyph glyph-name="wdieresis" unicode="&#x1e85;" horiz-adv-x="1767" 
d="M1245 190h29l53 252l150 643h225v-16l-283 -1069h-319l-150 643l-49 252h-33l-51 -252l-149 -643h-320l-282 1069v16h225l149 -643l54 -252h30l49 252l150 643h321l150 -643zM580 1223v209h206v-209h-206zM981 1223v209h207v-209h-207z" />
    <glyph glyph-name="uni1E9E" unicode="&#x1e9e;" horiz-adv-x="1267" 
d="M139 1317q0 60 38.5 98.5t98.5 38.5h840v-192l-325 -433q186 -20 292.5 -129.5t106.5 -281.5q0 -184 -124 -301t-323 -117h-188v195h164q119 0 180.5 62.5t61.5 160.5t-62 159.5t-180 61.5h-164v192l313 420v11h-506v-1262h-223v1317z" />
    <glyph glyph-name="uni1EBC" unicode="&#x1ebc;" horiz-adv-x="1118" 
d="M139 1317q0 60 38.5 98.5t98.5 38.5h756v-197h-665v-432h591v-194h-591v-434h675v-197h-903v1317zM221 1561q5 110 69.5 185t158.5 75q46 0 89.5 -18t71 -39.5t58 -39.5t53.5 -18q43 0 61.5 27t20.5 82h170q-3 -109 -67.5 -186t-157.5 -77q-46 0 -89.5 18.5t-71.5 40
t-59.5 40t-54.5 18.5q-79 0 -82 -108h-170z" />
    <glyph glyph-name="uni1EBD" unicode="&#x1ebd;" horiz-adv-x="1241" 
d="M623 -20q-237 0 -386 157t-149 406q0 247 150 405t385 158q248 0 400 -171t134 -456h-848q18 -143 102.5 -233t211.5 -90q95 0 165 49t103 133h235q-47 -165 -182.5 -261.5t-320.5 -96.5zM252 1198q5 109 69 184.5t158 75.5q46 0 89.5 -18.5t71.5 -40t58.5 -40
t53.5 -18.5q79 0 82 109h170q-3 -107 -68 -183.5t-158 -76.5q-46 0 -89.5 18.5t-71 40t-59 40t-54.5 18.5q-79 0 -82 -109h-170zM315 649h619q-24 128 -107.5 205.5t-203.5 77.5t-201 -78t-107 -205z" />
    <glyph glyph-name="Ygrave" unicode="&#x1ef2;" horiz-adv-x="1275" 
d="M522 592l-465 854v8h244l215 -416l117 -237h8l117 237l217 416h244v-8l-469 -852v-594h-228v592zM297 1804h287l221 -243h-203z" />
    <glyph glyph-name="ygrave" unicode="&#x1ef3;" horiz-adv-x="1185" 
d="M205 -369v187h299l49 186h-125l-365 1065v16h230l205 -643l75 -252h39l76 252l205 643h227v-16l-448 -1313q-42 -125 -172 -125h-295zM266 1454h285l223 -254h-199z" />
    <glyph glyph-name="uni1EF8" unicode="&#x1ef8;" horiz-adv-x="1275" 
d="M522 592l-465 854v8h244l215 -416l117 -237h8l117 237l217 416h244v-8l-469 -852v-594h-228v592zM268 1561q5 110 69.5 185t158.5 75q46 0 89.5 -18t71 -39.5t58 -39.5t53.5 -18q43 0 61.5 27t20.5 82h170q-3 -109 -67.5 -186t-157.5 -77q-46 0 -89.5 18.5t-71.5 40
t-59.5 40t-54.5 18.5q-79 0 -82 -108h-170z" />
    <glyph glyph-name="uni1EF9" unicode="&#x1ef9;" horiz-adv-x="1185" 
d="M205 -369v187h299l49 186h-125l-365 1065v16h230l205 -643l75 -252h39l76 252l205 643h227v-16l-448 -1313q-42 -125 -172 -125h-295zM221 1198q5 109 69.5 184.5t158.5 75.5q46 0 89.5 -18.5t71 -40t58 -40t53.5 -18.5q79 0 82 109h170q-3 -107 -67.5 -183.5
t-157.5 -76.5q-46 0 -89.5 18.5t-71.5 40t-59.5 40t-54.5 18.5q-79 0 -82 -109h-170z" />
    <glyph glyph-name="uni2002" unicode="&#x2002;" horiz-adv-x="1024" 
 />
    <glyph glyph-name="uni2003" unicode="&#x2003;" horiz-adv-x="2048" 
 />
    <glyph glyph-name="uni2004" unicode="&#x2004;" horiz-adv-x="681" 
 />
    <glyph glyph-name="uni2005" unicode="&#x2005;" horiz-adv-x="512" 
 />
    <glyph glyph-name="uni2009" unicode="&#x2009;" horiz-adv-x="256" 
 />
    <glyph glyph-name="uni200A" unicode="&#x200a;" horiz-adv-x="86" 
 />
    <glyph glyph-name="uni200B" unicode="&#x200b;" 
 />
    <glyph glyph-name="endash" unicode="&#x2013;" horiz-adv-x="1261" 
d="M104 473v184h1053v-184h-1053z" />
    <glyph glyph-name="emdash" unicode="&#x2014;" horiz-adv-x="1935" 
d="M135 473v184h1665v-184h-1665z" />
    <glyph glyph-name="quoteleft" unicode="&#x2018;" horiz-adv-x="557" 
d="M127 971l123 483h180l-68 -483h-235z" />
    <glyph glyph-name="quoteright" unicode="&#x2019;" horiz-adv-x="557" 
d="M127 971l68 483h235l-123 -483h-180z" />
    <glyph glyph-name="quotesinglbase" unicode="&#x201a;" horiz-adv-x="557" 
d="M127 -238l68 484h235l-123 -484h-180z" />
    <glyph glyph-name="quotedblleft" unicode="&#x201c;" horiz-adv-x="940" 
d="M127 971l123 483h180l-68 -483h-235zM510 971l123 483h180l-68 -483h-235z" />
    <glyph glyph-name="quotedblright" unicode="&#x201d;" horiz-adv-x="940" 
d="M127 971l68 483h235l-123 -483h-180zM510 971l68 483h235l-123 -483h-180z" />
    <glyph glyph-name="quotedblbase" unicode="&#x201e;" horiz-adv-x="940" 
d="M127 -238l68 484h235l-123 -484h-180zM510 -238l68 484h235l-123 -484h-180z" />
    <glyph glyph-name="dagger" unicode="&#x2020;" horiz-adv-x="1226" 
d="M502 -205v1084h-367v206h367v369h221v-369h369v-206h-369v-1084h-221z" />
    <glyph glyph-name="daggerdbl" unicode="&#x2021;" horiz-adv-x="1253" 
d="M516 -205v578h-369v209h369v297h-369v206h369v369h221v-369h369v-206h-369v-297h369v-209h-369v-578h-221z" />
    <glyph glyph-name="bullet" unicode="&#x2022;" horiz-adv-x="960" 
d="M481 305q-122 0 -207.5 85t-85.5 206t85.5 206t207.5 85q121 0 206 -84.5t85 -206.5t-85 -206.5t-206 -84.5z" />
    <glyph glyph-name="ellipsis" unicode="&#x2026;" horiz-adv-x="1316" 
d="M135 0v231h221v-231h-221zM549 0v231h221v-231h-221zM961 0v231h221v-231h-221z" />
    <glyph glyph-name="uni202F" unicode="&#x202f;" horiz-adv-x="256" 
 />
    <glyph glyph-name="perthousand" unicode="&#x2030;" horiz-adv-x="2758" 
d="M387 639q-172 0 -257 111.5t-85 304.5q0 191 85.5 301t256.5 110q172 0 258 -111.5t86 -299.5q0 -194 -86 -305t-258 -111zM223 1055q0 -277 164 -277q87 0 126.5 75.5t39.5 201.5q0 272 -166 272q-164 0 -164 -272zM578 0l628 1454h166l-629 -1454h-165zM1212 403
q0 191 85.5 301.5t256.5 110.5q172 0 258 -111.5t86 -300.5q0 -194 -86 -304.5t-258 -110.5t-257 111t-85 304zM1391 403q0 -276 163 -276q87 0 126.5 75t39.5 201q0 273 -166 273q-163 0 -163 -273zM2030 403q0 191 85.5 301.5t256.5 110.5q172 0 258 -111.5t86 -300.5
q0 -194 -86 -304.5t-258 -110.5t-257 111t-85 304zM2208 403q0 -276 164 -276q87 0 126 75t39 201q0 273 -165 273q-164 0 -164 -273z" />
    <glyph glyph-name="guilsinglleft" unicode="&#x2039;" horiz-adv-x="690" 
d="M344 143l-240 402l240 399h236l-242 -399l242 -402h-236z" />
    <glyph glyph-name="guilsinglright" unicode="&#x203a;" horiz-adv-x="690" 
d="M346 944l240 -401l-240 -400h-235l241 400l-241 401h235z" />
    <glyph glyph-name="fraction" unicode="&#x2044;" horiz-adv-x="417" 
d="M-172 0l629 1454h166l-629 -1454h-166z" />
    <glyph glyph-name="uni2070" unicode="&#x2070;" horiz-adv-x="774" 
d="M387 842q-172 0 -257 111t-85 304q0 191 85.5 301.5t256.5 110.5q172 0 258 -111.5t86 -300.5q0 -194 -86 -304.5t-258 -110.5zM223 1257q0 -276 164 -276q87 0 126.5 75t39.5 201q0 273 -166 273q-164 0 -164 -273z" />
    <glyph glyph-name="uni2074" unicode="&#x2074;" horiz-adv-x="710" 
d="M461 854v174h-438v127l358 502h158q37 0 63.5 -25.5t26.5 -62.5v-715h-168zM207 1171h254v183l4 151h-23l-235 -325v-9z" />
    <glyph glyph-name="uni2075" unicode="&#x2075;" horiz-adv-x="724" 
d="M365 842q-146 0 -232.5 69.5t-91.5 182.5h170q9 -59 50 -91t101 -32q66 0 108 38t42 99q0 62 -40.5 99.5t-104.5 37.5q-109 0 -142 -76h-114q-19 0 -32.5 13.5t-12.5 31.5l28 355q3 38 28 63t62 25h463v-148h-407l-19 -194q62 51 178 51q134 0 211.5 -70t77.5 -188
q0 -122 -88.5 -194t-234.5 -72z" />
    <glyph glyph-name="uni2076" unicode="&#x2076;" horiz-adv-x="745" 
d="M381 842q-167 0 -252.5 98.5t-85.5 273.5q0 209 88 332t266 123q126 0 208 -64t91 -173h-176q-22 102 -133 102q-82 0 -124.5 -68t-47.5 -172q72 66 193 66q134 0 215.5 -70.5t81.5 -185.5q0 -120 -92 -191t-232 -71zM229 1104q0 -61 43 -98t107 -37q68 0 108.5 37
t40.5 98q0 62 -41.5 97.5t-107.5 35.5q-67 0 -108.5 -36t-41.5 -97z" />
    <glyph glyph-name="uni2077" unicode="&#x2077;" horiz-adv-x="626" 
d="M90 854l324 655h-396v148h590v-113l-325 -690h-193z" />
    <glyph glyph-name="uni2078" unicode="&#x2078;" horiz-adv-x="727" 
d="M360 842q-141 0 -232 63.5t-91 173.5q0 69 40 119t109 74v8q-123 50 -123 172q0 99 84 158t213 59q130 0 216 -59.5t86 -157.5q0 -117 -121 -172v-8q149 -57 149 -193q0 -110 -92.5 -173.5t-237.5 -63.5zM213 1092q0 -57 42.5 -90t104.5 -33q66 0 109 33t43 90
q0 54 -43 84t-109 30q-62 0 -104.5 -30.5t-42.5 -83.5zM236 1438q0 -50 35 -79.5t89 -29.5q56 0 94 29t38 80q0 48 -37.5 76t-94.5 28q-54 0 -89 -28t-35 -76z" />
    <glyph glyph-name="uni2079" unicode="&#x2079;" horiz-adv-x="745" 
d="M346 842q-125 0 -206 63.5t-91 173.5h178q17 -102 133 -102q77 0 120.5 67t49.5 170q-71 -63 -192 -63q-133 0 -216 70t-83 186q0 121 93 191.5t233 70.5q167 0 252 -99.5t85 -273.5q0 -100 -21 -181.5t-63 -143.5t-111 -95.5t-161 -33.5zM217 1407q0 -63 42.5 -99
t107.5 -36q66 0 107.5 37t41.5 98q0 62 -42 98.5t-107 36.5q-67 0 -108.5 -37t-41.5 -98z" />
    <glyph glyph-name="Euro" unicode="&#x20ac;" horiz-adv-x="1345" 
d="M754 -20q-222 0 -362.5 129.5t-186.5 375.5h-125v177h106q-2 20 -2 65v55h-104v174h123q43 250 185 384.5t366 134.5q134 0 247.5 -67.5t183 -178t87.5 -242.5h-242q-14 114 -92.5 203.5t-185.5 89.5q-259 0 -318 -324h467v-174h-485v-55q0 -45 2 -65h483v-177h-465
q61 -311 316 -311q107 0 185.5 89.5t92.5 203.5h242q-27 -202 -172.5 -344.5t-345.5 -142.5z" />
    <glyph glyph-name="uni2116" unicode="&#x2116;" horiz-adv-x="2435" 
d="M1630 606v131h656v-131h-656zM201 0v1317q0 60 38.5 98.5t98.5 38.5h254l393 -919l127 -314h55v1233h215v-1454h-389l-395 920l-127 313h-55v-1233h-215zM1630 1153q0 145 94 229t234 84q143 0 235.5 -83.5t92.5 -229.5q0 -145 -92.5 -228t-235.5 -83q-139 0 -233.5 83.5
t-94.5 227.5zM1800 1153q0 -90 45 -138t113 -48q70 0 115 47.5t45 138.5t-45 138.5t-115 47.5q-69 0 -113.5 -47.5t-44.5 -138.5z" />
    <glyph glyph-name="uni2117" unicode="&#x2117;" horiz-adv-x="1792" 
d="M893 -20q-204 0 -375.5 99.5t-271 271.5t-99.5 378q0 153 58.5 291t158.5 237.5t239 158.5t294 59q153 0 292 -59t238.5 -158.5t158.5 -237.5t59 -291q0 -155 -59 -294t-159.5 -238.5t-240 -158t-293.5 -58.5zM250 729q0 -135 50.5 -256t136.5 -208.5t205.5 -139
t252.5 -51.5q175 0 324 86.5t237 237.5t88 331q0 178 -87.5 327t-236 234.5t-323.5 85.5q-135 0 -255 -50.5t-206 -137t-136 -206t-50 -253.5zM596 264v832q0 40 25 65t65 25h307q133 0 215 -75.5t82 -205.5t-79 -206t-212 -76h-231v-359h-172zM768 764h223q121 0 121 141
q0 64 -36 100.5t-101 36.5h-207v-278z" />
    <glyph glyph-name="trademark" unicode="&#x2122;" horiz-adv-x="1992" 
d="M360 651v637h-221v166h631v-166h-221v-637h-189zM862 651v727q0 33 21.5 54.5t54.5 21.5h250l106 -483l25 -148h22l27 148l105 483h317v-803h-174l2 469v160h-25l-30 -160l-105 -469h-254l-114 469l-29 160h-25v-629h-174z" />
    <glyph glyph-name="estimated" unicode="&#x212e;" horiz-adv-x="1777" 
d="M889 0q-235 0 -418 89.5t-286 257t-103 388.5q0 163 60 301.5t166 234.5t255.5 150t325.5 54q362 0 577 -197.5t230 -560.5h-1284q-11 0 -16.5 -2t-10 -10.5t-4.5 -26.5v-361q0 -30 37.5 -73t101 -85.5t162.5 -72t207 -29.5q147 0 283 66t227 170h151
q-145 -161 -291 -227t-370 -66zM381 780q0 -18 31 -18h950q21 0 27 7t6 28v354q0 56 -78.5 120.5t-198.5 108t-231 43.5q-102 0 -200.5 -31t-162.5 -73.5t-103.5 -85t-39.5 -68.5v-385z" />
    <glyph glyph-name="uni2153" unicode="&#x2153;" horiz-adv-x="1593" 
d="M219 651v658h-201v145h285q37 0 62.5 -25.5t25.5 -62.5v-715h-172zM301 0l629 1454h166l-629 -1454h-166zM1094 238q3 -53 40.5 -85t98.5 -32q62 0 101.5 31t39.5 86t-44.5 81.5t-115.5 26.5h-63v133h63q69 0 111.5 29t42.5 80q0 44 -38 69t-93 25q-118 0 -131 -107h-174
q4 112 87 176t218 64q133 0 219 -59t86 -154q0 -61 -37.5 -109t-95.5 -67v-8q65 -23 104 -71.5t39 -117.5q0 -113 -89 -177t-226 -64q-139 0 -227 64.5t-92 185.5h176z" />
    <glyph glyph-name="uni2154" unicode="&#x2154;" horiz-adv-x="1826" 
d="M47 786q260 193 343 276.5t83 156.5q0 56 -34 85t-93 29q-62 0 -100 -35.5t-39 -95.5h-176q4 131 91.5 196.5t225.5 65.5q134 0 218.5 -66t84.5 -171q0 -107 -81 -200.5t-287 -225.5v-8l139 6h225v-148h-600v135zM535 0l628 1454h166l-629 -1454h-165zM1327 238
q3 -53 40.5 -85t98.5 -32q62 0 102 31t40 86t-44.5 81.5t-115.5 26.5h-64v133h64q69 0 111.5 29t42.5 80q0 44 -38.5 69t-93.5 25q-118 0 -131 -107h-174q4 112 87 176t218 64q133 0 219.5 -59.5t86.5 -153.5q0 -61 -38 -108.5t-96 -67.5v-8q65 -23 104.5 -71.5t39.5 -117.5
q0 -113 -89.5 -177t-226.5 -64q-139 0 -227 64.5t-92 185.5h176z" />
    <glyph glyph-name="oneeighth" unicode="&#x215b;" horiz-adv-x="1615" 
d="M219 651v658h-201v145h285q37 0 62.5 -25.5t25.5 -62.5v-715h-172zM301 0l629 1454h166l-629 -1454h-166zM928 225q0 69 40 119t109 74v8q-123 50 -123 172q0 99 84 158t213 59q130 0 215.5 -59.5t85.5 -157.5q0 -117 -120 -172v-8q149 -57 149 -193q0 -110 -92.5 -173.5
t-237.5 -63.5q-141 0 -232 63.5t-91 173.5zM1104 238q0 -57 42.5 -90t104.5 -33q66 0 109 33t43 90q0 54 -43 84t-109 30q-62 0 -104.5 -30.5t-42.5 -83.5zM1126 584q0 -50 35.5 -79.5t89.5 -29.5q56 0 93.5 29t37.5 80q0 48 -37 76t-94 28q-54 0 -89.5 -28t-35.5 -76z" />
    <glyph glyph-name="threeeighths" unicode="&#x215c;" horiz-adv-x="1845" 
d="M348 639q-139 0 -227 64.5t-92 185.5h176q3 -53 40.5 -85t98.5 -32q62 0 101.5 31t39.5 86t-44 81.5t-115 26.5h-64v133h64q69 0 111 29t42 80q0 44 -38 69t-93 25q-119 0 -131 -106h-174q4 111 87 175t218 64q133 0 219 -59t86 -154q0 -61 -37.5 -109t-95.5 -67v-8
q65 -23 104.5 -71t39.5 -117q0 -113 -89.5 -177.5t-226.5 -64.5zM528 0l629 1454h166l-629 -1454h-166zM1155 225q0 69 40.5 119t109.5 74v8q-123 50 -123 172q0 99 84 158t213 59q130 0 215.5 -59.5t85.5 -157.5q0 -117 -121 -172v-8q149 -57 149 -193q0 -110 -92 -173.5
t-237 -63.5q-141 0 -232.5 63.5t-91.5 173.5zM1331 238q0 -57 42.5 -90t105.5 -33q66 0 108.5 33t42.5 90q0 54 -42.5 84t-108.5 30q-62 0 -105 -30.5t-43 -83.5zM1354 584q0 -50 35.5 -79.5t89.5 -29.5q56 0 93.5 29t37.5 80q0 48 -37 76t-94 28q-54 0 -89.5 -28t-35.5 -76
z" />
    <glyph glyph-name="fiveeighths" unicode="&#x215d;" horiz-adv-x="1863" 
d="M365 639q-146 0 -232.5 69.5t-91.5 182.5h170q9 -59 50 -91t101 -32q66 0 108 38t42 99q0 62 -40.5 99.5t-104.5 37.5q-109 0 -142 -75h-114q-19 0 -32.5 13.5t-12.5 31.5l28 354q3 38 28 63t62 25h463v-147h-407l-19 -195q62 51 178 51q134 0 211.5 -70t77.5 -188
q0 -122 -88.5 -194t-234.5 -72zM549 0l629 1454h165l-628 -1454h-166zM1174 225q0 69 40 119t109 74v8q-123 50 -123 172q0 99 84 158t213 59q130 0 215.5 -59.5t85.5 -157.5q0 -117 -121 -172v-8q71 -27 110.5 -76.5t39.5 -116.5q0 -110 -92.5 -173.5t-237.5 -63.5
q-141 0 -232 63.5t-91 173.5zM1350 238q0 -57 42.5 -90t104.5 -33q66 0 109 33t43 90q0 54 -43 84t-109 30q-62 0 -104.5 -30.5t-42.5 -83.5zM1372 584q0 -50 35.5 -79.5t89.5 -29.5q56 0 93.5 29t37.5 80q0 48 -37 76t-94 28q-54 0 -89.5 -28t-35.5 -76z" />
    <glyph glyph-name="seveneighths" unicode="&#x215e;" horiz-adv-x="1628" 
d="M90 651l324 656h-396v147h590v-113l-325 -690h-193zM311 0l629 1454h166l-629 -1454h-166zM938 225q0 69 40 119t109 74v8q-122 49 -122 172q0 99 84 158t213 59q130 0 215.5 -59.5t85.5 -157.5q0 -117 -121 -172v-8q149 -57 149 -193q0 -110 -92 -173.5t-237 -63.5
q-141 0 -232.5 63.5t-91.5 173.5zM1114 238q0 -57 42.5 -90t105.5 -33q66 0 108.5 33t42.5 90q0 54 -42.5 84t-108.5 30q-62 0 -105 -30.5t-43 -83.5zM1137 584q0 -50 35.5 -79.5t89.5 -29.5q56 0 93.5 29t37.5 80q0 48 -37 76t-94 28q-54 0 -89.5 -28t-35.5 -76z" />
    <glyph glyph-name="arrowleft" unicode="&#x2190;" horiz-adv-x="1810" 
d="M1642 842v-228h-1097l438 -432h-287l-528 547l528 547h287l-440 -434h1099z" />
    <glyph glyph-name="arrowup" unicode="&#x2191;" horiz-adv-x="1429" 
d="M602 0v1100l-434 -441v287l547 529l547 -529v-287l-433 439v-1098h-227z" />
    <glyph glyph-name="arrowright" unicode="&#x2192;" horiz-adv-x="1810" 
d="M168 842h1100l-441 434h287l528 -547l-528 -547h-287l439 432h-1098v228z" />
    <glyph glyph-name="arrowdown" unicode="&#x2193;" horiz-adv-x="1429" 
d="M602 1454h227v-1098l433 439v-287l-547 -528l-547 528v287l434 -441v1100z" />
    <glyph glyph-name="uni2196" unicode="&#x2196;" horiz-adv-x="1472" 
d="M1305 319l-162 -161l-776 776l4 -615l-203 203l14 760l760 12l203 -202l-619 6z" />
    <glyph glyph-name="uni2197" unicode="&#x2197;" horiz-adv-x="1472" 
d="M168 319l780 779l-620 -6l202 202l760 -12l15 -760l-203 -203l4 615l-776 -776z" />
    <glyph glyph-name="uni2198" unicode="&#x2198;" horiz-adv-x="1472" 
d="M168 1137l162 159l776 -776l-4 617l203 -203l-15 -762l-760 -12l-202 202l620 -6z" />
    <glyph glyph-name="uni2199" unicode="&#x2199;" horiz-adv-x="1472" 
d="M1305 1137l-781 -781l621 6l-203 -202l-760 12l-14 762l203 203l-4 -617l776 776z" />
    <glyph glyph-name="partialdiff" unicode="&#x2202;" horiz-adv-x="1263" 
d="M629 -20q-237 0 -388 156.5t-151 406.5q0 163 67.5 291.5t186.5 200t268 71.5q128 0 238 -76q-83 134 -200.5 242.5t-250.5 177.5v4h283q223 -163 355 -390.5t132 -498.5q0 -255 -148.5 -420t-391.5 -165zM315 543q0 -167 89 -275t231 -108q141 0 230 108t89 275
q0 168 -88 275.5t-231 107.5q-142 0 -231 -108t-89 -275z" />
    <glyph glyph-name="emptyset" unicode="&#x2205;" horiz-adv-x="1509" 
d="M756 -20q-169 0 -310 86l-71 -86h-228l166 198q-149 165 -149 391q0 160 79 296t215.5 215t297.5 79q167 0 305 -86l72 86h227l-164 -196q150 -170 150 -394q0 -160 -79 -296t-215 -214.5t-296 -78.5zM348 569q0 -139 84 -247l508 608q-85 45 -184 45q-170 0 -289 -119
t-119 -287zM567 209q85 -45 189 -45q167 0 286 119t119 286q0 136 -86 250z" />
    <glyph glyph-name="uni2206" unicode="&#x2206;" horiz-adv-x="1619" 
d="M127 0l514 1454h338l514 -1454h-1366zM420 193h776l-270 792l-88 268h-60l-88 -268z" />
    <glyph glyph-name="product" unicode="&#x220f;" horiz-adv-x="1490" 
d="M1286 1454v-1679h-225v1482h-631v-1482h-227v1679h1083z" />
    <glyph glyph-name="summation" unicode="&#x2211;" horiz-adv-x="1298" 
d="M143 -225v194l492 652l-483 639v194h989v-194h-735l485 -639l-504 -652h774v-194h-1018z" />
    <glyph glyph-name="minus" unicode="&#x2212;" horiz-adv-x="1150" 
d="M76 633v192h1003v-192h-1003z" />
    <glyph glyph-name="radical" unicode="&#x221a;" horiz-adv-x="1757" 
d="M729 -225l-278 819h-320v190h487l175 -528l81 -276h54l82 276l391 1198h227v-16l-559 -1663h-340z" />
    <glyph glyph-name="infinity" unicode="&#x221e;" horiz-adv-x="2025" 
d="M1448 285q-77 0 -143 22t-119 63t-93.5 87.5t-80.5 109.5q-41 -63 -80.5 -109t-92 -88t-118.5 -63.5t-143 -21.5q-126 0 -223 62.5t-148 166.5t-51 229q0 190 118.5 322.5t303.5 132.5q77 0 143 -22t119 -64.5t92.5 -88.5t81.5 -110q41 63 80.5 109.5t92 89t118.5 64.5
t143 22q122 0 220 -62t151 -167t53 -230q0 -190 -118.5 -322t-305.5 -132zM342 739q0 -113 67 -192.5t181 -79.5q52 0 97 20t85 62.5t69 83.5t68 106q-40 66 -68 106.5t-68.5 84t-85.5 64t-97 20.5q-114 0 -181 -80t-67 -195zM1116 741q39 -65 68 -106.5t69 -84t85.5 -63
t97.5 -20.5q112 0 178.5 79.5t66.5 192.5q0 115 -66 195t-179 80q-52 0 -97.5 -20.5t-85.5 -62.5t-69 -83.5t-68 -106.5z" />
    <glyph glyph-name="integral" unicode="&#x222b;" horiz-adv-x="1142" 
d="M131 -369v197h330v1489q0 61 38.5 99t98.5 38h414v-197h-330v-1488q0 -61 -38.5 -99.5t-98.5 -38.5h-414z" />
    <glyph glyph-name="approxequal" unicode="&#x2248;" horiz-adv-x="1243" 
d="M877 778q-76 0 -162 29t-162 57.5t-127 28.5q-120 0 -123 -113h-213q4 63 23.5 118.5t54 100t89 70t122.5 25.5q75 0 161.5 -29t162 -57.5t124.5 -28.5q118 0 121 115h213q-2 -132 -76 -224t-208 -92zM80 324q2 63 21 118.5t54 100t90 70.5t124 26q59 0 127 -18
t117.5 -39.5t106 -39.5t95.5 -18q119 0 125 113h211q-2 -63 -20 -118.5t-52 -99.5t-89.5 -69.5t-125.5 -25.5q-75 0 -161 28.5t-161.5 57t-125.5 28.5q-59 0 -90 -29.5t-33 -84.5h-213z" />
    <glyph glyph-name="notequal" unicode="&#x2260;" horiz-adv-x="1198" 
d="M1102 838h-354l-97 -220h451v-190h-537l-71 -164h-199l72 164h-269v190h355l96 220h-451v190h535l72 162h198l-72 -162h271v-190z" />
    <glyph glyph-name="lessequal" unicode="&#x2264;" horiz-adv-x="1185" 
d="M1083 397l-995 336v225l995 336l2 -204l-753 -226v-35l753 -225zM88 139v185h997v-185h-997z" />
    <glyph glyph-name="greaterequal" unicode="&#x2265;" horiz-adv-x="1185" 
d="M100 397v207l752 225v35l-752 226v204l996 -336v-225zM98 139v185h998v-185h-998z" />
    <glyph glyph-name="lozenge" unicode="&#x25ca;" horiz-adv-x="1468" 
d="M612 0l-485 727l485 727h244l485 -727l-485 -727h-244zM371 727l352 -520h22l355 520l-355 520h-22z" />
    <glyph glyph-name="uniA78B" unicode="&#xa78b;" horiz-adv-x="409" 
d="M123 700l-35 754h234l-37 -754h-162z" />
    <glyph glyph-name="uniA78C" unicode="&#xa78c;" horiz-adv-x="329" 
d="M84 850l-37 604h236l-37 -604h-162z" />
    <glyph glyph-name="fi" unicode="&#xfb01;" horiz-adv-x="1239" 
d="M229 1317q0 61 39 99t99 38h360v-186h-276v-183h276v-190h-276v-895h-222v895h-159v190h159v232zM881 1229v225h221v-225h-221zM883 0v1085h221v-1085h-221z" />
    <glyph glyph-name="fl" unicode="&#xfb02;" horiz-adv-x="1239" 
d="M229 1317q0 61 39 99t99 38h360v-186h-276v-183h276v-190h-276v-895h-222v895h-159v190h159v232zM883 0v1454h221v-1454h-221z" />
    <glyph glyph-name="uni004A0301" horiz-adv-x="702" 
d="M66 0v199h270v1255h227v-1317q0 -60 -38.5 -98.5t-98.5 -38.5h-360zM283 1561l221 243h287l-306 -243h-202z" />
    <glyph glyph-name="B.ss01" horiz-adv-x="1267" 
d="M139 0v1454h566q194 0 316 -106t122 -281q0 -65 -20 -126t-65 -114t-110 -79q115 -35 179.5 -129.5t64.5 -204.5q0 -179 -126 -296.5t-323 -117.5h-604zM365 195h354q117 0 179.5 63.5t62.5 159.5q0 93 -61 157t-181 64h-354v-444zM365 825h313q112 0 174.5 70.5
t62.5 165.5q0 93 -60.5 148t-176.5 55h-313v-439z" />
    <glyph glyph-name="D.ss01" horiz-adv-x="1449" 
d="M139 0v1454h537q155 0 285 -53.5t219 -148.5t138.5 -228.5t49.5 -290.5q0 -331 -190.5 -532t-501.5 -201h-537zM367 195h290q224 0 352 145.5t128 392.5q0 242 -129 384.5t-351 142.5h-290v-1065z" />
    <glyph glyph-name="Eth.ss01" horiz-adv-x="1470" 
d="M160 0v631h-160v192h160v631h536q207 0 365 -92t243 -255.5t85 -373.5q0 -331 -191 -532t-502 -201h-536zM387 195h291q224 0 351.5 145.5t127.5 392.5q0 242 -128.5 384.5t-350.5 142.5h-291v-437h338v-192h-338v-436z" />
    <glyph glyph-name="Dcaron.ss01" horiz-adv-x="1449" 
d="M139 0v1454h537q155 0 285 -53.5t219 -148.5t138.5 -228.5t49.5 -290.5q0 -331 -190.5 -532t-501.5 -201h-537zM303 1804h205l113 -118h30l115 118h203l-199 -243h-266zM367 195h290q224 0 352 145.5t128 392.5q0 242 -129 384.5t-351 142.5h-290v-1065z" />
    <glyph glyph-name="Dcroat.ss01" horiz-adv-x="1470" 
d="M160 0v631h-160v192h160v631h536q207 0 365 -92t243 -255.5t85 -373.5q0 -331 -191 -532t-502 -201h-536zM387 195h291q224 0 351.5 145.5t127.5 392.5q0 242 -128.5 384.5t-350.5 142.5h-291v-437h338v-192h-338v-436z" />
    <glyph glyph-name="E.ss01" horiz-adv-x="1118" 
d="M139 0v1454h893v-197h-665v-432h591v-194h-591v-434h675v-197h-903z" />
    <glyph glyph-name="Eacute.ss01" horiz-adv-x="1118" 
d="M420 1561l221 243h287l-305 -243h-203zM139 0v1454h893v-197h-665v-432h591v-194h-591v-434h675v-197h-903z" />
    <glyph glyph-name="Ebreve.ss01" horiz-adv-x="1118" 
d="M588 1548q-147 0 -232.5 65t-95.5 191h176q22 -112 152 -112q129 0 153 112h177q-10 -126 -97.5 -191t-232.5 -65zM139 0v1454h893v-197h-665v-432h591v-194h-591v-434h675v-197h-903z" />
    <glyph glyph-name="Ecaron.ss01" horiz-adv-x="1118" 
d="M719 1804h203l-199 -243h-266l-201 243h205l112 -118h31zM139 0v1454h893v-197h-665v-432h591v-194h-591v-434h675v-197h-903z" />
    <glyph glyph-name="Ecircumflex.ss01" horiz-adv-x="1118" 
d="M719 1561l-115 118h-31l-112 -118h-205l201 243h266l199 -243h-203zM139 0v1454h893v-197h-665v-432h591v-194h-591v-434h675v-197h-903z" />
    <glyph glyph-name="Edieresis.ss01" horiz-adv-x="1118" 
d="M686 1577v211h207v-211h-207zM139 0v1454h893v-197h-665v-432h591v-194h-591v-434h675v-197h-903zM285 1577v211h207v-211h-207z" />
    <glyph glyph-name="Edotaccent.ss01" horiz-adv-x="1118" 
d="M473 1569v229h236v-229h-236zM139 0v1454h893v-197h-665v-432h591v-194h-591v-434h675v-197h-903z" />
    <glyph glyph-name="Egrave.ss01" horiz-adv-x="1118" 
d="M553 1561l-305 243h287l221 -243h-203zM139 0v1454h893v-197h-665v-432h591v-194h-591v-434h675v-197h-903z" />
    <glyph glyph-name="Emacron.ss01" horiz-adv-x="1118" 
d="M250 1765h678v-163h-678v163zM139 0v1454h893v-197h-665v-432h591v-194h-591v-434h675v-197h-903z" />
    <glyph glyph-name="Eogonek.ss01" horiz-adv-x="1118" 
d="M942 -369q-122 0 -186 50t-64 126q0 119 111 193h-664v1454h893v-197h-665v-432h591v-194h-591v-434h675v-197q-159 -55 -159 -123q0 -28 26 -43.5t70 -15.5h63v-187h-100z" />
    <glyph glyph-name="uni1EBC.ss01" horiz-adv-x="1118" 
d="M219 1561q5 110 69 185t158 75q46 0 89.5 -18t71.5 -39.5t58.5 -39.5t53.5 -18q43 0 61.5 27t20.5 82h170q-3 -109 -68 -186t-158 -77q-46 0 -89.5 18.5t-71.5 40t-59 40t-54 18.5q-79 0 -82 -108h-170zM139 0v1454h893v-197h-665v-432h591v-194h-591v-434h675v-197h-903
z" />
    <glyph glyph-name="F.ss01" horiz-adv-x="1134" 
d="M367 0h-228v1454h891v-199h-663v-434h591v-194h-591v-627z" />
    <glyph glyph-name="G.ss01" horiz-adv-x="1628" 
d="M776 -20q-142 0 -267 50t-220 142.5t-150 236.5t-55 320q0 174 58.5 317t158.5 235.5t230.5 143t275.5 50.5q140 0 260 -39t205 -107.5t140.5 -158.5t76.5 -195h-244q-15 58 -47.5 110t-84 96.5t-130 70.5t-174.5 26q-100 0 -188 -34.5t-157 -101t-109 -173t-40 -240.5
q0 -136 40 -243.5t109 -174t157 -101t188 -34.5q123 0 229.5 51t173 144.5t68.5 208.5h-524v188h735v-768h-164l-18 250q-89 -128 -224.5 -199t-308.5 -71z" />
    <glyph glyph-name="Gbreve.ss01" horiz-adv-x="1628" 
d="M776 -20q-142 0 -267 50t-220 142.5t-150 236.5t-55 320q0 174 58.5 317t158.5 235.5t230.5 143t275.5 50.5q140 0 260 -39t205 -107.5t140.5 -158.5t76.5 -195h-244q-15 58 -47.5 110t-84 96.5t-130 70.5t-174.5 26q-100 0 -188 -34.5t-157 -101t-109 -173t-40 -240.5
q0 -136 40 -243.5t109 -174t157 -101t188 -34.5q123 0 229.5 51t173 144.5t68.5 208.5h-524v188h735v-768h-164l-18 250q-89 -128 -224.5 -199t-308.5 -71zM655 1804q22 -112 152 -112t154 112h176q-10 -126 -97.5 -191t-232.5 -65q-147 0 -232.5 65t-95.5 191h176z" />
    <glyph glyph-name="Gcircumflex.ss01" horiz-adv-x="1628" 
d="M776 -20q-142 0 -267 50t-220 142.5t-150 236.5t-55 320q0 174 58.5 317t158.5 235.5t230.5 143t275.5 50.5q140 0 260 -39t205 -107.5t140.5 -158.5t76.5 -195h-244q-15 58 -47.5 110t-84 96.5t-130 70.5t-174.5 26q-100 0 -188 -34.5t-157 -101t-109 -173t-40 -240.5
q0 -136 40 -243.5t109 -174t157 -101t188 -34.5q123 0 229.5 51t173 144.5t68.5 208.5h-524v188h735v-768h-164l-18 250q-89 -128 -224.5 -199t-308.5 -71zM475 1561l201 243h266l199 -243h-203l-115 118h-30l-113 -118h-205z" />
    <glyph glyph-name="uni0122.ss01" horiz-adv-x="1628" 
d="M776 -20q-142 0 -267 50t-220 142.5t-150 236.5t-55 320q0 174 58.5 317t158.5 235.5t230.5 143t275.5 50.5q140 0 260 -39t205 -107.5t140.5 -158.5t76.5 -195h-244q-15 58 -47.5 110t-84 96.5t-130 70.5t-174.5 26q-100 0 -188 -34.5t-157 -101t-109 -173t-40 -240.5
q0 -136 40 -243.5t109 -174t157 -101t188 -34.5q123 0 229.5 51t173 144.5t68.5 208.5h-524v188h735v-768h-164l-18 250q-89 -128 -224.5 -199t-308.5 -71zM623 -430l55 336h223l-117 -336h-161z" />
    <glyph glyph-name="Gdotaccent.ss01" horiz-adv-x="1628" 
d="M776 -20q-142 0 -267 50t-220 142.5t-150 236.5t-55 320q0 174 58.5 317t158.5 235.5t230.5 143t275.5 50.5q140 0 260 -39t205 -107.5t140.5 -158.5t76.5 -195h-244q-15 58 -47.5 110t-84 96.5t-130 70.5t-174.5 26q-100 0 -188 -34.5t-157 -101t-109 -173t-40 -240.5
q0 -136 40 -243.5t109 -174t157 -101t188 -34.5q123 0 229.5 51t173 144.5t68.5 208.5h-524v188h735v-768h-164l-18 250q-89 -128 -224.5 -199t-308.5 -71zM692 1569v229h236v-229h-236z" />
    <glyph glyph-name="M.ss01" horiz-adv-x="1837" 
d="M350 0h-211v1454h412l264 -950l80 -295h47l78 295l266 950h412v-1454h-213v1243h-47l-84 -319l-267 -924h-337l-267 924l-84 319h-49v-1243z" />
    <glyph glyph-name="N.ss01" horiz-adv-x="1460" 
d="M139 0v1454h389l396 -919l127 -314h55v1233h215v-1454h-389l-395 920l-127 313h-56v-1233h-215z" />
    <glyph glyph-name="Nacute.ss01" horiz-adv-x="1460" 
d="M139 0v1454h389l396 -919l127 -314h55v1233h215v-1454h-389l-395 920l-127 313h-56v-1233h-215zM561 1561l221 243h287l-305 -243h-203z" />
    <glyph glyph-name="Ncaron.ss01" horiz-adv-x="1460" 
d="M139 0v1454h389l396 -919l127 -314h55v1233h215v-1454h-389l-395 920l-127 313h-56v-1233h-215zM397 1804h205l113 -118h30l115 118h203l-199 -243h-266z" />
    <glyph glyph-name="uni0145.ss01" horiz-adv-x="1460" 
d="M139 0v1454h389l396 -919l127 -314h55v1233h215v-1454h-389l-395 920l-127 313h-56v-1233h-215zM559 -430l55 336h224l-117 -336h-162z" />
    <glyph glyph-name="Eng.ss01" horiz-adv-x="1460" 
d="M823 -369v187h283v182h-174l-393 920l-127 313h-58v-1233h-215v1454h389l396 -919l125 -314h57v1233h215v-1679q0 -63 -40 -103.5t-103 -40.5h-355z" />
    <glyph glyph-name="Ntilde.ss01" horiz-adv-x="1460" 
d="M139 0v1454h389l396 -919l127 -314h55v1233h215v-1454h-389l-395 920l-127 313h-56v-1233h-215zM358 1561q5 110 69.5 185t158.5 75q46 0 89.5 -18t71 -39.5t58 -39.5t53.5 -18q43 0 61.5 27t20.5 82h170q-3 -109 -67.5 -186t-157.5 -77q-46 0 -89.5 18.5t-71.5 40
t-59.5 40t-54.5 18.5q-79 0 -82 -108h-170z" />
    <glyph glyph-name="P.ss01" horiz-adv-x="1232" 
d="M139 0v1454h570q203 0 326.5 -113.5t123.5 -306.5q0 -206 -120.5 -318t-321.5 -112h-350v-604h-228zM367 797h352q108 0 158.5 63.5t50.5 173.5q0 108 -58.5 167t-171.5 59h-331v-463z" />
    <glyph glyph-name="Q.ss01" horiz-adv-x="1613" 
d="M807 -20q-146 0 -276.5 50t-231 143t-159 236t-58.5 318q0 140 38 260.5t105.5 209t159 152t199 95t223.5 31.5q146 0 276.5 -50.5t231 -143.5t159 -236t58.5 -316q0 -331 -201 -539l260 -266h-278l-142 146q-166 -90 -364 -90zM313 727q0 -132 39.5 -238t107.5 -173.5
t156.5 -103.5t190.5 -36q115 0 215 47l-223 230h278l105 -107q118 147 118 383q0 131 -39 237t-107 173t-156.5 103t-190.5 36t-190.5 -36t-156.5 -104t-107.5 -174t-39.5 -237z" />
    <glyph glyph-name="R.ss01" horiz-adv-x="1333" 
d="M139 0v1454h606q203 0 328 -112.5t125 -307.5q0 -157 -80 -265.5t-223 -145.5l96 -156l283 -467h-264l-351 606h-292v-606h-228zM367 797h391q106 0 157.5 63.5t51.5 175.5q0 108 -59.5 166t-172.5 58h-368v-463z" />
    <glyph glyph-name="Racute.ss01" horiz-adv-x="1333" 
d="M139 0v1454h606q203 0 328 -112.5t125 -307.5q0 -157 -80 -265.5t-223 -145.5l96 -156l283 -467h-264l-351 606h-292v-606h-228zM367 797h391q106 0 157.5 63.5t51.5 175.5q0 108 -59.5 166t-172.5 58h-368v-463zM453 1561l221 243h287l-306 -243h-202z" />
    <glyph glyph-name="Rcaron.ss01" horiz-adv-x="1333" 
d="M139 0v1454h606q203 0 328 -112.5t125 -307.5q0 -157 -80 -265.5t-223 -145.5l96 -156l283 -467h-264l-351 606h-292v-606h-228zM287 1804h205l112 -118h31l115 118h202l-198 -243h-267zM367 797h391q106 0 157.5 63.5t51.5 175.5q0 108 -59.5 166t-172.5 58h-368v-463z
" />
    <glyph glyph-name="uni0156.ss01" horiz-adv-x="1333" 
d="M139 0v1454h606q203 0 328 -112.5t125 -307.5q0 -157 -80 -265.5t-223 -145.5l96 -156l283 -467h-264l-351 606h-292v-606h-228zM367 797h391q106 0 157.5 63.5t51.5 175.5q0 108 -59.5 166t-172.5 58h-368v-463zM469 -430l55 336h224l-117 -336h-162z" />
    <glyph glyph-name="uni1E9E.ss01" horiz-adv-x="1263" 
d="M139 0v1454h977v-192l-325 -433q186 -20 292.5 -129.5t106.5 -281.5q0 -184 -124 -301t-323 -117h-188v195h164q119 0 180.5 62.5t61.5 160.5t-62 159.5t-180 61.5h-164v192l313 420v11h-506v-1262h-223z" />
    <glyph glyph-name="G.ss09" horiz-adv-x="1583" 
d="M780 0q-215 0 -374.5 94t-241.5 258.5t-82 376.5q0 174 55.5 317t152 235.5t224 143t272.5 50.5q139 0 255.5 -39.5t197.5 -108.5t133.5 -158.5t71.5 -193.5h-244q-14 60 -43.5 111.5t-78 96t-123.5 70t-169 25.5q-101 0 -186.5 -35.5t-149.5 -103.5t-100.5 -173
t-36.5 -237q0 -249 124 -391.5t349 -142.5h441v383h-488v190h707v-631q0 -60 -38.5 -98.5t-98.5 -38.5h-529z" />
    <glyph glyph-name="Gbreve.ss09" horiz-adv-x="1583" 
d="M780 0q-215 0 -374.5 94t-241.5 258.5t-82 376.5q0 174 55.5 317t152 235.5t224 143t272.5 50.5q139 0 255.5 -39.5t197.5 -108.5t133.5 -158.5t71.5 -193.5h-244q-14 60 -43.5 111.5t-78 96t-123.5 70t-169 25.5q-101 0 -186.5 -35.5t-149.5 -103.5t-100.5 -173
t-36.5 -237q0 -249 124 -391.5t349 -142.5h441v383h-488v190h707v-631q0 -60 -38.5 -98.5t-98.5 -38.5h-529zM635 1804q22 -112 151 -112q130 0 154 112h176q-10 -126 -97.5 -191t-232.5 -65q-147 0 -232 65t-95 191h176z" />
    <glyph glyph-name="Gcircumflex.ss09" horiz-adv-x="1583" 
d="M780 0q-215 0 -374.5 94t-241.5 258.5t-82 376.5q0 174 55.5 317t152 235.5t224 143t272.5 50.5q139 0 255.5 -39.5t197.5 -108.5t133.5 -158.5t71.5 -193.5h-244q-14 60 -43.5 111.5t-78 96t-123.5 70t-169 25.5q-101 0 -186.5 -35.5t-149.5 -103.5t-100.5 -173
t-36.5 -237q0 -249 124 -391.5t349 -142.5h441v383h-488v190h707v-631q0 -60 -38.5 -98.5t-98.5 -38.5h-529zM455 1561l200 243h267l198 -243h-202l-115 118h-31l-113 -118h-204z" />
    <glyph glyph-name="uni0122.ss09" horiz-adv-x="1583" 
d="M780 0q-215 0 -374.5 94t-241.5 258.5t-82 376.5q0 174 55.5 317t152 235.5t224 143t272.5 50.5q139 0 255.5 -39.5t197.5 -108.5t133.5 -158.5t71.5 -193.5h-244q-14 60 -43.5 111.5t-78 96t-123.5 70t-169 25.5q-101 0 -186.5 -35.5t-149.5 -103.5t-100.5 -173
t-36.5 -237q0 -249 124 -391.5t349 -142.5h441v383h-488v190h707v-631q0 -60 -38.5 -98.5t-98.5 -38.5h-529zM651 -430l56 336h223l-117 -336h-162z" />
    <glyph glyph-name="Gdotaccent.ss09" horiz-adv-x="1583" 
d="M780 0q-215 0 -374.5 94t-241.5 258.5t-82 376.5q0 174 55.5 317t152 235.5t224 143t272.5 50.5q139 0 255.5 -39.5t197.5 -108.5t133.5 -158.5t71.5 -193.5h-244q-14 60 -43.5 111.5t-78 96t-123.5 70t-169 25.5q-101 0 -186.5 -35.5t-149.5 -103.5t-100.5 -173
t-36.5 -237q0 -249 124 -391.5t349 -142.5h441v383h-488v190h707v-631q0 -60 -38.5 -98.5t-98.5 -38.5h-529zM672 1569v229h235v-229h-235z" />
    <glyph glyph-name="G.ss01.ss08" horiz-adv-x="1589" 
d="M809 -20q-148 0 -279 50t-230.5 142.5t-157.5 236.5t-58 320q0 174 58.5 317t158.5 235.5t230.5 143t275.5 50.5q140 0 260 -39t205 -107.5t140.5 -158.5t76.5 -195h-244q-15 58 -47.5 110t-84 96.5t-130 70.5t-174.5 26q-100 0 -188 -34.5t-157 -101t-109 -173
t-40 -240.5q0 -136 40 -243.5t109 -174t157 -101t188 -34.5q221 0 338 95.5t117 281.5v27h-508v188h735v-197q0 -262 -186.5 -426.5t-495.5 -164.5z" />
    <glyph glyph-name="Gbreve.ss01.ss08" horiz-adv-x="1589" 
d="M809 -20q-148 0 -279 50t-230.5 142.5t-157.5 236.5t-58 320q0 174 58.5 317t158.5 235.5t230.5 143t275.5 50.5q140 0 260 -39t205 -107.5t140.5 -158.5t76.5 -195h-244q-15 58 -47.5 110t-84 96.5t-130 70.5t-174.5 26q-100 0 -188 -34.5t-157 -101t-109 -173
t-40 -240.5q0 -136 40 -243.5t109 -174t157 -101t188 -34.5q221 0 338 95.5t117 281.5v27h-508v188h735v-197q0 -262 -186.5 -426.5t-495.5 -164.5zM655 1804q22 -112 152 -112t154 112h176q-10 -126 -97.5 -191t-232.5 -65q-147 0 -232.5 65t-95.5 191h176z" />
    <glyph glyph-name="Gcircumflex.ss01.ss08" horiz-adv-x="1589" 
d="M809 -20q-148 0 -279 50t-230.5 142.5t-157.5 236.5t-58 320q0 174 58.5 317t158.5 235.5t230.5 143t275.5 50.5q140 0 260 -39t205 -107.5t140.5 -158.5t76.5 -195h-244q-15 58 -47.5 110t-84 96.5t-130 70.5t-174.5 26q-100 0 -188 -34.5t-157 -101t-109 -173
t-40 -240.5q0 -136 40 -243.5t109 -174t157 -101t188 -34.5q221 0 338 95.5t117 281.5v27h-508v188h735v-197q0 -262 -186.5 -426.5t-495.5 -164.5zM475 1561l201 243h266l199 -243h-203l-115 118h-30l-113 -118h-205z" />
    <glyph glyph-name="uni0122.ss01.ss08" horiz-adv-x="1589" 
d="M809 -20q-148 0 -279 50t-230.5 142.5t-157.5 236.5t-58 320q0 174 58.5 317t158.5 235.5t230.5 143t275.5 50.5q140 0 260 -39t205 -107.5t140.5 -158.5t76.5 -195h-244q-15 58 -47.5 110t-84 96.5t-130 70.5t-174.5 26q-100 0 -188 -34.5t-157 -101t-109 -173
t-40 -240.5q0 -136 40 -243.5t109 -174t157 -101t188 -34.5q221 0 338 95.5t117 281.5v27h-508v188h735v-197q0 -262 -186.5 -426.5t-495.5 -164.5zM637 -430l55 336h223l-116 -336h-162z" />
    <glyph glyph-name="Gdotaccent.ss01.ss08" horiz-adv-x="1589" 
d="M809 -20q-148 0 -279 50t-230.5 142.5t-157.5 236.5t-58 320q0 174 58.5 317t158.5 235.5t230.5 143t275.5 50.5q140 0 260 -39t205 -107.5t140.5 -158.5t76.5 -195h-244q-15 58 -47.5 110t-84 96.5t-130 70.5t-174.5 26q-100 0 -188 -34.5t-157 -101t-109 -173
t-40 -240.5q0 -136 40 -243.5t109 -174t157 -101t188 -34.5q221 0 338 95.5t117 281.5v27h-508v188h735v-197q0 -262 -186.5 -426.5t-495.5 -164.5zM692 1569v229h236v-229h-236z" />
    <glyph glyph-name="a.dnom" horiz-adv-x="686" 
d="M256 0q-99 0 -158 44.5t-59 129.5q0 91 60.5 129.5t185.5 48.5l172 15v36q0 95 -113 95q-106 0 -115 -88h-161q3 102 80 152t200 50q126 0 198 -54t72 -165v-307q0 -37 -26 -61.5t-64 -24.5h-272zM207 178q0 -38 23 -53.5t69 -15.5h158v155l-135 -14q-56 -5 -85.5 -20.5
t-29.5 -51.5z" />
    <glyph glyph-name="b.dnom" horiz-adv-x="739" 
d="M170 0q-38 0 -64 24.5t-26 61.5v717h168v-203h153q129 0 212 -82.5t83 -218.5t-82.5 -217.5t-212.5 -81.5h-231zM248 129h117q77 0 117 43.5t40 126.5t-40.5 127.5t-116.5 44.5h-117v-342z" />
    <glyph glyph-name="c.dnom" horiz-adv-x="718" 
d="M371 -12q-140 0 -234 84t-94 227q0 146 93.5 229.5t234.5 83.5q128 0 210 -64.5t103 -164.5h-174q-13 42 -46.5 72t-92.5 30q-70 0 -114 -47.5t-44 -138.5q0 -90 44.5 -138t113.5 -48q59 0 92.5 30t46.5 72h174q-21 -99 -103.5 -163t-209.5 -64z" />
    <glyph glyph-name="d.dnom" horiz-adv-x="739" 
d="M338 0q-130 0 -213.5 81.5t-83.5 217.5t83 218.5t214 82.5h151v203h170v-717q0 -36 -26.5 -61t-63.5 -25h-231zM215 299q0 -84 40.5 -127t117.5 -43h116v342h-116q-75 0 -116.5 -44.5t-41.5 -127.5z" />
    <glyph glyph-name="e.dnom" horiz-adv-x="735" 
d="M367 -12q-143 0 -233.5 86t-90.5 225q0 138 91.5 225.5t232.5 87.5q151 0 244 -94.5t81 -257.5h-479q9 -71 50.5 -111t105.5 -40q99 0 131 86h176q-27 -94 -109.5 -150.5t-199.5 -56.5zM217 367h303q-12 62 -52 97.5t-101 35.5q-57 0 -96.5 -36.5t-53.5 -96.5z" />
    <glyph glyph-name="f.dnom" horiz-adv-x="440" 
d="M111 717q0 39 25.5 62.5t64.5 23.5h217v-125h-139v-78h139v-131h-139v-469h-168v469h-88v131h88v117z" />
    <glyph glyph-name="g.dnom" horiz-adv-x="739" 
d="M123 -203v125h364v90h-151q-130 0 -212.5 80.5t-82.5 210.5q0 133 83 215t212 82h233q37 0 63.5 -25.5t26.5 -62.5v-627q0 -38 -27.5 -63t-68.5 -25h-440zM215 303q0 -76 40.5 -120t115.5 -44h116v332h-116q-74 0 -115 -44.5t-41 -123.5z" />
    <glyph glyph-name="h.dnom" horiz-adv-x="720" 
d="M483 354q0 117 -125 117h-108v-471h-168v803h168v-203h170q101 0 166 -61t65 -170v-369h-168v354z" />
    <glyph glyph-name="i.dnom" horiz-adv-x="331" 
d="M82 0v600h168v-600h-168zM82 674v129h168v-129h-168z" />
    <glyph glyph-name="j.dnom" horiz-adv-x="331" 
d="M-57 -203v125h139v678h168v-715q0 -38 -26 -63t-66 -25h-215zM82 674v129h168v-129h-168z" />
    <glyph glyph-name="k.dnom" horiz-adv-x="690" 
d="M487 313l185 -305v-8h-187l-139 256h-96v-256h-168v803h168v-414h96l139 211h187v-8l-185 -262v-17z" />
    <glyph glyph-name="l.dnom" horiz-adv-x="331" 
d="M250 0h-168v803h168v-803z" />
    <glyph glyph-name="m.dnom" horiz-adv-x="1064" 
d="M80 512q0 37 26 62.5t64 25.5h590q102 0 168.5 -63.5t66.5 -171.5v-365h-168v354q0 117 -122 117h-82v-471h-170v471h-205v-471h-168v512z" />
    <glyph glyph-name="n.dnom" horiz-adv-x="718" 
d="M80 512q0 37 26 62.5t64 25.5h242q104 0 170.5 -63.5t66.5 -171.5v-365h-168v354q0 117 -123 117h-110v-471h-168v512z" />
    <glyph glyph-name="o.dnom" horiz-adv-x="741" 
d="M371 -12q-140 0 -234 83.5t-94 227.5q0 146 93.5 229.5t234.5 83.5q142 0 234.5 -83.5t92.5 -229.5q0 -145 -92.5 -228t-234.5 -83zM213 299q0 -90 44.5 -138t113.5 -48q70 0 114.5 47.5t44.5 138.5t-44.5 138.5t-114.5 47.5t-114 -47.5t-44 -138.5z" />
    <glyph glyph-name="p.dnom" horiz-adv-x="739" 
d="M80 512q0 37 26 62.5t64 25.5h231q129 0 212 -82.5t83 -218.5t-82.5 -217.5t-212.5 -81.5h-153v-203h-168v715zM248 129h117q76 0 116.5 44t40.5 126q0 84 -39.5 128t-117.5 44h-117v-342z" />
    <glyph glyph-name="q.dnom" horiz-adv-x="739" 
d="M489 -203v203h-151q-130 0 -213.5 81.5t-83.5 217.5t83 218.5t214 82.5h231q37 0 63.5 -25.5t26.5 -62.5v-715h-170zM215 299q0 -82 41 -126t117 -44h116v342h-116q-78 0 -118 -44t-40 -128z" />
    <glyph glyph-name="r.dnom" horiz-adv-x="434" 
d="M80 512q0 40 25.5 64t64.5 24h242v-131h-162v-469h-170v512z" />
    <glyph glyph-name="s.dnom" horiz-adv-x="655" 
d="M328 -12q-129 0 -205 52t-82 155h170q13 -95 121 -95q110 0 110 66q0 28 -28.5 46.5t-71.5 26t-92.5 20.5t-92.5 28.5t-71.5 51.5t-28.5 89q0 88 73 136t196 48q127 0 197.5 -52t76.5 -150h-166q-9 92 -112 92q-44 0 -71.5 -15.5t-27.5 -44.5q0 -25 29 -42.5t72 -26.5
t93.5 -23.5t93.5 -31.5t72 -53.5t29 -86.5q0 -91 -77 -140.5t-207 -49.5z" />
    <glyph glyph-name="t.dnom" horiz-adv-x="446" 
d="M403 600v-131h-124v-344h124v-125h-202q-38 0 -64 24.5t-26 61.5v383h-88v131h88v152h168v-152h124z" />
    <glyph glyph-name="u.dnom" horiz-adv-x="696" 
d="M627 88q0 -37 -26 -62.5t-64 -25.5h-232q-103 0 -169 64t-66 172v364h168v-354q0 -117 120 -117h101v471h168v-512z" />
    <glyph glyph-name="v.dnom" horiz-adv-x="681" 
d="M221 0l-205 588v12h179l98 -336l37 -131h24l39 131l96 336h175v-12l-201 -588h-242z" />
    <glyph glyph-name="w.dnom" horiz-adv-x="1107" 
d="M199 0l-179 588v12h168l84 -336l31 -131h25l26 131l82 336h238l80 -336l28 -131h25l29 131l86 336h168v-12l-181 -588h-237l-76 336l-29 131h-24l-31 -131l-76 -336h-237z" />
    <glyph glyph-name="x.dnom" horiz-adv-x="700" 
d="M510 295l172 -287v-8h-182l-129 236h-41l-129 -236h-181v8l170 287v22l-170 275v8h181l129 -233h41l129 233h182v-8l-172 -275v-22z" />
    <glyph glyph-name="y.dnom" horiz-adv-x="681" 
d="M106 -203v125h193l18 88h-100l-201 580v10h179l98 -336l37 -131h24l37 131l98 336h175v-10l-240 -713q-27 -80 -115 -80h-203z" />
    <glyph glyph-name="z.dnom" horiz-adv-x="612" 
d="M41 0v117l324 352h-314v131h514v-119l-321 -350h325v-131h-528z" />
    <glyph glyph-name="a.numr" horiz-adv-x="686" 
d="M256 651q-99 0 -158 44.5t-59 129.5q0 86 56.5 127.5t189.5 51.5l172 14v37q0 94 -113 94q-106 0 -115 -88h-161q3 102 80 152.5t200 50.5q126 0 198 -54.5t72 -165.5v-307q0 -37 -26 -61.5t-64 -24.5h-272zM207 829q0 -38 23 -53.5t69 -15.5h158v155l-135 -14
q-56 -5 -85.5 -20.5t-29.5 -51.5z" />
    <glyph glyph-name="b.numr" horiz-adv-x="739" 
d="M170 651q-38 0 -64 24.5t-26 61.5v717h168v-203h153q129 0 212 -82.5t83 -218.5t-82.5 -217.5t-212.5 -81.5h-231zM248 780h117q77 0 117 43.5t40 126.5t-40.5 127.5t-116.5 44.5h-117v-342z" />
    <glyph glyph-name="c.numr" horiz-adv-x="718" 
d="M371 639q-140 0 -234 84t-94 227q0 146 93.5 230t234.5 84q128 0 210 -64.5t103 -165.5h-174q-13 42 -46.5 72.5t-92.5 30.5q-70 0 -114 -48t-44 -139q0 -90 44.5 -138t113.5 -48q59 0 92.5 30t46.5 72h174q-21 -99 -103.5 -163t-209.5 -64z" />
    <glyph glyph-name="d.numr" horiz-adv-x="739" 
d="M338 651q-130 0 -213.5 81.5t-83.5 217.5t83 218.5t214 82.5h151v203h170v-717q0 -36 -26.5 -61t-63.5 -25h-231zM215 950q0 -84 40.5 -127t117.5 -43h116v342h-116q-75 0 -116.5 -44.5t-41.5 -127.5z" />
    <glyph glyph-name="e.numr" horiz-adv-x="735" 
d="M367 639q-143 0 -233.5 86t-90.5 225q0 138 91.5 226t232.5 88q151 0 244 -95t81 -258h-479q9 -71 50.5 -111t105.5 -40q99 0 131 86h176q-27 -94 -109.5 -150.5t-199.5 -56.5zM217 1018h303q-12 62 -52 97.5t-101 35.5q-57 0 -96.5 -36.5t-53.5 -96.5z" />
    <glyph glyph-name="f.numr" horiz-adv-x="440" 
d="M111 1368q0 39 25.5 62.5t64.5 23.5h217v-125h-139v-78h139v-131h-139v-469h-168v469h-88v131h88v117z" />
    <glyph glyph-name="g.numr" horiz-adv-x="739" 
d="M123 449v124h364v91h-151q-130 0 -212.5 80t-82.5 210q0 133 83 215t212 82h233q37 0 63.5 -25.5t26.5 -62.5v-626q0 -38 -27.5 -63t-68.5 -25h-440zM215 954q0 -76 40.5 -119.5t115.5 -43.5h116v331h-116q-74 0 -115 -44.5t-41 -123.5z" />
    <glyph glyph-name="h.numr" horiz-adv-x="720" 
d="M483 1006q0 116 -125 116h-108v-471h-168v803h168v-203h170q101 0 166 -61t65 -170v-369h-168v355z" />
    <glyph glyph-name="i.numr" horiz-adv-x="331" 
d="M82 651v600h168v-600h-168zM82 1325v129h168v-129h-168z" />
    <glyph glyph-name="j.numr" horiz-adv-x="331" 
d="M-57 449v124h139v678h168v-714q0 -38 -26 -63t-66 -25h-215zM82 1325v129h168v-129h-168z" />
    <glyph glyph-name="k.numr" horiz-adv-x="690" 
d="M487 965l185 -306v-8h-187l-139 256h-96v-256h-168v803h168v-414h96l139 211h187v-8l-185 -262v-16z" />
    <glyph glyph-name="l.numr" horiz-adv-x="331" 
d="M250 651h-168v803h168v-803z" />
    <glyph glyph-name="m.numr" horiz-adv-x="1064" 
d="M80 1163q0 37 26 62.5t64 25.5h590q102 0 168.5 -63.5t66.5 -171.5v-365h-168v355q0 60 -30.5 88t-91.5 28h-82v-471h-170v471h-205v-471h-168v512z" />
    <glyph glyph-name="n.numr" horiz-adv-x="718" 
d="M80 1163q0 37 26 62.5t64 25.5h242q104 0 170.5 -63.5t66.5 -171.5v-365h-168v355q0 116 -123 116h-110v-471h-168v512z" />
    <glyph glyph-name="o.numr" horiz-adv-x="741" 
d="M371 639q-140 0 -234 83.5t-94 227.5q0 146 93.5 230t234.5 84q142 0 234.5 -84t92.5 -230q0 -145 -92.5 -228t-234.5 -83zM213 950q0 -90 44.5 -138t113.5 -48q70 0 114.5 47.5t44.5 138.5t-44.5 139t-114.5 48t-114 -48t-44 -139z" />
    <glyph glyph-name="p.numr" horiz-adv-x="739" 
d="M80 1163q0 37 26 62.5t64 25.5h231q129 0 212 -82.5t83 -218.5t-82.5 -217.5t-212.5 -81.5h-153v-202h-168v714zM248 780h117q76 0 116.5 44t40.5 126q0 84 -39.5 128t-117.5 44h-117v-342z" />
    <glyph glyph-name="q.numr" horiz-adv-x="739" 
d="M489 449v202h-151q-130 0 -213.5 81.5t-83.5 217.5t83 218.5t214 82.5h231q37 0 63.5 -25.5t26.5 -62.5v-714h-170zM215 950q0 -82 41 -126t117 -44h116v342h-116q-78 0 -118 -44t-40 -128z" />
    <glyph glyph-name="r.numr" horiz-adv-x="434" 
d="M80 1163q0 40 25.5 64t64.5 24h242v-131h-162v-469h-170v512z" />
    <glyph glyph-name="s.numr" horiz-adv-x="655" 
d="M328 639q-129 0 -205 52t-82 155h170q12 -94 121 -94q110 0 110 65q0 28 -28.5 46.5t-71.5 26t-92.5 20.5t-92.5 28.5t-71.5 51.5t-28.5 89q0 88 73.5 136.5t195.5 48.5q127 0 197.5 -52.5t76.5 -150.5h-166q-9 92 -112 92q-44 0 -71.5 -15t-27.5 -44t40 -48t97.5 -31.5
t114.5 -30t97 -56.5t40 -99q0 -91 -77 -140.5t-207 -49.5z" />
    <glyph glyph-name="t.numr" horiz-adv-x="446" 
d="M403 1251v-131h-124v-344h124v-125h-202q-38 0 -64 24.5t-26 61.5v383h-88v131h88v152h168v-152h124z" />
    <glyph glyph-name="u.numr" horiz-adv-x="696" 
d="M627 739q0 -37 -26 -62.5t-64 -25.5h-232q-103 0 -169 64t-66 172v364h168v-354q0 -117 120 -117h101v471h168v-512z" />
    <glyph glyph-name="v.numr" horiz-adv-x="681" 
d="M221 651l-205 588v12h179l98 -336l37 -131h24l39 131l96 336h175v-12l-201 -588h-242z" />
    <glyph glyph-name="w.numr" horiz-adv-x="1107" 
d="M199 651l-179 588v12h168l84 -336l31 -131h25l26 131l82 336h238l80 -336l28 -131h25l29 131l86 336h168v-12l-181 -588h-237l-76 336l-29 131h-24l-31 -131l-76 -336h-237z" />
    <glyph glyph-name="x.numr" horiz-adv-x="700" 
d="M510 946l172 -287v-8h-182l-129 236h-41l-129 -236h-181v8l170 287v23l-170 274v8h181l129 -233h41l129 233h182v-8l-172 -274v-23z" />
    <glyph glyph-name="y.numr" horiz-adv-x="681" 
d="M106 449v124h193l18 89h-100l-201 579v10h179l98 -336l37 -131h24l37 131l98 336h175v-10l-240 -713q-27 -79 -115 -79h-203z" />
    <glyph glyph-name="z.numr" horiz-adv-x="612" 
d="M41 651v117l324 352h-314v131h514v-118l-321 -351h325v-131h-528z" />
    <glyph glyph-name="a.dnom.ss01" horiz-adv-x="690" 
d="M260 -12q-98 0 -158.5 50t-60.5 136q0 91 60.5 129.5t185.5 48.5l172 15v36q0 95 -113 95q-106 0 -115 -88h-161q3 101 79.5 151.5t200.5 50.5q126 0 198.5 -54t72.5 -165v-393h-150l-12 70q-71 -82 -199 -82zM209 176q0 -76 102 -76q64 0 106 31.5t42 81.5v51l-137 -14
q-59 -6 -86 -23.5t-27 -50.5z" />
    <glyph glyph-name="b.dnom.ss01" horiz-adv-x="776" 
d="M449 -12q-133 0 -203 88v-76h-164v803h168v-275q72 84 199 84q120 0 202 -87.5t82 -225.5q0 -139 -82.5 -225t-201.5 -86zM244 299q0 -90 44 -138t113 -48t113.5 48t44.5 138q0 91 -44 138.5t-114 47.5t-113.5 -47.5t-43.5 -138.5z" />
    <glyph glyph-name="d.dnom.ss01" horiz-adv-x="776" 
d="M330 -12q-121 0 -204 86.5t-83 224.5t83 225.5t204 87.5q124 0 194 -82v273h170v-803h-164v76q-70 -88 -200 -88zM217 299q0 -91 44.5 -138.5t113.5 -47.5t114.5 47.5t45.5 138.5t-45 138.5t-115 47.5q-69 0 -113.5 -47t-44.5 -139z" />
    <glyph glyph-name="g.dnom.ss01" horiz-adv-x="774" 
d="M129 -203v125h393v178q-69 -82 -194 -82t-206 85t-81 212t81.5 212t205.5 85q132 0 200 -92v80h166v-715q0 -38 -26.5 -63t-67.5 -25h-471zM215 315q0 -78 44 -125t116 -47q73 0 115 47.5t42 124.5q0 78 -41.5 124t-115.5 46t-117 -47.5t-43 -122.5z" />
    <glyph glyph-name="h.dnom.ss01" horiz-adv-x="729" 
d="M82 0v803h168v-271q71 80 182 80q99 0 164.5 -64t65.5 -173v-375h-170v371q0 114 -121 114q-56 0 -88.5 -28t-32.5 -86v-371h-168z" />
    <glyph glyph-name="m.dnom.ss01" horiz-adv-x="1130" 
d="M82 0v600h156v-72h10q69 84 182 84q59 0 109.5 -25t81.5 -75q59 100 204 100q105 0 170.5 -62t65.5 -175v-375h-170v373q0 112 -115 112q-119 0 -119 -114v-371h-170v371q0 114 -118 114q-119 0 -119 -114v-371h-168z" />
    <glyph glyph-name="n.dnom.ss01" horiz-adv-x="731" 
d="M248 528q69 84 184 84q100 0 165 -60.5t65 -170.5v-381h-170v373q0 112 -121 112q-56 0 -88.5 -28t-32.5 -86v-371h-168v600h160v-72h6z" />
    <glyph glyph-name="p.dnom.ss01" horiz-adv-x="776" 
d="M82 -203v803h164v-76q70 88 200 88q121 0 204 -87t83 -226q0 -138 -83 -224.5t-204 -86.5q-57 0 -109.5 22t-86.5 62v-275h-168zM244 299q0 -90 44 -138t113 -48t113.5 48t44.5 138q0 91 -44 138.5t-114 47.5t-113.5 -47.5t-43.5 -138.5z" />
    <glyph glyph-name="q.dnom.ss01" horiz-adv-x="776" 
d="M524 -203v273q-70 -82 -194 -82q-122 0 -204.5 86t-82.5 225q0 138 83 225.5t204 87.5q130 0 200 -88v76h164v-803h-170zM217 299q0 -90 45 -138t113 -48q70 0 115 48t45 138q0 92 -45 139t-115 47q-69 0 -113.5 -47t-44.5 -139z" />
    <glyph glyph-name="r.dnom.ss01" horiz-adv-x="450" 
d="M248 528q28 41 59.5 56.5t89.5 15.5h31v-141h-66q-57 0 -84.5 -23.5t-27.5 -79.5v-356h-168v600h160v-72h6z" />
    <glyph glyph-name="u.dnom.ss01" horiz-adv-x="727" 
d="M481 70q-69 -82 -182 -82q-100 0 -163.5 60t-63.5 171v381h170v-373q0 -114 116 -114q119 0 119 114v373h170v-600h-160v70h-6z" />
    <glyph glyph-name="a.numr.ss01" horiz-adv-x="690" 
d="M260 639q-98 0 -158.5 50t-60.5 136q0 91 60.5 130t185.5 49l172 14v37q0 94 -113 94q-106 0 -115 -88h-161q3 101 79.5 152t200.5 51q126 0 198.5 -54.5t72.5 -165.5v-393h-150l-12 70q-71 -82 -199 -82zM209 827q0 -75 102 -75q64 0 106 31t42 81v51l-137 -14
q-59 -6 -86 -23.5t-27 -50.5z" />
    <glyph glyph-name="b.numr.ss01" horiz-adv-x="776" 
d="M449 639q-133 0 -203 88v-76h-164v803h168v-274q72 84 199 84q120 0 202 -88t82 -226q0 -139 -82.5 -225t-201.5 -86zM244 950q0 -90 44 -138t113 -48t113.5 48t44.5 138q0 91 -44 139t-114 48t-113.5 -48t-43.5 -139z" />
    <glyph glyph-name="d.numr.ss01" horiz-adv-x="776" 
d="M330 639q-121 0 -204 86.5t-83 224.5t83 226t204 88q124 0 194 -82v272h170v-803h-164v76q-70 -88 -200 -88zM217 950q0 -91 44.5 -138.5t113.5 -47.5t114.5 47.5t45.5 138.5t-45 139t-115 48q-69 0 -113.5 -47.5t-44.5 -139.5z" />
    <glyph glyph-name="g.numr.ss01" horiz-adv-x="774" 
d="M129 449v124h393v179q-69 -82 -194 -82t-206 85t-81 212t81.5 212t205.5 85q131 0 200 -93v80h166v-714q0 -38 -26.5 -63t-67.5 -25h-471zM215 967q0 -78 44 -125t116 -47q73 0 115 47.5t42 124.5q0 78 -41.5 124t-115.5 46t-117 -47.5t-43 -122.5z" />
    <glyph glyph-name="h.numr.ss01" horiz-adv-x="729" 
d="M82 651v803h168v-270q71 80 182 80q99 0 164.5 -64.5t65.5 -173.5v-375h-170v371q0 115 -121 115q-56 0 -88.5 -28.5t-32.5 -86.5v-371h-168z" />
    <glyph glyph-name="m.numr.ss01" horiz-adv-x="1130" 
d="M82 651v600h156v-71h10q69 84 182 84q58 0 109 -25.5t82 -75.5q60 101 204 101q105 0 170.5 -62t65.5 -176v-375h-170v373q0 113 -115 113q-119 0 -119 -115v-371h-170v371q0 115 -118 115q-56 0 -87.5 -28.5t-31.5 -86.5v-371h-168z" />
    <glyph glyph-name="n.numr.ss01" horiz-adv-x="731" 
d="M248 1180q69 84 184 84q100 0 165 -61t65 -171v-381h-170v373q0 113 -121 113q-56 0 -88.5 -28.5t-32.5 -86.5v-371h-168v600h160v-71h6z" />
    <glyph glyph-name="p.numr.ss01" horiz-adv-x="776" 
d="M82 449v802h164v-75q70 88 200 88q121 0 204 -87t83 -227q0 -138 -83 -224.5t-204 -86.5q-57 0 -109.5 22t-86.5 62v-274h-168zM244 950q0 -90 44 -138t113 -48t113.5 48t44.5 138q0 91 -44 139t-114 48t-113.5 -48t-43.5 -139z" />
    <glyph glyph-name="q.numr.ss01" horiz-adv-x="776" 
d="M524 449v272q-70 -82 -194 -82q-122 0 -204.5 86t-82.5 225q0 138 83 226t204 88q130 0 200 -88v75h164v-802h-170zM217 950q0 -90 45 -138t113 -48q70 0 115 48t45 138q0 92 -45 139.5t-115 47.5q-69 0 -113.5 -47.5t-44.5 -139.5z" />
    <glyph glyph-name="r.numr.ss01" horiz-adv-x="450" 
d="M248 1180q28 41 59 56t90 15h31v-141h-66q-57 0 -84.5 -23t-27.5 -79v-357h-168v600h160v-71h6z" />
    <glyph glyph-name="u.numr.ss01" horiz-adv-x="727" 
d="M481 721q-69 -82 -182 -82q-100 0 -163.5 60t-63.5 171v381h170v-372q0 -115 116 -115q57 0 88 29t31 86v372h170v-600h-160v70h-6z" />
    <glyph glyph-name="a.dnom.ss01.ss02" horiz-adv-x="708" 
d="M254 -12q-94 0 -153.5 50t-59.5 136q0 89 58 129t184 49l168 13v38q0 95 -111 95q-100 0 -109 -88h-161q0 96 77 149t197 53q124 0 195 -54t71 -165v-262h70v-131h-158q-29 0 -45 15t-16 42v23h-6q-66 -92 -201 -92zM209 176q0 -76 98 -76q62 0 103 31.5t41 81.5v51
l-132 -14q-59 -6 -84.5 -23t-25.5 -51z" />
    <glyph glyph-name="a.numr.ss01.ss02" horiz-adv-x="708" 
d="M254 639q-94 0 -153.5 50t-59.5 136q0 89 58 129.5t184 49.5l168 12v39q0 94 -111 94q-100 0 -109 -88h-161q0 96 77 149.5t197 53.5q124 0 195 -54.5t71 -165.5v-262h70v-131h-158q-29 0 -45 15.5t-16 42.5v22h-6q-66 -92 -201 -92zM209 827q0 -75 98 -75q62 0 103 31
t41 81v51l-132 -14q-59 -6 -84.5 -23t-25.5 -51z" />
    <glyph glyph-name="i.loclTRK" horiz-adv-x="491" 
d="M135 0v1085h221v-1085h-221zM135 1229v225h221v-225h-221z" />
    <glyph glyph-name="uni006A0301" horiz-adv-x="491" 
d="M-111 -369v187h246v1267h221v-1310q0 -66 -39 -105t-108 -39h-320zM100 1200l224 254h284l-309 -254h-199z" />
    <glyph glyph-name="r.calt" horiz-adv-x="729" 
d="M133 948q0 61 38.5 99t98.5 38h389v-190h-305v-895h-221v948z" />
    <glyph glyph-name="racute.calt" horiz-adv-x="729" 
d="M133 948q0 61 38.5 99t98.5 38h389v-190h-305v-895h-221v948zM252 1200l223 254h285l-309 -254h-199z" />
    <glyph glyph-name="rcaron.calt" horiz-adv-x="729" 
d="M133 948q0 61 38.5 99t98.5 38h389v-190h-305v-895h-221v948zM63 1454h205l113 -129h31l114 129h203l-199 -254h-266z" />
    <glyph glyph-name="uni0157.calt" horiz-adv-x="729" 
d="M133 948q0 61 38.5 99t98.5 38h389v-190h-305v-895h-221v948zM72 -430l55 336h223l-117 -336h-161z" />
    <glyph glyph-name="a.ss01" horiz-adv-x="1153" 
d="M461 -20q-172 0 -275.5 86.5t-103.5 244.5q0 87 26.5 146t83.5 94.5t128.5 54t179.5 29.5l315 31v73q0 193 -231 193q-112 0 -167 -42.5t-67 -135.5h-223q6 168 132.5 260t332.5 92q201 0 319.5 -93.5t118.5 -279.5v-733h-199l-20 135q-116 -155 -350 -155zM305 319
q0 -85 50 -126t155 -41q129 0 217 65t88 172v113l-272 -31q-132 -13 -185 -47t-53 -105z" />
    <glyph glyph-name="aacute.ss01" horiz-adv-x="1153" 
d="M461 -20q-172 0 -275.5 86.5t-103.5 244.5q0 87 26.5 146t83.5 94.5t128.5 54t179.5 29.5l315 31v73q0 193 -231 193q-112 0 -167 -42.5t-67 -135.5h-223q6 168 132.5 260t332.5 92q201 0 319.5 -93.5t118.5 -279.5v-733h-199l-20 135q-116 -155 -350 -155zM305 319
q0 -85 50 -126t155 -41q129 0 217 65t88 172v113l-272 -31q-132 -13 -185 -47t-53 -105zM444 1200l224 254h284l-309 -254h-199z" />
    <glyph glyph-name="abreve.ss01" horiz-adv-x="1153" 
d="M461 -20q-172 0 -275.5 86.5t-103.5 244.5q0 87 26.5 146t83.5 94.5t128.5 54t179.5 29.5l315 31v73q0 193 -231 193q-112 0 -167 -42.5t-67 -135.5h-223q6 168 132.5 260t332.5 92q201 0 319.5 -93.5t118.5 -279.5v-733h-199l-20 135q-116 -155 -350 -155zM438 1454
q12 -60 52 -90.5t100 -30.5q127 0 153 121h177q-10 -127 -98.5 -195.5t-231.5 -68.5q-146 0 -232 68.5t-96 195.5h176zM305 319q0 -85 50 -126t155 -41q129 0 217 65t88 172v113l-272 -31q-132 -13 -185 -47t-53 -105z" />
    <glyph glyph-name="acircumflex.ss01" horiz-adv-x="1153" 
d="M461 -20q-172 0 -275.5 86.5t-103.5 244.5q0 87 26.5 146t83.5 94.5t128.5 54t179.5 29.5l315 31v73q0 193 -231 193q-112 0 -167 -42.5t-67 -135.5h-223q6 168 132.5 260t332.5 92q201 0 319.5 -93.5t118.5 -279.5v-733h-199l-20 135q-116 -155 -350 -155zM258 1200
l201 254h266l199 -254h-203l-115 129h-31l-112 -129h-205zM305 319q0 -85 50 -126t155 -41q129 0 217 65t88 172v113l-272 -31q-132 -13 -185 -47t-53 -105z" />
    <glyph glyph-name="adieresis.ss01" horiz-adv-x="1153" 
d="M461 -20q-172 0 -275.5 86.5t-103.5 244.5q0 87 26.5 146t83.5 94.5t128.5 54t179.5 29.5l315 31v73q0 193 -231 193q-112 0 -167 -42.5t-67 -135.5h-223q6 168 132.5 260t332.5 92q201 0 319.5 -93.5t118.5 -279.5v-733h-199l-20 135q-116 -155 -350 -155zM287 1223v209
h207v-209h-207zM305 319q0 -85 50 -126t155 -41q129 0 217 65t88 172v113l-272 -31q-132 -13 -185 -47t-53 -105zM688 1223v209h207v-209h-207z" />
    <glyph glyph-name="agrave.ss01" horiz-adv-x="1153" 
d="M461 -20q-172 0 -275.5 86.5t-103.5 244.5q0 87 26.5 146t83.5 94.5t128.5 54t179.5 29.5l315 31v73q0 193 -231 193q-112 0 -167 -42.5t-67 -135.5h-223q6 168 132.5 260t332.5 92q201 0 319.5 -93.5t118.5 -279.5v-733h-199l-20 135q-116 -155 -350 -155zM264 1454h285
l223 -254h-199zM305 319q0 -85 50 -126t155 -41q129 0 217 65t88 172v113l-272 -31q-132 -13 -185 -47t-53 -105z" />
    <glyph glyph-name="amacron.ss01" horiz-adv-x="1153" 
d="M461 -20q-172 0 -275.5 86.5t-103.5 244.5q0 87 26.5 146t83.5 94.5t128.5 54t179.5 29.5l315 31v73q0 193 -231 193q-112 0 -167 -42.5t-67 -135.5h-223q6 168 132.5 260t332.5 92q201 0 319.5 -93.5t118.5 -279.5v-733h-199l-20 135q-116 -155 -350 -155zM272 1247v160
h637v-160h-637zM305 319q0 -85 50 -126t155 -41q129 0 217 65t88 172v113l-272 -31q-132 -13 -185 -47t-53 -105z" />
    <glyph glyph-name="aogonek.ss01" horiz-adv-x="1153" 
d="M461 -20q-172 0 -275.5 86.5t-103.5 244.5q0 87 26.5 146t83.5 94.5t128.5 54t179.5 29.5l315 31v73q0 193 -231 193q-112 0 -167 -42.5t-67 -135.5h-223q6 168 132.5 260t332.5 92q201 0 319.5 -93.5t118.5 -279.5v-733q-160 -52 -160 -123q0 -28 26 -43.5t71 -15.5h63
v-187h-100q-122 0 -186 50t-64 126q0 140 147 216l-16 112q-116 -155 -350 -155zM305 319q0 -85 50 -126t155 -41q129 0 217 65t88 172v113l-272 -31q-132 -13 -185 -47t-53 -105z" />
    <glyph glyph-name="aring.ss01" horiz-adv-x="1153" 
d="M461 -20q-172 0 -275.5 86.5t-103.5 244.5q0 87 26.5 146t83.5 94.5t128.5 54t179.5 29.5l315 31v73q0 193 -231 193q-112 0 -167 -42.5t-67 -135.5h-223q6 168 132.5 260t332.5 92q201 0 319.5 -93.5t118.5 -279.5v-733h-199l-20 135q-116 -155 -350 -155zM305 319
q0 -85 50 -126t155 -41q129 0 217 65t88 172v113l-272 -31q-132 -13 -185 -47t-53 -105zM385 1374q0 85 58.5 142t148.5 57q89 0 147 -57t58 -142q0 -88 -58 -144t-147 -56q-90 0 -148.5 55.5t-58.5 144.5zM498 1374q0 -43 26.5 -69.5t67.5 -26.5q39 0 65.5 26.5t26.5 69.5
q0 37 -26.5 63.5t-65.5 26.5q-41 0 -67.5 -25t-26.5 -65z" />
    <glyph glyph-name="aringacute.ss01" horiz-adv-x="1153" 
d="M461 -20q-172 0 -275.5 86.5t-103.5 244.5q0 87 26.5 146t83.5 94.5t128.5 54t179.5 29.5l315 31v73q0 193 -231 193q-112 0 -167 -42.5t-67 -135.5h-223q6 168 132.5 260t332.5 92q201 0 319.5 -93.5t118.5 -279.5v-733h-199l-20 135q-116 -155 -350 -155zM305 319
q0 -85 50 -126t155 -41q129 0 217 65t88 172v113l-272 -31q-132 -13 -185 -47t-53 -105zM385 1352q0 85 58.5 141.5t148.5 56.5q89 0 147 -56.5t58 -141.5q0 -89 -58 -145t-147 -56q-90 0 -148.5 56t-58.5 145zM481 1593l224 254h284l-309 -254h-199zM498 1352
q0 -44 27 -70.5t67 -26.5q39 0 65.5 27t26.5 70q0 37 -26.5 63.5t-65.5 26.5q-41 0 -67.5 -25t-26.5 -65z" />
    <glyph glyph-name="atilde.ss01" horiz-adv-x="1153" 
d="M461 -20q-172 0 -275.5 86.5t-103.5 244.5q0 87 26.5 146t83.5 94.5t128.5 54t179.5 29.5l315 31v73q0 193 -231 193q-112 0 -167 -42.5t-67 -135.5h-223q6 168 132.5 260t332.5 92q201 0 319.5 -93.5t118.5 -279.5v-733h-199l-20 135q-116 -155 -350 -155zM219 1198
q5 109 69 184.5t158 75.5q46 0 89.5 -18.5t71.5 -40t58.5 -40t53.5 -18.5q79 0 82 109h170q-3 -107 -68 -183.5t-158 -76.5q-46 0 -89.5 18.5t-71.5 40t-59 40t-54 18.5q-79 0 -82 -109h-170zM305 319q0 -85 50 -126t155 -41q129 0 217 65t88 172v113l-272 -31
q-132 -13 -185 -47t-53 -105z" />
    <glyph glyph-name="ae.ss01" horiz-adv-x="1957" 
d="M469 -20q-177 0 -282 86.5t-105 244.5q0 87 26 146t82.5 94.5t128 54t179.5 29.5l315 31v73q0 101 -59 146t-172 45q-112 0 -166.5 -42.5t-65.5 -133.5h-223q6 168 132 260t329 92q263 0 373 -154q151 154 378 154q119 0 221.5 -44t175 -123t110 -198t28.5 -262h-848
q18 -140 102.5 -230.5t210.5 -90.5q95 0 164.5 48t104.5 132h235q-47 -164 -183.5 -261t-320.5 -97q-130 0 -237 50t-180 142q-49 -62 -108.5 -103t-123 -59t-113 -24t-108.5 -6zM303 322q0 -85 50 -126.5t155 -41.5q129 0 217 64.5t88 170.5v113l-272 -31
q-133 -14 -185.5 -46.5t-52.5 -102.5zM1032 649h619q-25 127 -109.5 205t-202.5 78q-119 0 -200 -78.5t-107 -204.5z" />
    <glyph glyph-name="aeacute.ss01" horiz-adv-x="1957" 
d="M469 -20q-177 0 -282 86.5t-105 244.5q0 87 26 146t82.5 94.5t128 54t179.5 29.5l315 31v73q0 101 -59 146t-172 45q-112 0 -166.5 -42.5t-65.5 -133.5h-223q6 168 132 260t329 92q263 0 373 -154q151 154 378 154q119 0 221.5 -44t175 -123t110 -198t28.5 -262h-848
q18 -140 102.5 -230.5t210.5 -90.5q95 0 164.5 48t104.5 132h235q-47 -164 -183.5 -261t-320.5 -97q-130 0 -237 50t-180 142q-49 -62 -108.5 -103t-123 -59t-113 -24t-108.5 -6zM303 322q0 -85 50 -126.5t155 -41.5q129 0 217 64.5t88 170.5v113l-272 -31
q-133 -14 -185.5 -46.5t-52.5 -102.5zM817 1200l223 254h285l-309 -254h-199zM1032 649h619q-25 127 -109.5 205t-202.5 78q-119 0 -200 -78.5t-107 -204.5z" />
    <glyph glyph-name="b.ss01" horiz-adv-x="1294" 
d="M713 -20q-110 0 -206 42.5t-153 120.5v-143h-219v1454h221v-508q60 76 154.5 118t202.5 42q97 0 185.5 -38.5t158 -108t110.5 -178t41 -238.5t-42 -238.5t-112 -178t-158 -108t-183 -38.5zM344 543q0 -94 27 -169t72.5 -120.5t102 -69.5t118.5 -24t118 24t101 69.5
t71.5 120.5t26.5 169t-26.5 169t-71.5 120.5t-101 69.5t-118 24t-118.5 -24t-102 -69.5t-72.5 -120.5t-27 -169z" />
    <glyph glyph-name="d.ss01" horiz-adv-x="1294" 
d="M588 -20q-98 0 -188 38.5t-159.5 108.5t-111 178t-41.5 238t41.5 238t111 178t159.5 108.5t188 38.5q105 0 198.5 -42t151.5 -118v508h221v-1454h-217v145q-58 -78 -152.5 -121.5t-201.5 -43.5zM313 543q0 -94 27 -169t72.5 -120.5t102 -69.5t118.5 -24q61 0 117 24
t101 69.5t72 120.5t27 169t-27 169t-72 120.5t-101 69.5t-117 24q-62 0 -118.5 -24t-102 -69.5t-72.5 -120.5t-27 -169z" />
    <glyph glyph-name="dcaron.ss01" horiz-adv-x="1294" 
d="M588 -20q-98 0 -188 38.5t-159.5 108.5t-111 178t-41.5 238t41.5 238t111 178t159.5 108.5t188 38.5q105 0 198.5 -42t151.5 -118v508h221v-1454h-217v145q-58 -78 -152.5 -121.5t-201.5 -43.5zM313 543q0 -94 27 -169t72.5 -120.5t102 -69.5t118.5 -24q61 0 117 24
t101 69.5t72 120.5t27 169t-27 169t-72 120.5t-101 69.5t-117 24q-62 0 -118.5 -24t-102 -69.5t-72.5 -120.5t-27 -169zM1249 1139l29 315h231l-102 -315h-158z" />
    <glyph glyph-name="dcroat.ss01" horiz-adv-x="1294" 
d="M588 -20q-98 0 -188 38.5t-159.5 108.5t-111 178t-41.5 238t41.5 238t111 178t159.5 108.5t188 38.5q105 0 198.5 -42t151.5 -118v225h-240v156h240v127h221v-127h164v-156h-164v-1171h-217v145q-58 -78 -152.5 -121.5t-201.5 -43.5zM313 543q0 -94 27 -169t72.5 -120.5
t102 -69.5t118.5 -24q61 0 117 24t101 69.5t72 120.5t27 169t-27 169t-72 120.5t-101 69.5t-117 24q-62 0 -118.5 -24t-102 -69.5t-72.5 -120.5t-27 -169z" />
    <glyph glyph-name="g.ss01" horiz-adv-x="1292" 
d="M233 -369v187h703v372q-62 -81 -153 -119t-193 -38q-142 0 -257.5 70.5t-180 193t-64.5 272.5t65.5 273.5t181 193.5t255.5 70q103 0 196 -40t154 -124v143h217v-1310q0 -66 -39 -105t-106 -39h-779zM311 569q0 -155 90.5 -255.5t235.5 -100.5q146 0 229.5 101t83.5 255
q0 156 -84.5 256.5t-228.5 100.5q-147 0 -236.5 -102t-89.5 -255z" />
    <glyph glyph-name="gbreve.ss01" horiz-adv-x="1292" 
d="M233 -369v187h703v372q-62 -81 -153 -119t-193 -38q-142 0 -257.5 70.5t-180 193t-64.5 272.5t65.5 273.5t181 193.5t255.5 70q103 0 196 -40t154 -124v143h217v-1310q0 -66 -39 -105t-106 -39h-779zM485 1454q12 -60 52 -90.5t100 -30.5q128 0 154 121h176
q-10 -127 -98.5 -195.5t-231.5 -68.5q-146 0 -232 68.5t-96 195.5h176zM311 569q0 -155 90.5 -255.5t235.5 -100.5q146 0 229.5 101t83.5 255q0 156 -84.5 256.5t-228.5 100.5q-147 0 -236.5 -102t-89.5 -255z" />
    <glyph glyph-name="gcircumflex.ss01" horiz-adv-x="1292" 
d="M233 -369v187h703v372q-62 -81 -153 -119t-193 -38q-142 0 -257.5 70.5t-180 193t-64.5 272.5t65.5 273.5t181 193.5t255.5 70q103 0 196 -40t154 -124v143h217v-1310q0 -66 -39 -105t-106 -39h-779zM305 1200l201 254h266l199 -254h-203l-115 129h-30l-113 -129h-205z
M311 569q0 -155 90.5 -255.5t235.5 -100.5q146 0 229.5 101t83.5 255q0 156 -84.5 256.5t-228.5 100.5q-147 0 -236.5 -102t-89.5 -255z" />
    <glyph glyph-name="uni0123.ss01" horiz-adv-x="1292" 
d="M233 -369v187h703v372q-62 -81 -153 -119t-193 -38q-142 0 -257.5 70.5t-180 193t-64.5 272.5t65.5 273.5t181 193.5t255.5 70q103 0 196 -40t154 -124v143h217v-1310q0 -66 -39 -105t-106 -39h-779zM311 569q0 -155 90.5 -255.5t235.5 -100.5q146 0 229.5 101t83.5 255
q0 156 -84.5 256.5t-228.5 100.5q-147 0 -236.5 -102t-89.5 -255zM489 1200l248 254h199l-162 -254h-285z" />
    <glyph glyph-name="gdotaccent.ss01" horiz-adv-x="1292" 
d="M233 -369v187h703v372q-62 -81 -153 -119t-193 -38q-142 0 -257.5 70.5t-180 193t-64.5 272.5t65.5 273.5t181 193.5t255.5 70q103 0 196 -40t154 -124v143h217v-1310q0 -66 -39 -105t-106 -39h-779zM311 569q0 -155 90.5 -255.5t235.5 -100.5q146 0 229.5 101t83.5 255
q0 156 -84.5 256.5t-228.5 100.5q-147 0 -236.5 -102t-89.5 -255zM526 1229v225h222v-225h-222z" />
    <glyph glyph-name="h.ss01" horiz-adv-x="1193" 
d="M135 0v1454h221v-498h6q56 77 131.5 113.5t182.5 36.5q175 0 286 -111.5t111 -316.5v-678h-221v664q0 132 -65 197t-183 65q-119 0 -183.5 -65t-64.5 -197v-664h-221z" />
    <glyph glyph-name="hbar.ss01" horiz-adv-x="1193" 
d="M135 0v1171h-162v156h162v127h221v-127h242v-156h-242v-215h6q56 77 131.5 113.5t182.5 36.5q175 0 286 -111.5t111 -316.5v-678h-221v664q0 132 -65 197t-183 65q-119 0 -183.5 -65t-64.5 -197v-664h-221z" />
    <glyph glyph-name="hcircumflex.ss01" horiz-adv-x="1193" 
d="M135 0v1454h221v-498h6q56 77 131.5 113.5t182.5 36.5q175 0 286 -111.5t111 -316.5v-678h-221v664q0 132 -65 197t-183 65q-119 0 -183.5 -65t-64.5 -197v-664h-221zM-86 1561l201 243h266l199 -243h-203l-115 118h-31l-112 -118h-205z" />
    <glyph glyph-name="m.ss01" horiz-adv-x="1896" 
d="M135 0v1085h205v-129h20q112 150 312 150q101 0 186.5 -46t138.5 -132q105 178 367 178q180 0 296 -118t116 -324v-664h-222v664q0 262 -243 262q-244 0 -244 -264v-662h-221v662q0 264 -246 264q-244 0 -244 -264v-662h-221z" />
    <glyph glyph-name="n.ss01" horiz-adv-x="1193" 
d="M135 0v1085h217v-131h8q110 152 316 152q175 0 286 -111.5t111 -316.5v-678h-221v664q0 132 -65 197t-183 65q-119 0 -183.5 -65t-64.5 -197v-664h-221z" />
    <glyph glyph-name="nacute.ss01" horiz-adv-x="1193" 
d="M135 0v1085h217v-131h8q110 152 316 152q175 0 286 -111.5t111 -316.5v-678h-221v664q0 132 -65 197t-183 65q-119 0 -183.5 -65t-64.5 -197v-664h-221zM459 1200l223 254h285l-310 -254h-198z" />
    <glyph glyph-name="ncaron.ss01" horiz-adv-x="1193" 
d="M135 0v1085h217v-131h8q110 152 316 152q175 0 286 -111.5t111 -316.5v-678h-221v664q0 132 -65 197t-183 65q-119 0 -183.5 -65t-64.5 -197v-664h-221zM270 1454h205l113 -129h30l115 129h203l-199 -254h-266z" />
    <glyph glyph-name="uni0146.ss01" horiz-adv-x="1193" 
d="M135 0v1085h217v-131h8q110 152 316 152q175 0 286 -111.5t111 -316.5v-678h-221v664q0 132 -65 197t-183 65q-119 0 -183.5 -65t-64.5 -197v-664h-221zM432 -430l55 336h224l-117 -336h-162z" />
    <glyph glyph-name="eng.ss01" horiz-adv-x="1193" 
d="M606 -369v187h246v844q0 132 -65.5 198t-182.5 66q-118 0 -183 -66t-65 -198v-662h-221v1085h217v-129h10q111 150 314 150q175 0 286 -111.5t111 -316.5v-903q0 -66 -39 -105t-106 -39h-322z" />
    <glyph glyph-name="ntilde.ss01" horiz-adv-x="1193" 
d="M135 0v1085h217v-131h8q110 152 316 152q175 0 286 -111.5t111 -316.5v-678h-221v664q0 132 -65 197t-183 65q-119 0 -183.5 -65t-64.5 -197v-664h-221zM233 1198q5 109 69.5 184.5t158.5 75.5q46 0 89.5 -18.5t71 -40t58 -40t53.5 -18.5q79 0 82 109h170
q-3 -107 -67.5 -183.5t-157.5 -76.5q-46 0 -90 18.5t-71.5 40t-59 40t-54.5 18.5q-79 0 -82 -109h-170z" />
    <glyph glyph-name="p.ss01" horiz-adv-x="1294" 
d="M135 -369v1454h219v-143q57 78 152 121t201 43q98 0 188 -38.5t160 -108.5t111.5 -178t41.5 -238t-42 -238.5t-112.5 -178t-160 -108t-186.5 -38.5q-104 0 -198 42t-153 117v-508h-221zM344 543q0 -94 27 -169t72.5 -120.5t102 -69.5t118.5 -24t118 24t101 69.5
t71.5 120.5t26.5 169t-26.5 169t-71.5 120.5t-101 69.5t-118 24t-118.5 -24t-102 -69.5t-72.5 -120.5t-27 -169z" />
    <glyph glyph-name="thorn.ss01" horiz-adv-x="1294" 
d="M135 -369v1823h221v-508q59 76 153 118t198 42q98 0 188 -38.5t160 -108.5t111.5 -178t41.5 -238t-42 -238.5t-112.5 -178t-160 -108t-186.5 -38.5q-104 0 -198 42t-153 117v-508h-221zM344 543q0 -93 27 -168t72.5 -121t102 -70t118.5 -24q131 0 224 100t93 283
q0 93 -26.5 167.5t-71.5 120.5t-101 70.5t-118 24.5t-118.5 -24.5t-102 -70.5t-72.5 -120.5t-27 -167.5z" />
    <glyph glyph-name="q.ss01" horiz-adv-x="1294" 
d="M938 -369v508q-58 -76 -151 -117.5t-199 -41.5q-98 0 -188 38.5t-159.5 108.5t-111 178t-41.5 238t41.5 238t111 178t159.5 108.5t188 38.5q107 0 201.5 -43.5t152.5 -122.5v145h217v-1454h-221zM313 543q0 -94 27 -169t72.5 -120.5t102 -69.5t118.5 -24q61 0 117 24
t101 69.5t72 120.5t27 169t-27 169t-72 120.5t-101 69.5t-117 24q-62 0 -118.5 -24t-102 -69.5t-72.5 -120.5t-27 -169z" />
    <glyph glyph-name="r.ss01" horiz-adv-x="739" 
d="M135 0v1085h217v-131h8q44 76 95.5 103.5t148.5 27.5h66v-200h-84q-121 0 -175.5 -50t-54.5 -180v-655h-221z" />
    <glyph glyph-name="racute.ss01" horiz-adv-x="739" 
d="M135 0v1085h217v-131h8q44 76 95.5 103.5t148.5 27.5h66v-200h-84q-121 0 -175.5 -50t-54.5 -180v-655h-221zM246 1200l223 254h285l-310 -254h-198z" />
    <glyph glyph-name="rcaron.ss01" horiz-adv-x="739" 
d="M135 0v1085h217v-131h8q44 76 95.5 103.5t148.5 27.5h66v-200h-84q-121 0 -175.5 -50t-54.5 -180v-655h-221zM59 1454h205l113 -129h31l114 129h203l-199 -254h-266z" />
    <glyph glyph-name="uni0157.ss01" horiz-adv-x="739" 
d="M135 0v1085h217v-131h8q44 76 95.5 103.5t148.5 27.5h66v-200h-84q-121 0 -175.5 -50t-54.5 -180v-655h-221zM76 -430l55 336h223l-116 -336h-162z" />
    <glyph glyph-name="u.ss01" horiz-adv-x="1185" 
d="M514 -20q-172 0 -283.5 112t-111.5 316v677h221v-663q0 -132 64 -197t182 -65q243 0 243 262v663h222v-1085h-217v131h-9q-56 -78 -130.5 -114.5t-180.5 -36.5z" />
    <glyph glyph-name="uacute.ss01" horiz-adv-x="1185" 
d="M514 -20q-172 0 -283.5 112t-111.5 316v677h221v-663q0 -132 64 -197t182 -65q243 0 243 262v663h222v-1085h-217v131h-9q-56 -78 -130.5 -114.5t-180.5 -36.5zM440 1200l224 254h284l-309 -254h-199z" />
    <glyph glyph-name="ubreve.ss01" horiz-adv-x="1185" 
d="M514 -20q-172 0 -283.5 112t-111.5 316v677h221v-663q0 -132 64 -197t182 -65q243 0 243 262v663h222v-1085h-217v131h-9q-56 -78 -130.5 -114.5t-180.5 -36.5zM434 1454q12 -60 52 -90.5t100 -30.5q127 0 153 121h176q-10 -127 -98 -195.5t-231 -68.5q-146 0 -232 68.5
t-96 195.5h176z" />
    <glyph glyph-name="ucircumflex.ss01" horiz-adv-x="1185" 
d="M514 -20q-172 0 -283.5 112t-111.5 316v677h221v-663q0 -132 64 -197t182 -65q243 0 243 262v663h222v-1085h-217v131h-9q-56 -78 -130.5 -114.5t-180.5 -36.5zM252 1200l201 254h266l199 -254h-203l-115 129h-31l-112 -129h-205z" />
    <glyph glyph-name="udieresis.ss01" horiz-adv-x="1185" 
d="M514 -20q-172 0 -283.5 112t-111.5 316v677h221v-663q0 -132 64 -197t182 -65q243 0 243 262v663h222v-1085h-217v131h-9q-56 -78 -130.5 -114.5t-180.5 -36.5zM281 1223v209h206v-209h-206zM682 1223v209h207v-209h-207z" />
    <glyph glyph-name="ugrave.ss01" horiz-adv-x="1185" 
d="M514 -20q-172 0 -283.5 112t-111.5 316v677h221v-663q0 -132 64 -197t182 -65q243 0 243 262v663h222v-1085h-217v131h-9q-56 -78 -130.5 -114.5t-180.5 -36.5zM258 1454h285l223 -254h-199z" />
    <glyph glyph-name="uhungarumlaut.ss01" horiz-adv-x="1185" 
d="M514 -20q-172 0 -283.5 112t-111.5 316v677h221v-663q0 -132 64 -197t182 -65q243 0 243 262v663h222v-1085h-217v131h-9q-56 -78 -130.5 -114.5t-180.5 -36.5zM287 1200l198 254h260l-282 -254h-176zM688 1200l199 254h260l-283 -254h-176z" />
    <glyph glyph-name="umacron.ss01" horiz-adv-x="1185" 
d="M514 -20q-172 0 -283.5 112t-111.5 316v677h221v-663q0 -132 64 -197t182 -65q243 0 243 262v663h222v-1085h-217v131h-9q-56 -78 -130.5 -114.5t-180.5 -36.5zM266 1247v160h637v-160h-637z" />
    <glyph glyph-name="uogonek.ss01" horiz-adv-x="1185" 
d="M514 -20q-172 0 -283.5 112t-111.5 316v677h221v-663q0 -132 64 -197t182 -65q243 0 243 262v663h222v-1085q-160 -52 -160 -123q0 -28 26 -43.5t70 -15.5h64v-187h-101q-122 0 -186 50t-64 126q0 130 134 207v117h-9q-56 -78 -130.5 -114.5t-180.5 -36.5z" />
    <glyph glyph-name="uring.ss01" horiz-adv-x="1185" 
d="M514 -20q-172 0 -283.5 112t-111.5 316v677h221v-663q0 -132 64 -197t182 -65q243 0 243 262v663h222v-1085h-217v131h-9q-56 -78 -130.5 -114.5t-180.5 -36.5zM379 1374q0 85 58.5 142t148.5 57q89 0 147 -57t58 -142q0 -88 -58 -144t-147 -56q-90 0 -148.5 55.5
t-58.5 144.5zM492 1374q0 -43 26.5 -69.5t67.5 -26.5q39 0 65.5 26.5t26.5 69.5q0 37 -26.5 63.5t-65.5 26.5q-41 0 -67.5 -25t-26.5 -65z" />
    <glyph glyph-name="utilde.ss01" horiz-adv-x="1185" 
d="M514 -20q-172 0 -283.5 112t-111.5 316v677h221v-663q0 -132 64 -197t182 -65q243 0 243 262v663h222v-1085h-217v131h-9q-56 -78 -130.5 -114.5t-180.5 -36.5zM215 1198q5 109 69 184.5t158 75.5q46 0 89.5 -18.5t71.5 -40t58.5 -40t53.5 -18.5q79 0 82 109h170
q-3 -107 -68 -183.5t-158 -76.5q-46 0 -89.5 18.5t-71.5 40t-59 40t-54 18.5q-79 0 -82 -109h-170z" />
    <glyph glyph-name="a.ss01.ss02" horiz-adv-x="1216" 
d="M453 -20q-166 0 -268.5 87t-102.5 246q0 86 25 144.5t80 94t126 54t179 29.5l305 31v73q0 193 -224 193q-104 0 -157.5 -43t-65.5 -135h-223q0 164 127.5 258t327.5 94q194 0 312 -93.5t118 -279.5v-543h135v-190h-207q-54 0 -88.5 34.5t-34.5 88.5v41h-6
q-59 -96 -153.5 -140t-204.5 -44zM305 319q0 -85 48.5 -126t150.5 -41q124 0 208.5 65t84.5 172v113l-265 -31q-128 -14 -177.5 -47t-49.5 -105z" />
    <glyph glyph-name="aacute.ss01.ss02" horiz-adv-x="1216" 
d="M453 -20q-166 0 -268.5 87t-102.5 246q0 86 25 144.5t80 94t126 54t179 29.5l305 31v73q0 193 -224 193q-104 0 -157.5 -43t-65.5 -135h-223q0 164 127.5 258t327.5 94q194 0 312 -93.5t118 -279.5v-543h135v-190h-207q-54 0 -88.5 34.5t-34.5 88.5v41h-6
q-59 -96 -153.5 -140t-204.5 -44zM305 319q0 -85 48.5 -126t150.5 -41q124 0 208.5 65t84.5 172v113l-265 -31q-128 -14 -177.5 -47t-49.5 -105zM434 1200l223 254h285l-309 -254h-199z" />
    <glyph glyph-name="abreve.ss01.ss02" horiz-adv-x="1216" 
d="M453 -20q-166 0 -268.5 87t-102.5 246q0 86 25 144.5t80 94t126 54t179 29.5l305 31v73q0 193 -224 193q-104 0 -157.5 -43t-65.5 -135h-223q0 164 127.5 258t327.5 94q194 0 312 -93.5t118 -279.5v-543h135v-190h-207q-54 0 -88.5 34.5t-34.5 88.5v41h-6
q-59 -96 -153.5 -140t-204.5 -44zM428 1454q12 -60 52 -90.5t100 -30.5q127 0 153 121h176q-10 -127 -98 -195.5t-231 -68.5q-146 0 -232 68.5t-96 195.5h176zM305 319q0 -85 48.5 -126t150.5 -41q124 0 208.5 65t84.5 172v113l-265 -31q-128 -14 -177.5 -47t-49.5 -105z
" />
    <glyph glyph-name="acircumflex.ss01.ss02" horiz-adv-x="1216" 
d="M453 -20q-166 0 -268.5 87t-102.5 246q0 86 25 144.5t80 94t126 54t179 29.5l305 31v73q0 193 -224 193q-104 0 -157.5 -43t-65.5 -135h-223q0 164 127.5 258t327.5 94q194 0 312 -93.5t118 -279.5v-543h135v-190h-207q-54 0 -88.5 34.5t-34.5 88.5v41h-6
q-59 -96 -153.5 -140t-204.5 -44zM248 1200l201 254h266l198 -254h-202l-115 129h-31l-112 -129h-205zM305 319q0 -85 48.5 -126t150.5 -41q124 0 208.5 65t84.5 172v113l-265 -31q-128 -14 -177.5 -47t-49.5 -105z" />
    <glyph glyph-name="adieresis.ss01.ss02" horiz-adv-x="1216" 
d="M453 -20q-166 0 -268.5 87t-102.5 246q0 86 25 144.5t80 94t126 54t179 29.5l305 31v73q0 193 -224 193q-104 0 -157.5 -43t-65.5 -135h-223q0 164 127.5 258t327.5 94q194 0 312 -93.5t118 -279.5v-543h135v-190h-207q-54 0 -88.5 34.5t-34.5 88.5v41h-6
q-59 -96 -153.5 -140t-204.5 -44zM276 1223v209h207v-209h-207zM305 319q0 -85 48.5 -126t150.5 -41q124 0 208.5 65t84.5 172v113l-265 -31q-128 -14 -177.5 -47t-49.5 -105zM678 1223v209h207v-209h-207z" />
    <glyph glyph-name="agrave.ss01.ss02" horiz-adv-x="1216" 
d="M453 -20q-166 0 -268.5 87t-102.5 246q0 86 25 144.5t80 94t126 54t179 29.5l305 31v73q0 193 -224 193q-104 0 -157.5 -43t-65.5 -135h-223q0 164 127.5 258t327.5 94q194 0 312 -93.5t118 -279.5v-543h135v-190h-207q-54 0 -88.5 34.5t-34.5 88.5v41h-6
q-59 -96 -153.5 -140t-204.5 -44zM254 1454h285l223 -254h-199zM305 319q0 -85 48.5 -126t150.5 -41q124 0 208.5 65t84.5 172v113l-265 -31q-128 -14 -177.5 -47t-49.5 -105z" />
    <glyph glyph-name="amacron.ss01.ss02" horiz-adv-x="1216" 
d="M453 -20q-166 0 -268.5 87t-102.5 246q0 86 25 144.5t80 94t126 54t179 29.5l305 31v73q0 193 -224 193q-104 0 -157.5 -43t-65.5 -135h-223q0 164 127.5 258t327.5 94q194 0 312 -93.5t118 -279.5v-543h135v-190h-207q-54 0 -88.5 34.5t-34.5 88.5v41h-6
q-59 -96 -153.5 -140t-204.5 -44zM262 1247v160h637v-160h-637zM305 319q0 -85 48.5 -126t150.5 -41q124 0 208.5 65t84.5 172v113l-265 -31q-128 -14 -177.5 -47t-49.5 -105z" />
    <glyph glyph-name="aogonek.ss01.ss02" horiz-adv-x="1216" 
d="M453 -20q-166 0 -268.5 87t-102.5 246q0 86 25 144.5t80 94t126 54t179 29.5l305 31v73q0 193 -224 193q-104 0 -157.5 -43t-65.5 -135h-223q0 164 127.5 258t327.5 94q194 0 312 -93.5t118 -279.5v-543h135v-190h-88q-160 -52 -160 -123q0 -28 26 -43.5t70 -15.5h64
v-187h-101q-122 0 -185.5 50t-63.5 126q0 142 153 218q-45 36 -45 98v41h-6q-59 -96 -153.5 -140t-204.5 -44zM305 319q0 -85 48.5 -126t150.5 -41q124 0 208.5 65t84.5 172v113l-265 -31q-128 -14 -177.5 -47t-49.5 -105z" />
    <glyph glyph-name="aring.ss01.ss02" horiz-adv-x="1216" 
d="M453 -20q-166 0 -268.5 87t-102.5 246q0 86 25 144.5t80 94t126 54t179 29.5l305 31v73q0 193 -224 193q-104 0 -157.5 -43t-65.5 -135h-223q0 164 127.5 258t327.5 94q194 0 312 -93.5t118 -279.5v-543h135v-190h-207q-54 0 -88.5 34.5t-34.5 88.5v41h-6
q-59 -96 -153.5 -140t-204.5 -44zM305 319q0 -85 48.5 -126t150.5 -41q124 0 208.5 65t84.5 172v113l-265 -31q-128 -14 -177.5 -47t-49.5 -105zM375 1374q0 85 58.5 142t148.5 57q89 0 146.5 -57t57.5 -142q0 -88 -57.5 -144t-146.5 -56q-90 0 -148.5 55.5t-58.5 144.5z
M487 1374q0 -43 27 -69.5t68 -26.5q39 0 65.5 26.5t26.5 69.5q0 37 -26.5 63.5t-65.5 26.5q-41 0 -68 -25t-27 -65z" />
    <glyph glyph-name="aringacute.ss01.ss02" horiz-adv-x="1216" 
d="M453 -20q-166 0 -268.5 87t-102.5 246q0 86 25 144.5t80 94t126 54t179 29.5l305 31v73q0 193 -224 193q-104 0 -157.5 -43t-65.5 -135h-223q0 164 127.5 258t327.5 94q194 0 312 -93.5t118 -279.5v-543h135v-190h-207q-54 0 -88.5 34.5t-34.5 88.5v41h-6
q-59 -96 -153.5 -140t-204.5 -44zM305 319q0 -85 48.5 -126t150.5 -41q124 0 208.5 65t84.5 172v113l-265 -31q-128 -14 -177.5 -47t-49.5 -105zM375 1352q0 85 58.5 141.5t148.5 56.5q89 0 146.5 -56.5t57.5 -141.5q0 -89 -58 -145t-146 -56q-90 0 -148.5 56t-58.5 145z
M471 1593l223 254h285l-309 -254h-199zM487 1352q0 -43 27 -70t68 -27q39 0 65.5 27t26.5 70q0 37 -26.5 63.5t-65.5 26.5q-41 0 -68 -25t-27 -65z" />
    <glyph glyph-name="atilde.ss01.ss02" horiz-adv-x="1216" 
d="M453 -20q-166 0 -268.5 87t-102.5 246q0 86 25 144.5t80 94t126 54t179 29.5l305 31v73q0 193 -224 193q-104 0 -157.5 -43t-65.5 -135h-223q0 164 127.5 258t327.5 94q194 0 312 -93.5t118 -279.5v-543h135v-190h-207q-54 0 -88.5 34.5t-34.5 88.5v41h-6
q-59 -96 -153.5 -140t-204.5 -44zM209 1198q5 109 69 184.5t158 75.5q46 0 89.5 -18.5t71.5 -40t58.5 -40t53.5 -18.5q79 0 82 109h170q-3 -107 -68 -183.5t-158 -76.5q-46 0 -89.5 18.5t-71.5 40t-59 40t-54 18.5q-79 0 -82 -109h-170zM305 319q0 -85 48.5 -126t150.5 -41
q124 0 208.5 65t84.5 172v113l-265 -31q-128 -14 -177.5 -47t-49.5 -105z" />
    <glyph glyph-name="a.ss01.ss03" horiz-adv-x="1294" 
d="M588 -20q-98 0 -188 38.5t-159.5 108.5t-111 178t-41.5 238t41.5 238t111 178t159.5 108.5t188 38.5q107 0 201.5 -43.5t152.5 -122.5v145h217v-1085h-217v145q-58 -78 -152.5 -121.5t-201.5 -43.5zM313 543q0 -94 27 -169t72.5 -120.5t102 -69.5t118.5 -24q61 0 117 24
t101 69.5t72 120.5t27 169t-27 169t-72 120.5t-101 69.5t-117 24q-62 0 -118.5 -24t-102 -69.5t-72.5 -120.5t-27 -169z" />
    <glyph glyph-name="aacute.ss01.ss03" horiz-adv-x="1294" 
d="M588 -20q-98 0 -188 38.5t-159.5 108.5t-111 178t-41.5 238t41.5 238t111 178t159.5 108.5t188 38.5q107 0 201.5 -43.5t152.5 -122.5v145h217v-1085h-217v145q-58 -78 -152.5 -121.5t-201.5 -43.5zM313 543q0 -94 27 -169t72.5 -120.5t102 -69.5t118.5 -24q61 0 117 24
t101 69.5t72 120.5t27 169t-27 169t-72 120.5t-101 69.5t-117 24q-62 0 -118.5 -24t-102 -69.5t-72.5 -120.5t-27 -169zM487 1200l224 254h284l-309 -254h-199z" />
    <glyph glyph-name="abreve.ss01.ss03" horiz-adv-x="1294" 
d="M588 -20q-98 0 -188 38.5t-159.5 108.5t-111 178t-41.5 238t41.5 238t111 178t159.5 108.5t188 38.5q107 0 201.5 -43.5t152.5 -122.5v145h217v-1085h-217v145q-58 -78 -152.5 -121.5t-201.5 -43.5zM479 1454q12 -60 52 -90.5t100 -30.5q127 0 153 121h177
q-10 -127 -98.5 -195.5t-231.5 -68.5q-146 0 -232 68.5t-96 195.5h176zM313 543q0 -94 27 -169t72.5 -120.5t102 -69.5t118.5 -24q61 0 117 24t101 69.5t72 120.5t27 169t-27 169t-72 120.5t-101 69.5t-117 24q-62 0 -118.5 -24t-102 -69.5t-72.5 -120.5t-27 -169z" />
    <glyph glyph-name="acircumflex.ss01.ss03" horiz-adv-x="1294" 
d="M588 -20q-98 0 -188 38.5t-159.5 108.5t-111 178t-41.5 238t41.5 238t111 178t159.5 108.5t188 38.5q107 0 201.5 -43.5t152.5 -122.5v145h217v-1085h-217v145q-58 -78 -152.5 -121.5t-201.5 -43.5zM299 1200l201 254h266l199 -254h-203l-115 129h-31l-112 -129h-205z
M313 543q0 -94 27 -169t72.5 -120.5t102 -69.5t118.5 -24q61 0 117 24t101 69.5t72 120.5t27 169t-27 169t-72 120.5t-101 69.5t-117 24q-62 0 -118.5 -24t-102 -69.5t-72.5 -120.5t-27 -169z" />
    <glyph glyph-name="adieresis.ss01.ss03" horiz-adv-x="1294" 
d="M588 -20q-98 0 -188 38.5t-159.5 108.5t-111 178t-41.5 238t41.5 238t111 178t159.5 108.5t188 38.5q107 0 201.5 -43.5t152.5 -122.5v145h217v-1085h-217v145q-58 -78 -152.5 -121.5t-201.5 -43.5zM313 543q0 -94 27 -169t72.5 -120.5t102 -69.5t118.5 -24q61 0 117 24
t101 69.5t72 120.5t27 169t-27 169t-72 120.5t-101 69.5t-117 24q-62 0 -118.5 -24t-102 -69.5t-72.5 -120.5t-27 -169zM328 1223v209h207v-209h-207zM729 1223v209h207v-209h-207z" />
    <glyph glyph-name="agrave.ss01.ss03" horiz-adv-x="1294" 
d="M588 -20q-98 0 -188 38.5t-159.5 108.5t-111 178t-41.5 238t41.5 238t111 178t159.5 108.5t188 38.5q107 0 201.5 -43.5t152.5 -122.5v145h217v-1085h-217v145q-58 -78 -152.5 -121.5t-201.5 -43.5zM305 1454h285l223 -254h-199zM313 543q0 -94 27 -169t72.5 -120.5
t102 -69.5t118.5 -24q61 0 117 24t101 69.5t72 120.5t27 169t-27 169t-72 120.5t-101 69.5t-117 24q-62 0 -118.5 -24t-102 -69.5t-72.5 -120.5t-27 -169z" />
    <glyph glyph-name="amacron.ss01.ss03" horiz-adv-x="1294" 
d="M588 -20q-98 0 -188 38.5t-159.5 108.5t-111 178t-41.5 238t41.5 238t111 178t159.5 108.5t188 38.5q107 0 201.5 -43.5t152.5 -122.5v145h217v-1085h-217v145q-58 -78 -152.5 -121.5t-201.5 -43.5zM313 543q0 -94 27 -169t72.5 -120.5t102 -69.5t118.5 -24q61 0 117 24
t101 69.5t72 120.5t27 169t-27 169t-72 120.5t-101 69.5t-117 24q-62 0 -118.5 -24t-102 -69.5t-72.5 -120.5t-27 -169zM313 1247v160h637v-160h-637z" />
    <glyph glyph-name="aogonek.ss01.ss03" horiz-adv-x="1294" 
d="M588 -20q-98 0 -188 38.5t-159.5 108.5t-111 178t-41.5 238t41.5 238t111 178t159.5 108.5t188 38.5q107 0 201.5 -43.5t152.5 -122.5v145h217v-1085q-160 -52 -160 -123q0 -28 26 -43.5t71 -15.5h63v-187h-100q-122 0 -186 50t-64 126q0 131 133 207v131
q-58 -78 -152.5 -121.5t-201.5 -43.5zM313 543q0 -94 27 -169t72.5 -120.5t102 -69.5t118.5 -24q61 0 117 24t101 69.5t72 120.5t27 169t-27 169t-72 120.5t-101 69.5t-117 24q-62 0 -118.5 -24t-102 -69.5t-72.5 -120.5t-27 -169z" />
    <glyph glyph-name="aring.ss01.ss03" horiz-adv-x="1294" 
d="M588 -20q-98 0 -188 38.5t-159.5 108.5t-111 178t-41.5 238t41.5 238t111 178t159.5 108.5t188 38.5q107 0 201.5 -43.5t152.5 -122.5v145h217v-1085h-217v145q-58 -78 -152.5 -121.5t-201.5 -43.5zM313 543q0 -94 27 -169t72.5 -120.5t102 -69.5t118.5 -24q61 0 117 24
t101 69.5t72 120.5t27 169t-27 169t-72 120.5t-101 69.5t-117 24q-62 0 -118.5 -24t-102 -69.5t-72.5 -120.5t-27 -169zM426 1374q0 85 58.5 142t148.5 57q89 0 147 -57t58 -142q0 -88 -58 -144t-147 -56q-90 0 -148.5 55.5t-58.5 144.5zM539 1374q0 -43 26.5 -69.5
t67.5 -26.5q39 0 65.5 26.5t26.5 69.5q0 37 -26.5 63.5t-65.5 26.5q-41 0 -67.5 -25t-26.5 -65z" />
    <glyph glyph-name="aringacute.ss01.ss03" horiz-adv-x="1294" 
d="M588 -20q-98 0 -188 38.5t-159.5 108.5t-111 178t-41.5 238t41.5 238t111 178t159.5 108.5t188 38.5q107 0 201.5 -43.5t152.5 -122.5v145h217v-1085h-217v145q-58 -78 -152.5 -121.5t-201.5 -43.5zM313 543q0 -94 27 -169t72.5 -120.5t102 -69.5t118.5 -24q61 0 117 24
t101 69.5t72 120.5t27 169t-27 169t-72 120.5t-101 69.5t-117 24q-62 0 -118.5 -24t-102 -69.5t-72.5 -120.5t-27 -169zM426 1352q0 85 58.5 141.5t148.5 56.5q89 0 147 -56.5t58 -141.5q0 -89 -58 -145t-147 -56q-90 0 -148.5 56t-58.5 145zM522 1593l223 254h285
l-309 -254h-199zM539 1352q0 -44 26.5 -70.5t67.5 -26.5q39 0 65.5 27t26.5 70q0 37 -26.5 63.5t-65.5 26.5q-41 0 -67.5 -25t-26.5 -65z" />
    <glyph glyph-name="atilde.ss01.ss03" horiz-adv-x="1294" 
d="M588 -20q-98 0 -188 38.5t-159.5 108.5t-111 178t-41.5 238t41.5 238t111 178t159.5 108.5t188 38.5q107 0 201.5 -43.5t152.5 -122.5v145h217v-1085h-217v145q-58 -78 -152.5 -121.5t-201.5 -43.5zM260 1198q5 109 69 184.5t158 75.5q46 0 89.5 -18.5t71.5 -40t58.5 -40
t53.5 -18.5q79 0 82 109h170q-3 -107 -68 -183.5t-158 -76.5q-46 0 -89.5 18.5t-71 40t-59 40t-54.5 18.5q-79 0 -82 -109h-170zM313 543q0 -94 27 -169t72.5 -120.5t102 -69.5t118.5 -24q61 0 117 24t101 69.5t72 120.5t27 169t-27 169t-72 120.5t-101 69.5t-117 24
q-62 0 -118.5 -24t-102 -69.5t-72.5 -120.5t-27 -169z" />
    <glyph glyph-name="f_iacute" horiz-adv-x="1236" 
d="M229 1317q0 61 39 99t99 38h360v-186h-276v-183h276v-190h-276v-895h-222v895h-159v190h159v232zM848 1200l223 254h285l-309 -254h-199zM883 0v1085h221v-1085h-221z" />
    <glyph glyph-name="f_t" horiz-adv-x="1431" 
d="M229 1317q0 61 39 99t99 38h360v-186h-276v-183h432v277h221v-277h242v-190h-242v-709h242v-186h-326q-60 0 -98.5 38.5t-38.5 98.5v758h-432v-895h-222v895h-159v190h159v232z" />
    <glyph glyph-name="r_f" horiz-adv-x="1353" 
d="M133 948q0 61 38.5 99t98.5 38h516v232q0 61 39 99t99 38h360v-186h-276v-183h276v-190h-276v-895h-222v895h-432v-895h-221v948z" />
    <glyph glyph-name="r_f_f" horiz-adv-x="2007" 
d="M786 1317q0 61 39 99t99 38h360v-186h-276v-183h432v232q0 61 38.5 99t100.5 38h358v-186h-276v-183h276v-190h-276v-895h-221v895h-432v-895h-222v895h-432v-895h-221v948q0 61 38.5 99t98.5 38h516v232z" />
    <glyph glyph-name="r_i" horiz-adv-x="1142" 
d="M133 942q0 66 39.5 104.5t108.5 38.5h727v-1085h-222v895h-432v-895h-221v942zM786 1229v225h222v-225h-222z" />
    <glyph glyph-name="r_dotlessi" horiz-adv-x="1142" 
d="M133 942q0 66 39.5 104.5t108.5 38.5h727v-1085h-222v895h-432v-895h-221v942z" />
    <glyph glyph-name="r_iacute" horiz-adv-x="1142" 
d="M133 942q0 66 39.5 104.5t108.5 38.5h727v-1085h-222v895h-432v-895h-221v942zM754 1200l223 254h285l-310 -254h-198z" />
    <glyph glyph-name="r_icircumflex" horiz-adv-x="1142" 
d="M133 942q0 66 39.5 104.5t108.5 38.5h727v-1085h-222v895h-432v-895h-221v942zM565 1200l201 254h266l199 -254h-203l-115 129h-30l-113 -129h-205z" />
    <glyph glyph-name="r_idieresis" horiz-adv-x="1142" 
d="M133 942q0 66 39.5 104.5t108.5 38.5h727v-1085h-222v895h-432v-895h-221v942zM594 1223v209h207v-209h-207zM995 1223v209h207v-209h-207z" />
    <glyph glyph-name="r_igrave" horiz-adv-x="1142" 
d="M133 942q0 66 39.5 104.5t108.5 38.5h727v-1085h-222v895h-432v-895h-221v942zM571 1454h285l223 -254h-198z" />
    <glyph glyph-name="r_ij" horiz-adv-x="1634" 
d="M133 942q0 66 39.5 104.5t108.5 38.5h727v-1085h-222v895h-432v-895h-221v942zM786 1229v225h222v-225h-222zM1032 -369v187h246v1267h221v-1310q0 -66 -39 -105t-108 -39h-320zM1276 1229v225h221v-225h-221z" />
    <glyph glyph-name="r_imacron" horiz-adv-x="1142" 
d="M133 942q0 66 39.5 104.5t108.5 38.5h727v-1085h-222v895h-432v-895h-221v942zM580 1247v160h637v-160h-637z" />
    <glyph glyph-name="r_iogonek" horiz-adv-x="1142" 
d="M133 942q0 66 39.5 104.5t108.5 38.5h727v-1085q-160 -52 -160 -123q0 -28 26 -43.5t70 -15.5h64v-187h-101q-122 0 -186 50t-64 126q0 128 129 205v883h-432v-895h-221v942zM786 1229v225h222v-225h-222z" />
    <glyph glyph-name="r_r_i" horiz-adv-x="1796" 
d="M133 948q0 61 38.5 99t98.5 38h361v-190h-277v-895h-221v948zM786 0v942q0 66 39.5 104.5t108.5 38.5h727v-1085h-221v895h-432v-895h-222zM1440 1229v225h221v-225h-221z" />
    <glyph glyph-name="r_r_y" horiz-adv-x="2375" 
d="M133 948q0 61 38.5 99t98.5 38h361v-190h-277v-895h-221v948zM786 0v948q0 61 39 99t99 38h559l205 -643l75 -252h39l76 252l205 643h229v-16l-450 -1313q-42 -125 -172 -125h-295v187h299l49 186h-125l-305 891h-305v-895h-222z" />
    <glyph glyph-name="r_t" horiz-adv-x="1333" 
d="M133 948q0 61 38.5 99t98.5 38h516v277h222v-277h241v-190h-241v-709h241v-186h-325q-60 0 -99 38.5t-39 98.5v758h-432v-895h-221v948z" />
    <glyph glyph-name="r_tcaron" horiz-adv-x="1333" 
d="M133 948q0 61 38.5 99t98.5 38h516v277h222v-277h241v-190h-241v-709h241v-186h-325q-60 0 -99 38.5t-39 98.5v758h-432v-895h-221v948zM1112 1139l29 315h231l-102 -315h-158z" />
    <glyph glyph-name="uni0072021B" horiz-adv-x="1333" 
d="M133 948q0 61 38.5 99t98.5 38h516v277h222v-277h241v-190h-241v-709h241v-186h-325q-60 0 -99 38.5t-39 98.5v758h-432v-895h-221v948zM817 -430l55 336h224l-117 -336h-162z" />
    <glyph glyph-name="r_u" horiz-adv-x="1835" 
d="M133 948q0 61 38.5 99t98.5 38h738v-639q0 -258 231 -258h242v897h221v-948q0 -60 -39 -98.5t-100 -38.5h-377q-175 0 -287.5 112.5t-112.5 315.5v467h-432v-895h-221v948z" />
    <glyph glyph-name="r_uacute" horiz-adv-x="1835" 
d="M133 948q0 61 38.5 99t98.5 38h738v-639q0 -258 231 -258h242v897h221v-948q0 -60 -39 -98.5t-100 -38.5h-377q-175 0 -287.5 112.5t-112.5 315.5v467h-432v-895h-221v948zM1098 1200l223 254h285l-310 -254h-198z" />
    <glyph glyph-name="r_ucircumflex" horiz-adv-x="1835" 
d="M133 948q0 61 38.5 99t98.5 38h738v-639q0 -258 231 -258h242v897h221v-948q0 -60 -39 -98.5t-100 -38.5h-377q-175 0 -287.5 112.5t-112.5 315.5v467h-432v-895h-221v948zM911 1200l201 254h266l199 -254h-203l-114 129h-31l-113 -129h-205z" />
    <glyph glyph-name="r_udieresis" horiz-adv-x="1835" 
d="M133 948q0 61 38.5 99t98.5 38h738v-639q0 -258 231 -258h242v897h221v-948q0 -60 -39 -98.5t-100 -38.5h-377q-175 0 -287.5 112.5t-112.5 315.5v467h-432v-895h-221v948zM940 1223v209h207v-209h-207zM1341 1223v209h207v-209h-207z" />
    <glyph glyph-name="r_ugrave" horiz-adv-x="1835" 
d="M133 948q0 61 38.5 99t98.5 38h738v-639q0 -258 231 -258h242v897h221v-948q0 -60 -39 -98.5t-100 -38.5h-377q-175 0 -287.5 112.5t-112.5 315.5v467h-432v-895h-221v948zM918 1454h284l223 -254h-198z" />
    <glyph glyph-name="r_uhungarumlaut" horiz-adv-x="1835" 
d="M133 948q0 61 38.5 99t98.5 38h738v-639q0 -258 231 -258h242v897h221v-948q0 -60 -39 -98.5t-100 -38.5h-377q-175 0 -287.5 112.5t-112.5 315.5v467h-432v-895h-221v948zM946 1200l199 254h260l-283 -254h-176zM1348 1200l198 254h260l-282 -254h-176z" />
    <glyph glyph-name="r_umacron" horiz-adv-x="1835" 
d="M133 948q0 61 38.5 99t98.5 38h738v-639q0 -258 231 -258h242v897h221v-948q0 -60 -39 -98.5t-100 -38.5h-377q-175 0 -287.5 112.5t-112.5 315.5v467h-432v-895h-221v948zM926 1247v160h637v-160h-637z" />
    <glyph glyph-name="r_uogonek" horiz-adv-x="1835" 
d="M133 948q0 61 38.5 99t98.5 38h738v-639q0 -258 231 -258h242v897h221v-948q0 -60 -39 -98.5t-100 -38.5h-138q-159 -51 -159 -123q0 -28 26 -43.5t70 -15.5h63v-187h-100q-122 0 -186 50t-64 126q0 119 111 193q-175 0 -287.5 112.5t-112.5 315.5v467h-432v-895h-221
v948z" />
    <glyph glyph-name="r_uring" horiz-adv-x="1835" 
d="M133 948q0 61 38.5 99t98.5 38h738v-639q0 -258 231 -258h242v897h221v-948q0 -60 -39 -98.5t-100 -38.5h-377q-175 0 -287.5 112.5t-112.5 315.5v467h-432v-895h-221v948zM1038 1374q0 85 58.5 142t148.5 57q89 0 147 -57t58 -142q0 -88 -58 -144t-147 -56
q-90 0 -148.5 55.5t-58.5 144.5zM1151 1374q0 -43 26.5 -69.5t67.5 -26.5q39 0 65.5 26.5t26.5 69.5q0 37 -26.5 63.5t-65.5 26.5q-41 0 -67.5 -25t-26.5 -65z" />
    <glyph glyph-name="r_v" horiz-adv-x="1720" 
d="M133 948q0 61 38.5 99t98.5 38h559l203 -643l78 -252h39l78 252l203 643h227v-18l-365 -1067h-325l-308 895h-305v-895h-221v948z" />
    <glyph glyph-name="r_w" horiz-adv-x="2316" 
d="M133 948q0 61 38.5 99t98.5 38h568l149 -643l55 -252h29l51 252l148 643h323l148 -643l51 -252h29l55 252l149 643h224v-16l-281 -1069h-319l-150 643l-51 252h-33l-49 -252l-152 -643h-317l-238 895h-305v-895h-221v948z" />
    </font>
</defs>
</svg>
